  0
SECTION
  2
HEADER
  9
$ACADVER
  1
AC1027
  9
$ACADMAINTVER
 70
   125
  9
$DWGCODEPAGE
  3
ANSI_1252
  9
$LASTSAVEDBY
  1
Administrator
  9
$REQUIREDVERSIONS
160
                 0
  9
$INSBASE
 10
0.0
 20
0.0
 30
0.0
  9
$EXTMIN
 10
0.0
 20
0.0
 30
-2.067796
  9
$EXTMAX
 10
17.0
 20
11.0
 30
2.486352
  9
$LIMMIN
 10
0.0
 20
0.0
  9
$LIMMAX
 10
17.0
 20
11.0
  9
$ORTHOMODE
 70
     0
  9
$REGENMODE
 70
     1
  9
$FILLMODE
 70
     1
  9
$QTEXTMODE
 70
     0
  9
$MIRRTEXT
 70
     0
  9
$LTSCALE
 40
0.75
  9
$ATTMODE
 70
     1
  9
$TEXTSIZE
 40
0.12
  9
$TRACEWID
 40
0.05
  9
$TEXTSTYLE
  7
Standard
  9
$CLAYER
  8
Titleblock
  9
$CELTYPE
  6
ByLayer
  9
$CECOLOR
 62
   256
  9
$CELTSCALE
 40
1.0
  9
$DISPSILH
 70
     0
  9
$DIMSCALE
 40
1.0
  9
$DIMASZ
 40
0.12
  9
$DIMEXO
 40
0.05
  9
$DIMDLI
 40
0.339411
  9
$DIMRND
 40
0.0
  9
$DIMDLE
 40
0.0
  9
$DIMEXE
 40
0.1
  9
$DIMTP
 40
0.01
  9
$DIMTM
 40
0.01
  9
$DIMTXT
 40
0.12
  9
$DIMCEN
 40
0.0
  9
$DIMTSZ
 40
0.0
  9
$DIMTOL
 70
     0
  9
$DIMLIM
 70
     0
  9
$DIMTIH
 70
     1
  9
$DIMTOH
 70
     1
  9
$DIMSE1
 70
     0
  9
$DIMSE2
 70
     0
  9
$DIMTAD
 70
     0
  9
$DIMZIN
 70
    12
  9
$DIMBLK
  1

  9
$DIMASO
 70
     1
  9
$DIMSHO
 70
     1
  9
$DIMPOST
  1
in
  9
$DIMAPOST
  1
mm
  9
$DIMALT
 70
     0
  9
$DIMALTD
 70
     2
  9
$DIMALTF
 40
25.4
  9
$DIMLFAC
 40
1.0
  9
$DIMTOFL
 70
     0
  9
$DIMTVP
 40
0.0
  9
$DIMTIX
 70
     0
  9
$DIMSOXD
 70
     0
  9
$DIMSAH
 70
     0
  9
$DIMBLK1
  1

  9
$DIMBLK2
  1

  9
$DIMSTYLE
  2
Standard
  9
$DIMCLRD
 70
   256
  9
$DIMCLRE
 70
   256
  9
$DIMCLRT
 70
   256
  9
$DIMTFAC
 40
1.0
  9
$DIMGAP
 40
0.06
  9
$DIMJUST
 70
     0
  9
$DIMSD1
 70
     0
  9
$DIMSD2
 70
     0
  9
$DIMTOLJ
 70
     1
  9
$DIMTZIN
 70
    12
  9
$DIMALTZ
 70
    12
  9
$DIMALTTZ
 70
    12
  9
$DIMUPT
 70
     0
  9
$DIMDEC
 70
     2
  9
$DIMTDEC
 70
     2
  9
$DIMALTU
 70
     2
  9
$DIMALTTD
 70
     2
  9
$DIMTXSTY
  7
Standard
  9
$DIMAUNIT
 70
     0
  9
$DIMADEC
 70
     2
  9
$DIMALTRND
 40
0.0
  9
$DIMAZIN
 70
     3
  9
$DIMDSEP
 70
    46
  9
$DIMATFIT
 70
     3
  9
$DIMFRAC
 70
     0
  9
$DIMLDRBLK
  1

  9
$DIMLUNIT
 70
     2
  9
$DIMLWD
 70
    -2
  9
$DIMLWE
 70
    -2
  9
$DIMTMOVE
 70
     0
  9
$DIMFXL
 40
1.0
  9
$DIMFXLON
 70
     0
  9
$DIMJOGANG
 40
0.785398
  9
$DIMTFILL
 70
     0
  9
$DIMTFILLCLR
 70
     0
  9
$DIMARCSYM
 70
     1
  9
$DIMLTYPE
  6

  9
$DIMLTEX1
  6

  9
$DIMLTEX2
  6

  9
$DIMTXTDIRECTION
 70
     0
  9
$LUNITS
 70
     2
  9
$LUPREC
 70
     4
  9
$SKETCHINC
 40
0.1
  9
$FILLETRAD
 40
0.0
  9
$AUNITS
 70
     0
  9
$AUPREC
 70
     0
  9
$MENU
  1
.
  9
$ELEVATION
 40
0.0
  9
$PELEVATION
 40
0.0
  9
$THICKNESS
 40
0.0
  9
$LIMCHECK
 70
     0
  9
$CHAMFERA
 40
0.0
  9
$CHAMFERB
 40
0.0
  9
$CHAMFERC
 40
0.0
  9
$CHAMFERD
 40
0.0
  9
$SKPOLY
 70
     0
  9
$TDCREATE
 40
2458891.564479166
  9
$TDUCREATE
 40
2458891.897812500
  9
$TDUPDATE
 40
2458891.564479166
  9
$TDUUPDATE
 40
2458891.897812500
  9
$TDINDWG
 40
0.0000000000
  9
$TDUSRTIMER
 40
0.0000000000
  9
$USRTIMER
 70
     1
  9
$ANGBASE
 50
0.0
  9
$ANGDIR
 70
     0
  9
$PDMODE
 70
     0
  9
$PDSIZE
 40
0.0
  9
$PLINEWID
 40
0.0
  9
$SPLFRAME
 70
     0
  9
$SPLINETYPE
 70
     6
  9
$SPLINESEGS
 70
     8
  9
$HANDSEED
  5
3CB
  9
$SURFTAB1
 70
     6
  9
$SURFTAB2
 70
     6
  9
$SURFTYPE
 70
     6
  9
$SURFU
 70
     6
  9
$SURFV
 70
     6
  9
$UCSBASE
  2

  9
$UCSNAME
  2

  9
$UCSORG
 10
0.0
 20
0.0
 30
0.0
  9
$UCSXDIR
 10
1.0
 20
0.0
 30
0.0
  9
$UCSYDIR
 10
0.0
 20
1.0
 30
0.0
  9
$UCSORTHOREF
  2

  9
$UCSORTHOVIEW
 70
     0
  9
$UCSORGTOP
 10
0.0
 20
0.0
 30
0.0
  9
$UCSORGBOTTOM
 10
0.0
 20
0.0
 30
0.0
  9
$UCSORGLEFT
 10
0.0
 20
0.0
 30
0.0
  9
$UCSORGRIGHT
 10
0.0
 20
0.0
 30
0.0
  9
$UCSORGFRONT
 10
0.0
 20
0.0
 30
0.0
  9
$UCSORGBACK
 10
0.0
 20
0.0
 30
0.0
  9
$PUCSBASE
  2

  9
$PUCSNAME
  2

  9
$PUCSORG
 10
0.0
 20
0.0
 30
0.0
  9
$PUCSXDIR
 10
1.0
 20
0.0
 30
0.0
  9
$PUCSYDIR
 10
0.0
 20
1.0
 30
0.0
  9
$PUCSORTHOREF
  2

  9
$PUCSORTHOVIEW
 70
     0
  9
$PUCSORGTOP
 10
0.0
 20
0.0
 30
0.0
  9
$PUCSORGBOTTOM
 10
0.0
 20
0.0
 30
0.0
  9
$PUCSORGLEFT
 10
0.0
 20
0.0
 30
0.0
  9
$PUCSORGRIGHT
 10
0.0
 20
0.0
 30
0.0
  9
$PUCSORGFRONT
 10
0.0
 20
0.0
 30
0.0
  9
$PUCSORGBACK
 10
0.0
 20
0.0
 30
0.0
  9
$USERI1
 70
     0
  9
$USERI2
 70
     0
  9
$USERI3
 70
     0
  9
$USERI4
 70
     0
  9
$USERI5
 70
     0
  9
$USERR1
 40
0.0
  9
$USERR2
 40
0.0
  9
$USERR3
 40
0.0
  9
$USERR4
 40
0.0
  9
$USERR5
 40
0.0
  9
$WORLDVIEW
 70
     1
  9
$SHADEDGE
 70
     3
  9
$SHADEDIF
 70
    70
  9
$TILEMODE
 70
     1
  9
$MAXACTVP
 70
    64
  9
$PINSBASE
 10
0.0
 20
0.0
 30
0.0
  9
$PLIMCHECK
 70
     0
  9
$PEXTMIN
 10
1.000000E+20
 20
1.000000E+20
 30
1.000000E+20
  9
$PEXTMAX
 10
-1.000000E+20
 20
-1.000000E+20
 30
-1.000000E+20
  9
$PLIMMIN
 10
0.0
 20
0.0
  9
$PLIMMAX
 10
12.0
 20
9.0
  9
$UNITMODE
 70
     0
  9
$VISRETAIN
 70
     1
  9
$PLINEGEN
 70
     0
  9
$PSLTSCALE
 70
     1
  9
$TREEDEPTH
 70
  3020
  9
$CMLSTYLE
  2
Standard
  9
$CMLJUST
 70
     0
  9
$CMLSCALE
 40
1.0
  9
$PROXYGRAPHICS
 70
     1
  9
$MEASUREMENT
 70
     0
  9
$CELWEIGHT
370
    -1
  9
$ENDCAPS
280
     0
  9
$JOINSTYLE
280
     0
  9
$LWDISPLAY
290
     0
  9
$INSUNITS
 70
     1
  9
$HYPERLINKBASE
  1

  9
$STYLESHEET
  1

  9
$XEDIT
290
     1
  9
$CEPSNTYPE
380
     0
  9
$PSTYLEMODE
290
     1
  9
$FINGERPRINTGUID
  2
{B3627680-D7AA-5140-8560-C54F50BB647A}
  9
$VERSIONGUID
  2
{0D29BD2F-3F4E-DF49-8B69-04BEE4384F8C}
  9
$EXTNAMES
290
     1
  9
$PSVPSCALE
 40
0.0
  9
$OLESTARTUP
290
     0
  9
$SORTENTS
280
   127
  9
$INDEXCTL
280
     0
  9
$HIDETEXT
280
     1
  9
$XCLIPFRAME
280
     2
  9
$HALOGAP
280
     0
  9
$OBSCOLOR
 70
   257
  9
$OBSLTYPE
280
     0
  9
$INTERSECTIONDISPLAY
280
     0
  9
$INTERSECTIONCOLOR
 70
   257
  9
$DIMASSOC
280
     2
  9
$PROJECTNAME
  1

  9
$CAMERADISPLAY
290
     0
  9
$LENSLENGTH
 40
50.0
  9
$CAMERAHEIGHT
 40
0.0
  9
$STEPSPERSEC
 40
2.0
  9
$STEPSIZE
 40
6.0
  9
$3DDWFPREC
 40
2.0
  9
$PSOLWIDTH
 40
0.25
  9
$PSOLHEIGHT
 40
4.0
  9
$LOFTANG1
 40
1.570796
  9
$LOFTANG2
 40
1.570796
  9
$LOFTMAG1
 40
0.0
  9
$LOFTMAG2
 40
0.0
  9
$LOFTPARAM
 70
     7
  9
$LOFTNORMALS
280
     1
  9
$LATITUDE
 40
37.795
  9
$LONGITUDE
 40
-122.394
  9
$NORTHDIRECTION
 40
0.0
  9
$TIMEZONE
 70
 -8000
  9
$LIGHTGLYPHDISPLAY
280
     1
  9
$TILEMODELIGHTSYNCH
280
     1
  9
$CMATERIAL
347
11
  9
$SOLIDHIST
280
     0
  9
$SHOWHIST
280
     1
  9
$DWFFRAME
280
     2
  9
$DGNFRAME
280
     0
  9
$REALWORLDSCALE
290
     1
  9
$INTERFERECOLOR
 62
     1
  9
$INTERFEREOBJVS
345
33
  9
$INTERFEREVPVS
346
30
  9
$CSHADOW
280
     0
  9
$SHADOWPLANELOCATION
 40
0.0
  0
ENDSEC
  0
SECTION
  2
CLASSES
  0
CLASS
  1
ACDBDICTIONARYWDFLT
  2
AcDbDictionaryWithDefault
  3
ObjectDBX Classes
 90
        0
 91
        1
280
     0
281
     0
  0
CLASS
  1
MATERIAL
  2
AcDbMaterial
  3
ObjectDBX Classes
 90
     1153
 91
        3
280
     0
281
     0
  0
CLASS
  1
VISUALSTYLE
  2
AcDbVisualStyle
  3
ObjectDBX Classes
 90
     4095
 91
       24
280
     0
281
     0
  0
CLASS
  1
SCALE
  2
AcDbScale
  3
ObjectDBX Classes
 90
     1153
 91
       33
280
     0
281
     0
  0
CLASS
  1
TABLESTYLE
  2
AcDbTableStyle
  3
ObjectDBX Classes
 90
     4095
 91
        1
280
     0
281
     0
  0
CLASS
  1
MLEADERSTYLE
  2
AcDbMLeaderStyle
  3
ACDB_MLEADERSTYLE_CLASS
 90
     4095
 91
        1
280
     0
281
     0
  0
CLASS
  1
ACDBSECTIONVIEWSTYLE
  2
AcDbSectionViewStyle
  3
ObjectDBX Classes
 90
     1025
 91
        1
280
     0
281
     0
  0
CLASS
  1
ACDBDETAILVIEWSTYLE
  2
AcDbDetailViewStyle
  3
ObjectDBX Classes
 90
     1025
 91
        1
280
     0
281
     0
  0
CLASS
  1
ACMESCOPE
  2
AcMeScope
  3
AcMeServices
 90
     1024
 91
        1
280
     0
281
     0
  0
CLASS
  1
ACMECOMMANDHISTORY
  2
AcMeCommandHistory
  3
AcMeServices
 90
     1024
 91
        1
280
     0
281
     0
  0
CLASS
  1
ACIMSYSVARMAN
  2
AcImSysVarManager
  3
AcMeServices
 90
     1024
 91
        1
280
     0
281
     0
  0
CLASS
  1
ACIMINTSYSVAR
  2
AcImIntSysVar
  3
AcMeServices
 90
     1024
 91
        1
280
     0
281
     0
  0
CLASS
  1
ACMESTATEMGR
  2
AcMeStateMgr
  3
AcMeServices
 90
     1024
 91
        1
280
     0
281
     0
  0
CLASS
  1
ACGREFMASTER
  2
AcGrefMaster
  3
AcAttribServices
 90
     1024
 91
        1
280
     0
281
     0
  0
CLASS
  1
SORTENTSTABLE
  2
AcDbSortentsTable
  3
ObjectDBX Classes
 90
        0
 91
        6
280
     0
281
     0
  0
CLASS
  1
IMAGE
  2
AcDbRasterImage
  3
ISM
 90
     2175
 91
        1
280
     0
281
     1
  0
CLASS
  1
IMAGEDEF
  2
AcDbRasterImageDef
  3
ISM
 90
        0
 91
        1
280
     0
281
     0
  0
CLASS
  1
IMAGEDEF_REACTOR
  2
AcDbRasterImageDefReactor
  3
ISM
 90
        1
 91
        2
280
     0
281
     0
  0
CLASS
  1
RASTERVARIABLES
  2
AcDbRasterVariables
  3
ISM
 90
        0
 91
        1
280
     0
281
     0
  0
CLASS
  1
DICTIONARYVAR
  2
AcDbDictionaryVar
  3
ObjectDBX Classes
 90
        0
 91
        6
280
     0
281
     0
  0
CLASS
  1
CELLSTYLEMAP
  2
AcDbCellStyleMap
  3
ObjectDBX Classes
 90
     1152
 91
        1
280
     0
281
     0
  0
ENDSEC
  0
SECTION
  2
TABLES
  0
TABLE
  2
VPORT
  5
8
330
0
100
AcDbSymbolTable
 70
     1
1001
ACAD
1000
DbSaveVer
1071
      251
  0
VPORT
  5
57
330
8
100
AcDbSymbolTableRecord
100
AcDbViewportTableRecord
  2
*Active
 70
     0
 10
0.0
 20
0.0
 11
1.0
 21
1.0
 12
8.5
 22
5.5
 13
0.0
 23
0.0
 14
0.5
 24
0.5
 15
0.0
 25
0.0
 16
0.0
 26
0.0
 36
1.0
 17
0.0
 27
0.0
 37
0.0
 40
11.0
 41
1.777518
 42
50.0
 43
0.0
 44
0.0
 50
0.0
 51
0.0
 71
     0
 72
 20000
 73
     1
 74
     0
 75
     0
 76
     0
 77
     0
 78
     0
281
     0
 65
     1
110
0.0
120
0.0
130
0.0
111
1.0
121
0.0
131
0.0
112
0.0
122
1.0
132
0.0
 79
     0
146
0.0
348
2F
 60
     3
 61
     5
292
     1
282
     1
141
0.0
142
0.0
 63
   250
421
  3355443
  0
ENDTAB
  0
TABLE
  2
LTYPE
  5
5
330
0
100
AcDbSymbolTable
 70
    10
  0
LTYPE
  5
5B
330
5
100
AcDbSymbolTableRecord
100
AcDbLinetypeTableRecord
  2
ByBlock
 70
     0
  3

 72
    65
 73
     0
 40
0.0
  0
LTYPE
  5
5C
330
5
100
AcDbSymbolTableRecord
100
AcDbLinetypeTableRecord
  2
ByLayer
 70
     0
  3

 72
    65
 73
     0
 40
0.0
  0
LTYPE
  5
5D
330
5
100
AcDbSymbolTableRecord
100
AcDbLinetypeTableRecord
  2
Continuous
 70
     0
  3
Solid line
 72
    65
 73
     0
 40
0.0
  0
LTYPE
  5
81
330
5
100
AcDbSymbolTableRecord
100
AcDbLinetypeTableRecord
  2
HIDDEN
 70
     0
  3
Hidden __ __ __ __ __ __ __ __ __ __ __ __ __ _
 72
    65
 73
     2
 40
0.375
 49
0.25
 74
     0
 49
-0.125
 74
     0
  0
LTYPE
  5
82
330
5
100
AcDbSymbolTableRecord
100
AcDbLinetypeTableRecord
  2
PHANTOM2
 70
     0
  3
Phantom (.5x) ___ _ _ ___ _ _ ___ _ _ ___ _ _
 72
    65
 73
     6
 40
1.25
 49
0.625
 74
     0
 49
-0.125
 74
     0
 49
0.125
 74
     0
 49
-0.125
 74
     0
 49
0.125
 74
     0
 49
-0.125
 74
     0
  0
LTYPE
  5
83
330
5
100
AcDbSymbolTableRecord
100
AcDbLinetypeTableRecord
  2
CENTER
 70
     0
  3
Center ____ _ ____ _ ____ _ ____ _ ____ _ ____
 72
    65
 73
     4
 40
2.0
 49
1.25
 74
     0
 49
-0.25
 74
     0
 49
0.25
 74
     0
 49
-0.25
 74
     0
  0
LTYPE
  5
9A
330
5
100
AcDbSymbolTableRecord
100
AcDbLinetypeTableRecord
  2
CENTER2
 70
     0
  3
Center (.5x) ___ _ ___ _ ___ _ ___ _ ___ _ ___
 72
    65
 73
     4
 40
1.125
 49
0.75
 74
     0
 49
-0.125
 74
     0
 49
0.125
 74
     0
 49
-0.125
 74
     0
  0
LTYPE
  5
9B
330
5
100
AcDbSymbolTableRecord
100
AcDbLinetypeTableRecord
  2
HIDDEN2
 70
     0
  3
Hidden (.5x) _ _ _ _ _ _ _ _ _ _ _ _ _ _ _ _ _
 72
    65
 73
     2
 40
0.1875
 49
0.125
 74
     0
 49
-0.0625
 74
     0
  0
LTYPE
  5
9C
330
5
100
AcDbSymbolTableRecord
100
AcDbLinetypeTableRecord
  2
Amconstr
 70
     0
  3
_______________________
 72
    65
 73
     2
 40
9999.0
 49
9999.0
 74
     0
 49
0.0
 74
     0
  0
LTYPE
  5
9D
330
5
100
AcDbSymbolTableRecord
100
AcDbLinetypeTableRecord
  2
Amzigzag2
 70
     0
  3
/\/-/\/-/\/-/\/-/\/-/\/
 72
    65
 73
     2
 40
0.4401
 49
0.0001
 74
     4
 75
   136
340
97
 46
0.0016
 50
0.0
 44
0.0
 45
0.0
 49
-0.44
 74
     0
  0
LTYPE
  5
9E
330
5
100
AcDbSymbolTableRecord
100
AcDbLinetypeTableRecord
  2
ACANSTGB
 70
     0
  3
__ . . __ . .
 72
    65
 73
     6
 40
0.354331
 49
0.15748
 74
     0
 49
-0.03937
 74
     0
 49
0.03937
 74
     0
 49
-0.03937
 74
     0
 49
0.03937
 74
     0
 49
-0.03937
 74
     0
  0
LTYPE
  5
9F
330
5
100
AcDbSymbolTableRecord
100
AcDbLinetypeTableRecord
  2
ACANSTGL
 70
     0
  3
_ _ _ _ _
 72
    65
 73
     2
 40
0.11811
 49
0.07874
 74
     0
 49
-0.03937
 74
     0
  0
ENDTAB
  0
TABLE
  2
LAYER
  5
2
330
0
100
AcDbSymbolTable
 70
    10
  0
LAYER
  5
54
330
2
100
AcDbSymbolTableRecord
100
AcDbLayerTableRecord
  2
0
 70
     0
 62
     7
  6
Continuous
370
    -3
390
F
347
21
348
0
1001
AcAecLayerStandard
1000

1000

  0
LAYER
  5
79
330
2
100
AcDbSymbolTableRecord
100
AcDbLayerTableRecord
  2
Defpoints
 70
     0
 62
     7
  6
Continuous
290
     0
370
    -3
390
F
347
21
348
0
1001
AcAecLayerStandard
1000

1000

  0
LAYER
  5
B9
330
2
100
AcDbSymbolTableRecord
100
AcDbLayerTableRecord
  2
Visible
 70
     0
 62
     7
  6
Continuous
370
    50
390
F
347
21
348
0
  0
LAYER
  5
102
330
2
100
AcDbSymbolTableRecord
100
AcDbLayerTableRecord
  2
Visible Narrow
 70
     0
 62
     7
  6
Continuous
370
    35
390
F
347
21
348
0
  0
LAYER
  5
126
330
2
100
AcDbSymbolTableRecord
100
AcDbLayerTableRecord
  2
Titleblock
 70
     0
 62
     7
  6
Continuous
370
    -3
390
F
347
21
348
0
1001
AcAecLayerStandard
1000

1000

1001
AcCmTransparency
1071
        0
  0
LAYER
  5
14B
330
2
100
AcDbSymbolTableRecord
100
AcDbLayerTableRecord
  2
Border
 70
     0
 62
     7
  6
Continuous
370
    -3
390
F
347
21
348
0
1001
AcAecLayerStandard
1000

1000

1001
AcCmTransparency
1071
        0
  0
LAYER
  5
16C
330
2
100
AcDbSymbolTableRecord
100
AcDbLayerTableRecord
  2
Dimensions
 70
     0
 62
     7
  6
Continuous
370
    25
390
F
347
21
348
0
  0
ENDTAB
  0
TABLE
  2
STYLE
  5
3
330
0
100
AcDbSymbolTable
 70
     4
  0
STYLE
  5
55
330
3
100
AcDbSymbolTableRecord
100
AcDbTextStyleTableRecord
  2
Standard
 70
     0
 40
0.0
 41
1.0
 50
0.0
 71
     0
 42
0.12
  3
arial.ttf
  4

1001
ACAD
1000
Arial
1071
       34
  0
STYLE
  5
5A
330
3
100
AcDbSymbolTableRecord
100
AcDbTextStyleTableRecord
  2
Annotative
 70
     0
 40
0.0
 41
1.0
 50
0.0
 71
     0
 42
0.2
  3
txt
  4

1001
AcadAnnotative
1000
AnnotativeData
1002
{
1070
     1
1070
     1
1002
}
  0
STYLE
  5
97
330
3
100
AcDbSymbolTableRecord
100
AcDbTextStyleTableRecord
  2

 70
     1
 40
0.0
 41
1.0
 50
0.0
 71
     0
 42
0.12
  3
genltshp.shx
  4

  0
STYLE
  5
98
330
3
100
AcDbSymbolTableRecord
100
AcDbTextStyleTableRecord
  2
ACANSGDT
 70
     0
 40
0.0
 41
1.0
 50
0.0
 71
     0
 42
0.12
  3
amgdt.shx
  4

  0
ENDTAB
  0
TABLE
  2
VIEW
  5
6
330
0
100
AcDbSymbolTable
 70
     0
  0
ENDTAB
  0
TABLE
  2
UCS
  5
7
330
0
100
AcDbSymbolTable
 70
     0
  0
ENDTAB
  0
TABLE
  2
APPID
  5
9
330
0
100
AcDbSymbolTable
 70
    24
  0
APPID
  5
56
330
9
100
AcDbSymbolTableRecord
100
AcDbRegAppTableRecord
  2
ACAD
 70
     0
  0
APPID
  5
5E
330
9
100
AcDbSymbolTableRecord
100
AcDbRegAppTableRecord
  2
AcadAnnotative
 70
     0
  0
APPID
  5
78
330
9
100
AcDbSymbolTableRecord
100
AcDbRegAppTableRecord
  2
ACAD_PSEXT
 70
     0
  0
APPID
  5
7A
330
9
100
AcDbSymbolTableRecord
100
AcDbRegAppTableRecord
  2
MCAD_NO_VIS
 70
     0
  0
APPID
  5
7B
330
9
100
AcDbSymbolTableRecord
100
AcDbRegAppTableRecord
  2
ACAD_TEMP_GRAPHIC
 70
     0
  0
APPID
  5
84
330
9
100
AcDbSymbolTableRecord
100
AcDbRegAppTableRecord
  2
ACAD_DSTYLE_DIMJAG
 70
     0
  0
APPID
  5
85
330
9
100
AcDbSymbolTableRecord
100
AcDbRegAppTableRecord
  2
ACAD_DSTYLE_DIMTALN
 70
     0
  0
APPID
  5
86
330
9
100
AcDbSymbolTableRecord
100
AcDbRegAppTableRecord
  2
ACAD_NAV_VCDISPLAY
 70
     0
  0
APPID
  5
87
330
9
100
AcDbSymbolTableRecord
100
AcDbRegAppTableRecord
  2
AcAecLayerStandard
 70
     0
  0
APPID
  5
88
330
9
100
AcDbSymbolTableRecord
100
AcDbRegAppTableRecord
  2
AcCmTransparency
 70
     0
  0
APPID
  5
89
330
9
100
AcDbSymbolTableRecord
100
AcDbRegAppTableRecord
  2
ACAD_DSTYLE_DIMBREAK
 70
     0
  0
APPID
  5
8A
330
9
100
AcDbSymbolTableRecord
100
AcDbRegAppTableRecord
  2
ACAD_DSTYLE_DIMRADIAL_EXTENSION
 70
     0
  0
APPID
  5
8B
330
9
100
AcDbSymbolTableRecord
100
AcDbRegAppTableRecord
  2
FUSIONTITLEBLOCK
 70
     0
  0
APPID
  5
8C
330
9
100
AcDbSymbolTableRecord
100
AcDbRegAppTableRecord
  2
FUSIONCURRENTTITLEBLOCK
 70
     0
  0
APPID
  5
8D
330
9
100
AcDbSymbolTableRecord
100
AcDbRegAppTableRecord
  2
AcSynergy
 70
     0
  0
APPID
  5
8E
330
9
100
AcDbSymbolTableRecord
100
AcDbRegAppTableRecord
  2
ACAD_VIEW_EDGE_ID
 70
     0
  0
APPID
  5
8F
330
9
100
AcDbSymbolTableRecord
100
AcDbRegAppTableRecord
  2
GENIUS_GENSCREG_15
 70
     0
  0
APPID
  5
90
330
9
100
AcDbSymbolTableRecord
100
AcDbRegAppTableRecord
  2
GENIUS_GENOBJ-N-SDF_13
 70
     0
  0
APPID
  5
91
330
9
100
AcDbSymbolTableRecord
100
AcDbRegAppTableRecord
  2
GENIUS_GENODEF_13
 70
     0
  0
APPID
  5
92
330
9
100
AcDbSymbolTableRecord
100
AcDbRegAppTableRecord
  2
ACAD_DIMASSOC_CALC_DIMLFAC
 70
     0
  0
APPID
  5
93
330
9
100
AcDbSymbolTableRecord
100
AcDbRegAppTableRecord
  2
ACAD_DIMASSOC_DIMLFAC
 70
     0
  0
APPID
  5
94
330
9
100
AcDbSymbolTableRecord
100
AcDbRegAppTableRecord
  2
ACAD_DIMASSOC_OVERRIDDEN_DIMLFAC
 70
     0
  0
APPID
  5
95
330
9
100
AcDbSymbolTableRecord
100
AcDbRegAppTableRecord
  2
FD_ATT_APPNAME
 70
     0
  0
APPID
  5
96
330
9
100
AcDbSymbolTableRecord
100
AcDbRegAppTableRecord
  2
ACATTRIBSERVICES
 70
     0
  0
ENDTAB
  0
TABLE
  2
DIMSTYLE
  5
A
330
0
100
AcDbSymbolTable
 70
     2
100
AcDbDimStyleTable
 71
     1
340
58
  0
DIMSTYLE
105
58
102
{ACAD_REACTORS
330
16B
330
176
330
180
330
189
330
197
330
1A5
330
1AF
330
1BD
102
}
330
A
100
AcDbSymbolTableRecord
100
AcDbDimStyleTableRecord
  2
Standard
 70
     0
  3
in
  4
mm
 41
0.12
 42
0.05
 43
0.339411
 44
0.1
 47
0.01
 48
0.01
 78
    12
 79
     3
 90
     1
140
0.12
141
0.0
147
0.06
176
   256
177
   256
178
   256
179
     2
271
     2
272
     2
284
    12
285
    12
286
    12
340
55
  0
DIMSTYLE
105
59
330
A
100
AcDbSymbolTableRecord
100
AcDbDimStyleTableRecord
  2
Annotative
 70
     0
  3
in
 40
0.0
 43
0.339411
 78
    12
 79
     3
140
0.12
179
     2
271
     2
272
     2
284
    12
285
    12
286
    12
340
55
1001
AcadAnnotative
1000
AnnotativeData
1002
{
1070
     1
1070
     1
1002
}
  0
ENDTAB
  0
TABLE
  2
BLOCK_RECORD
  5
1
330
0
100
AcDbSymbolTable
 70
    22
  0
BLOCK_RECORD
  5
70
102
{ACAD_XDICTIONARY
360
B2
102
}
330
1
100
AcDbSymbolTableRecord
100
AcDbBlockTableRecord
  2
*Model_Space
340
73
 70
     0
280
     1
281
     0
  0
BLOCK_RECORD
  5
6C
330
1
100
AcDbSymbolTableRecord
100
AcDbBlockTableRecord
  2
*Paper_Space
340
6F
 70
     0
280
     1
281
     0
  0
BLOCK_RECORD
  5
74
330
1
100
AcDbSymbolTableRecord
100
AcDbBlockTableRecord
  2
*Paper_Space0
340
77
 70
     0
280
     1
281
     0
  0
BLOCK_RECORD
  5
127
102
{ACAD_XDICTIONARY
360
128
102
}
330
1
100
AcDbSymbolTableRecord
100
AcDbBlockTableRecord
  2
Shower
340
0
102
{BLKREFS
331
125
102
}
 70
     1
280
     1
281
     0
1001
FUSIONTITLEBLOCK
1000
TitleBlock
  0
BLOCK_RECORD
  5
14C
330
1
100
AcDbSymbolTableRecord
100
AcDbBlockTableRecord
  2
ANSI_B_SHEET
340
0
310
2800000020000000200000000100080000000000000400000000000000000000000000000000000000000000000080000080000000808000800000008000800080800000C0C0C000C0DCC000F0CAA6000020400000206000002080000020A0000020C0000020E00000400000004020000040400000406000004080000040A0
310
000040C0000040E00000600000006020000060400000606000006080000060A0000060C0000060E00000800000008020000080400000806000008080000080A0000080C0000080E00000A0000000A0200000A0400000A0600000A0800000A0A00000A0C00000A0E00000C0000000C0200000C0400000C0600000C0800000C0
310
A00000C0C00000C0E00000E0000000E0200000E0400000E0600000E0800000E0A00000E0C00000E0E00040000000400020004000400040006000400080004000A0004000C0004000E00040200000402020004020400040206000402080004020A0004020C0004020E000404000004040200040404000404060004040800040
310
40A0004040C0004040E00040600000406020004060400040606000406080004060A0004060C0004060E00040800000408020004080400040806000408080004080A0004080C0004080E00040A0000040A0200040A0400040A0600040A0800040A0A00040A0C00040A0E00040C0000040C0200040C0400040C0600040C08000
310
40C0A00040C0C00040C0E00040E0000040E0200040E0400040E0600040E0800040E0A00040E0C00040E0E00080000000800020008000400080006000800080008000A0008000C0008000E00080200000802020008020400080206000802080008020A0008020C0008020E00080400000804020008040400080406000804080
310
008040A0008040C0008040E00080600000806020008060400080606000806080008060A0008060C0008060E00080800000808020008080400080806000808080008080A0008080C0008080E00080A0000080A0200080A0400080A0600080A0800080A0A00080A0C00080A0E00080C0000080C0200080C0400080C0600080C0
310
800080C0A00080C0C00080C0E00080E0000080E0200080E0400080E0600080E0800080E0A00080E0C00080E0E000C0000000C0002000C0004000C0006000C0008000C000A000C000C000C000E000C0200000C0202000C0204000C0206000C0208000C020A000C020C000C020E000C0400000C0402000C0404000C0406000C0
310
408000C040A000C040C000C040E000C0600000C0602000C0604000C0606000C0608000C060A000C060C000C060E000C0800000C0802000C0804000C0806000C0808000C080A000C080C000C080E000C0A00000C0A02000C0A04000C0A06000C0A08000C0A0A000C0A0C000C0A0E000C0C00000C0C02000C0C04000C0C06000
310
C0C08000C0C0A000F0FBFF00A4A0A000808080000000FF0000FF000000FFFF00FF000000FF00FF00FFFF0000FFFFFF0049494949494949494949494949494949494949494949494949494949494949494949494949494949494949494949494949494949494949494949494949494949494949494949494949494949494949
310
494949494949494949494949494949494949494949494949494949494949494949494949494949494949494949494949494949494949494949494949494949494949494949494949494949494949494949494949494949494949494949494949494949494949494949494949494949494949FFFF4949494949494949494949
310
494949494949494949494949494949FFFF4949FFFFFFFFFFFFFFFFFFFFFFFFFFFFFFFFFFFFFFFFFFFFFFFFFFFFFFFFFFFF494949FF4949494949494949494949494949494949494949494949494949FF49494949FF4949494949494949494949494949494949494949494949494949FF49494949FF49494949494949494949
310
49494949494949494949494949494949FF49494949FF4949494949494949494949494949494949494949494949494949FF49494949FF4949494949494949494949494949494949494949494949494949FF49494949FF4949494949494949494949494949494949494949494949494949FF49494949FF494949494949494949
310
4949494949494949494949494949494949FF49494949FF4949494949494949494949494949494949494949494949494949FF49494949FF4949494949494949494949494949494949494949494949494949FF49494949FF4949494949494949494949494949494949494949494949494949FF49494949FF4949494949494949
310
494949494949494949494949494949494949FF49494949FF4949494949494949494949494949494949494949494949494949FF49494949FF4949494949494949494949494949494949494949494949494949FF49494949FF4949494949494949494949494949494949494949494949494949FF49494949FF49494949494949
310
49494949494949494949494949494949494949FF49494949FF4949494949494949494949494949494949494949494949494949FF494949FFFFFFFFFFFFFFFFFFFFFFFFFFFFFFFFFFFFFFFFFFFFFFFFFFFFFFFFFFFF4949FFFF4949494949494949494949494949494949494949494949494949FFFF49494949494949494949
310
49494949494949494949494949494949494949494949494949494949494949494949494949494949494949494949494949494949494949494949494949494949494949494949494949494949494949494949494949494949494949494949494949494949494949494949494949494949494949494949494949494949494949
310
4949494949494949494949494949494949494949494949494949494949494949494949494949494949494949494949494949494949494949
102
{BLKREFS
331
14A
102
}
 70
     1
280
     1
281
     0
  0
BLOCK_RECORD
  5
16D
330
1
100
AcDbSymbolTableRecord
100
AcDbBlockTableRecord
  2
*D6
340
0
 70
     0
280
     1
281
     0
  0
BLOCK_RECORD
  5
177
330
1
100
AcDbSymbolTableRecord
100
AcDbBlockTableRecord
  2
*D7
340
0
 70
     0
280
     1
281
     0
  0
BLOCK_RECORD
  5
181
330
1
100
AcDbSymbolTableRecord
100
AcDbBlockTableRecord
  2
*D8
340
0
 70
     0
280
     1
281
     0
  0
BLOCK_RECORD
  5
18A
330
1
100
AcDbSymbolTableRecord
100
AcDbBlockTableRecord
  2
*D9
340
0
 70
     0
280
     1
281
     0
  0
BLOCK_RECORD
  5
198
330
1
100
AcDbSymbolTableRecord
100
AcDbBlockTableRecord
  2
*D10
340
0
 70
     0
280
     1
281
     0
  0
BLOCK_RECORD
  5
1A6
330
1
100
AcDbSymbolTableRecord
100
AcDbBlockTableRecord
  2
*D11
340
0
 70
     0
280
     1
281
     0
  0
BLOCK_RECORD
  5
1B0
330
1
100
AcDbSymbolTableRecord
100
AcDbBlockTableRecord
  2
*D12
340
0
 70
     0
280
     1
281
     0
  0
BLOCK_RECORD
  5
1BE
330
1
100
AcDbSymbolTableRecord
100
AcDbBlockTableRecord
  2
*D13
340
0
 70
     0
280
     1
281
     0
  0
BLOCK_RECORD
  5
1CC
330
1
100
AcDbSymbolTableRecord
100
AcDbBlockTableRecord
  2
*D14
340
0
 70
     0
280
     1
281
     0
  0
BLOCK_RECORD
  5
1D5
330
1
100
AcDbSymbolTableRecord
100
AcDbBlockTableRecord
  2
*D15
340
0
 70
     0
280
     1
281
     0
  0
BLOCK_RECORD
  5
1DE
330
1
100
AcDbSymbolTableRecord
100
AcDbBlockTableRecord
  2
*D16
340
0
 70
     0
280
     1
281
     0
  0
BLOCK_RECORD
  5
1E6
330
1
100
AcDbSymbolTableRecord
100
AcDbBlockTableRecord
  2
*D17
340
0
 70
     0
280
     1
281
     0
  0
BLOCK_RECORD
  5
1F3
330
1
100
AcDbSymbolTableRecord
100
AcDbBlockTableRecord
  2
*D18
340
0
 70
     0
280
     1
281
     0
  0
BLOCK_RECORD
  5
200
330
1
100
AcDbSymbolTableRecord
100
AcDbBlockTableRecord
  2
*D19
340
0
 70
     0
280
     1
281
     0
  0
BLOCK_RECORD
  5
209
330
1
100
AcDbSymbolTableRecord
100
AcDbBlockTableRecord
  2
*D20
340
0
 70
     0
280
     1
281
     0
  0
BLOCK_RECORD
  5
216
330
1
100
AcDbSymbolTableRecord
100
AcDbBlockTableRecord
  2
*D21
340
0
 70
     0
280
     1
281
     0
  0
ENDTAB
  0
ENDSEC
  0
SECTION
  2
BLOCKS
  0
BLOCK
  5
71
330
70
100
AcDbEntity
  8
0
100
AcDbBlockBegin
  2
*Model_Space
 70
     0
 10
0.0
 20
0.0
 30
0.0
  3
*Model_Space
  1

  0
ENDBLK
  5
72
330
70
100
AcDbEntity
  8
0
100
AcDbBlockEnd
  0
BLOCK
  5
6D
330
6C
100
AcDbEntity
 67
     1
  8
0
100
AcDbBlockBegin
  2
*Paper_Space
 70
     0
 10
0.0
 20
0.0
 30
0.0
  3
*Paper_Space
  1

  0
ENDBLK
  5
6E
330
6C
100
AcDbEntity
 67
     1
  8
0
100
AcDbBlockEnd
  0
BLOCK
  5
75
330
74
100
AcDbEntity
 67
     1
  8
0
100
AcDbBlockBegin
  2
*Paper_Space0
 70
     0
 10
0.0
 20
0.0
 30
0.0
  3
*Paper_Space0
  1

  0
ENDBLK
  5
76
330
74
100
AcDbEntity
 67
     1
  8
0
100
AcDbBlockEnd
  0
BLOCK
  5
12A
330
127
100
AcDbEntity
  8
0
100
AcDbBlockBegin
  2
Shower
 70
     2
 10
0.0
 20
0.0
 30
0.0
  3
Shower
  1

  0
LWPOLYLINE
  5
12B
330
127
100
AcDbEntity
  8
Titleblock
100
AcDbPolyline
 90
        4
 70
     1
 43
0.0
 10
0.0
 20
0.0
 10
-4.9375
 20
0.0
 10
-4.9375
 20
2.5
 10
0.0
 20
2.5
  0
IMAGE
  5
12C
330
127
100
AcDbEntity
  8
Titleblock
  6
Continuous
160
               140
310
8C0000000100000084000000060000000500000000000000008013C000B87FA8928AB03F000000000000000000000000008013C035B4911D6523F03F000000000000000001000000008001C035B4911D6523F03F000000000000000001000000008001C000B87FA8928AB03F000000000000000000000000008013C000B87F
310
A8928AB03F0000000000000000
370
     0
100
AcDbRasterImage
 90
        0
 10
-4.875
 20
0.064614
 30
0.0
 11
0.0028349156118143
 21
0.0
 31
0.0
 12
0.0
 22
0.0028349156118143
 32
0.0
 13
948.0
 23
333.0
340
12D
 70
    15
280
     0
281
    50
282
    50
283
     0
290
     0
360
12F
 71
     1
 91
        2
 14
-0.5
 24
-0.5
 14
947.5
 24
332.5
  0
LWPOLYLINE
  5
131
330
127
100
AcDbEntity
  8
Titleblock
  6
Continuous
370
    25
100
AcDbPolyline
 90
        4
 70
     1
 43
0.0
 10
0.0
 20
1.0625
 10
-4.9375
 20
1.061638
 10
-4.9375
 20
0.0
 10
0.0
 20
0.0
  0
LWPOLYLINE
  5
132
330
127
100
AcDbEntity
  8
Titleblock
  6
Continuous
370
    25
100
AcDbPolyline
 90
        4
 70
     1
 43
0.0
 10
-1.75
 20
2.5
 10
0.0
 20
2.5
 10
0.0
 20
2.5
 10
-1.75
 20
2.5
  0
ATTDEF
  5
133
330
127
100
AcDbEntity
  8
Titleblock
  6
Continuous
370
    25
100
AcDbText
 10
-3.6875
 20
2.3125
 30
0.0
 40
0.12
  1

100
AcDbAttributeDefinition
280
     0
  3

  2
PROJECT
 70
     0
280
     1
  0
MTEXT
  5
134
330
127
100
AcDbEntity
  8
Titleblock
  6
Continuous
370
    25
100
AcDbMText
 10
-4.875
 20
1.653875
 30
0.0
 40
0.12
 41
0.6875
 46
0.0
 71
     1
 72
     5
  1
Description:
 73
     1
 44
1.0
1001
ACAD
1000
ACAD_MTEXT_COLUMN_INFO_BEGIN
1070
    75
1070
     2
1070
    79
1070
     0
1070
    76
1070
     1
1070
    78
1070
     0
1070
    48
1040
0.6875
1070
    49
1040
0.6
1070
    50
1070
     1
1040
0.0
1000
ACAD_MTEXT_COLUMN_INFO_END
  0
ATTDEF
  5
135
330
127
100
AcDbEntity
  8
Titleblock
  6
Continuous
370
    25
100
AcDbText
 10
-1.6875
 20
0.6875
 30
0.0
 40
0.12
  1

100
AcDbAttributeDefinition
280
     0
  3

  2
DRAWN_DATE
 70
     0
280
     1
  0
ATTDEF
  5
136
330
127
100
AcDbEntity
  8
Titleblock
  6
Continuous
370
    25
100
AcDbText
 10
-4.3125
 20
1.8125
 30
0.0
 40
0.3048
  1

100
AcDbAttributeDefinition
280
     0
  3

  2
TITLE_1
 70
     0
280
     1
  0
ATTDEF
  5
137
330
127
100
AcDbEntity
  8
Titleblock
  6
Continuous
370
    25
100
AcDbText
 10
-1.6875
 20
0.91994
 30
0.0
 40
0.12
  1

100
AcDbAttributeDefinition
280
     0
  3

  2
SCALE
 70
     0
280
     1
  0
LWPOLYLINE
  5
138
330
127
100
AcDbEntity
  8
Titleblock
  6
Continuous
370
    25
100
AcDbPolyline
 90
        4
 70
     1
 43
0.0
 10
0.0
 20
1.0625
 10
0.0
 20
1.0625
 10
0.0
 20
0.0
 10
0.0
 20
0.0
  0
LWPOLYLINE
  5
139
330
127
100
AcDbEntity
  8
Titleblock
  6
Continuous
370
    25
100
AcDbPolyline
 90
        4
 70
     1
 43
0.0
 10
0.0
 20
1.0625
 10
0.0
 20
1.0625
 10
0.0
 20
0.0
 10
0.0
 20
0.0
  0
LINE
  5
13A
330
127
100
AcDbEntity
  8
Titleblock
  6
Continuous
370
    25
100
AcDbLine
 10
-2.125
 20
1.062165
 30
0.0
 11
-2.125
 21
0.0
 31
0.0
  0
LWPOLYLINE
  5
13B
330
127
100
AcDbEntity
  8
Titleblock
  6
Continuous
370
    25
100
AcDbPolyline
 90
        4
 70
     1
 43
0.0
 10
-4.9375
 20
2.5
 10
0.0
 20
2.5
 10
0.0
 20
2.5
 10
-4.9375
 20
2.5
  0
LINE
  5
13C
330
127
100
AcDbEntity
  8
Titleblock
  6
Continuous
370
    25
100
AcDbLine
 10
-4.9375
 20
2.25
 30
0.0
 11
0.0
 21
2.25
 31
0.0
  0
LINE
  5
13D
330
127
100
AcDbEntity
  8
Titleblock
  6
Continuous
370
    25
100
AcDbLine
 10
-4.9375
 20
1.6875
 30
0.0
 11
0.0
 21
1.6875
 31
0.0
  0
MTEXT
  5
13E
330
127
100
AcDbEntity
  8
Titleblock
100
AcDbMText
 10
-4.875
 20
2.467284
 30
0.0
 40
0.12
 41
0.375
 46
0.0
 71
     1
 72
     5
  1
Project:
 73
     1
 44
1.0
1001
ACAD
1000
ACAD_MTEXT_COLUMN_INFO_BEGIN
1070
    75
1070
     2
1070
    79
1070
     0
1070
    76
1070
     1
1070
    78
1070
     0
1070
    48
1040
0.375
1070
    49
1040
0.6
1070
    50
1070
     1
1040
0.0
1000
ACAD_MTEXT_COLUMN_INFO_END
  0
MTEXT
  5
13F
330
127
100
AcDbEntity
  8
Titleblock
100
AcDbMText
 10
-2.0625
 20
1.045477
 30
0.0
 40
0.075
 41
0.375
 46
0.0
 71
     1
 72
     5
  1
Scale:
 73
     1
 44
1.0
1001
ACAD
1000
ACAD_MTEXT_COLUMN_INFO_BEGIN
1070
    75
1070
     2
1070
    79
1070
     0
1070
    76
1070
     1
1070
    78
1070
     0
1070
    48
1040
0.375
1070
    49
1040
0.6
1070
    50
1070
     1
1040
0.0
1000
ACAD_MTEXT_COLUMN_INFO_END
  0
MTEXT
  5
140
330
127
100
AcDbEntity
  8
Titleblock
100
AcDbMText
 10
-2.0625
 20
0.857735
 30
0.0
 40
0.075
 41
0.375
 46
0.0
 71
     1
 72
     5
  1
Date Drawn:
 73
     1
 44
1.0
1001
ACAD
1000
ACAD_MTEXT_COLUMN_INFO_BEGIN
1070
    75
1070
     2
1070
    79
1070
     0
1070
    76
1070
     1
1070
    78
1070
     0
1070
    48
1040
0.375
1070
    49
1040
0.6
1070
    50
1070
     1
1040
0.0
1000
ACAD_MTEXT_COLUMN_INFO_END
  0
LINE
  5
141
330
127
100
AcDbEntity
  8
Titleblock
100
AcDbLine
 10
-2.125
 20
0.875
 30
0.0
 11
0.0
 21
0.875
 31
0.0
  0
LINE
  5
142
330
127
100
AcDbEntity
  8
Titleblock
100
AcDbLine
 10
-2.125
 20
0.625
 30
0.0
 11
0.0
 21
0.625
 31
0.0
  0
MTEXT
  5
143
330
127
100
AcDbEntity
  8
Titleblock
100
AcDbMText
 10
-4.875
 20
2.220603
 30
0.0
 40
0.12
 41
0.625
 46
0.0
 71
     1
 72
     5
  1
Title:
 73
     1
 44
1.0
1001
ACAD
1000
ACAD_MTEXT_COLUMN_INFO_BEGIN
1070
    75
1070
     2
1070
    79
1070
     0
1070
    76
1070
     1
1070
    78
1070
     0
1070
    48
1040
0.625
1070
    49
1040
0.6
1070
    50
1070
     1
1040
0.0
1000
ACAD_MTEXT_COLUMN_INFO_END
  0
ENDBLK
  5
144
330
127
100
AcDbEntity
  8
0
100
AcDbBlockEnd
  0
BLOCK
  5
14D
330
14C
100
AcDbEntity
  8
0
100
AcDbBlockBegin
  2
ANSI_B_SHEET
 70
     0
 10
0.0
 20
0.0
 30
0.0
  3
ANSI_B_SHEET
  1

  0
LINE
  5
14E
330
14C
100
AcDbEntity
  8
Border
100
AcDbLine
 10
0.0
 20
0.0
 30
0.0
 11
0.5
 21
0.0
 31
0.0
  0
LINE
  5
14F
330
14C
100
AcDbEntity
  8
Border
100
AcDbLine
 10
16.5
 20
0.0
 30
0.0
 11
17.0
 21
0.0
 31
0.0
  0
LINE
  5
150
330
14C
100
AcDbEntity
  8
Border
100
AcDbLine
 10
0.62
 20
0.38
 30
0.0
 11
16.38
 21
0.38
 31
0.0
  0
LINE
  5
151
330
14C
100
AcDbEntity
  8
Border
100
AcDbLine
 10
17.0
 20
0.0
 30
0.0
 11
17.0
 21
0.5
 31
0.0
  0
LINE
  5
152
330
14C
100
AcDbEntity
  8
Border
100
AcDbLine
 10
17.0
 20
10.5
 30
0.0
 11
17.0
 21
11.0
 31
0.0
  0
LINE
  5
153
330
14C
100
AcDbEntity
  8
Border
100
AcDbLine
 10
16.38
 20
0.38
 30
0.0
 11
16.38
 21
10.62
 31
0.0
  0
LINE
  5
154
330
14C
100
AcDbEntity
  8
Border
100
AcDbLine
 10
17.0
 20
11.0
 30
0.0
 11
16.5
 21
11.0
 31
0.0
  0
LINE
  5
155
330
14C
100
AcDbEntity
  8
Border
100
AcDbLine
 10
0.5
 20
11.0
 30
0.0
 11
0.0
 21
11.0
 31
0.0
  0
LINE
  5
156
330
14C
100
AcDbEntity
  8
Border
100
AcDbLine
 10
16.38
 20
10.62
 30
0.0
 11
0.62
 21
10.62
 31
0.0
  0
LINE
  5
157
330
14C
100
AcDbEntity
  8
Border
100
AcDbLine
 10
0.0
 20
11.0
 30
0.0
 11
0.0
 21
10.5
 31
0.0
  0
LINE
  5
158
330
14C
100
AcDbEntity
  8
Border
100
AcDbLine
 10
0.0
 20
0.5
 30
0.0
 11
0.0
 21
0.0
 31
0.0
  0
LINE
  5
159
330
14C
100
AcDbEntity
  8
Border
100
AcDbLine
 10
0.62
 20
10.62
 30
0.0
 11
0.62
 21
0.38
 31
0.0
  0
LINE
  5
15A
330
14C
100
AcDbEntity
  8
Border
100
AcDbLine
 10
8.413397
 20
0.23
 30
0.0
 11
8.586603
 21
0.23
 31
0.0
  0
LINE
  5
15B
330
14C
100
AcDbEntity
  8
Border
100
AcDbLine
 10
8.5
 20
0.38
 30
0.0
 11
8.5
 21
0.13
 31
0.0
  0
LINE
  5
15C
330
14C
100
AcDbEntity
  8
Border
100
AcDbLine
 10
8.5
 20
0.38
 30
0.0
 11
8.413397
 21
0.23
 31
0.0
  0
LINE
  5
15D
330
14C
100
AcDbEntity
  8
Border
100
AcDbLine
 10
8.5
 20
0.38
 30
0.0
 11
8.586603
 21
0.23
 31
0.0
  0
LINE
  5
15E
330
14C
100
AcDbEntity
  8
Border
100
AcDbLine
 10
0.47
 20
5.586603
 30
0.0
 11
0.47
 21
5.413397
 31
0.0
  0
LINE
  5
15F
330
14C
100
AcDbEntity
  8
Border
100
AcDbLine
 10
0.62
 20
5.5
 30
0.0
 11
0.37
 21
5.5
 31
0.0
  0
LINE
  5
160
330
14C
100
AcDbEntity
  8
Border
100
AcDbLine
 10
0.62
 20
5.5
 30
0.0
 11
0.47
 21
5.586603
 31
0.0
  0
LINE
  5
161
330
14C
100
AcDbEntity
  8
Border
100
AcDbLine
 10
0.62
 20
5.5
 30
0.0
 11
0.47
 21
5.413397
 31
0.0
  0
LINE
  5
162
330
14C
100
AcDbEntity
  8
Border
100
AcDbLine
 10
16.53
 20
5.586603
 30
0.0
 11
16.53
 21
5.413397
 31
0.0
  0
LINE
  5
163
330
14C
100
AcDbEntity
  8
Border
100
AcDbLine
 10
16.38
 20
5.5
 30
0.0
 11
16.63
 21
5.5
 31
0.0
  0
LINE
  5
164
330
14C
100
AcDbEntity
  8
Border
100
AcDbLine
 10
16.38
 20
5.5
 30
0.0
 11
16.53
 21
5.586603
 31
0.0
  0
LINE
  5
165
330
14C
100
AcDbEntity
  8
Border
100
AcDbLine
 10
16.38
 20
5.5
 30
0.0
 11
16.53
 21
5.413397
 31
0.0
  0
LINE
  5
166
330
14C
100
AcDbEntity
  8
Border
100
AcDbLine
 10
8.413397
 20
10.77
 30
0.0
 11
8.586603
 21
10.77
 31
0.0
  0
LINE
  5
167
330
14C
100
AcDbEntity
  8
Border
100
AcDbLine
 10
8.5
 20
10.62
 30
0.0
 11
8.5
 21
10.87
 31
0.0
  0
LINE
  5
168
330
14C
100
AcDbEntity
  8
Border
100
AcDbLine
 10
8.5
 20
10.62
 30
0.0
 11
8.413397
 21
10.77
 31
0.0
  0
LINE
  5
169
330
14C
100
AcDbEntity
  8
Border
100
AcDbLine
 10
8.5
 20
10.62
 30
0.0
 11
8.586603
 21
10.77
 31
0.0
  0
ENDBLK
  5
16A
330
14C
100
AcDbEntity
  8
0
100
AcDbBlockEnd
  0
BLOCK
  5
16E
330
16D
100
AcDbEntity
  8
0
100
AcDbBlockBegin
  2
*D6
 70
     1
 10
0.0
 20
0.0
 30
0.0
  3
*D6
  1

  0
LINE
  5
16F
330
16D
100
AcDbEntity
  8
Dimensions
440
 16777216
370
    -2
100
AcDbLine
 10
10.203111
 20
6.440009
 30
0.0
 11
10.083111
 21
6.440009
 31
0.0
  0
LINE
  5
170
330
16D
100
AcDbEntity
  8
Dimensions
440
 16777216
370
    -2
100
AcDbLine
 10
10.083111
 20
6.440009
 30
0.0
 11
9.471759
 21
5.895703
 31
0.0
  0
MTEXT
  5
171
330
16D
100
AcDbEntity
  8
Dimensions
440
 16777216
100
AcDbMText
 10
10.547517
 20
6.440009
 30
0.0
 40
0.12
 41
0.0
 46
0.0
 71
     5
 72
     1
  1
\A1;∅2.36in
 73
     1
 44
1.0
  0
SOLID
  5
172
330
16D
100
AcDbEntity
  8
Dimensions
440
 16777216
100
AcDbTrace
 10
9.45846
 20
5.910641
 30
0.0
 11
9.485059
 21
5.880766
 31
0.0
 12
9.382135
 22
5.815907
 32
0.0
 13
9.382135
 23
5.815907
 33
0.0
  0
POINT
  5
173
330
16D
100
AcDbEntity
  8
Defpoints
 62
     0
440
 16777216
100
AcDbPoint
 10
9.382135
 20
5.815907
 30
0.0
  0
POINT
  5
174
330
16D
100
AcDbEntity
  8
Defpoints
 62
     0
440
 16777216
100
AcDbPoint
 10
7.617865
 20
4.245122
 30
0.0
  0
ENDBLK
  5
175
330
16D
100
AcDbEntity
  8
0
100
AcDbBlockEnd
  0
BLOCK
  5
178
330
177
100
AcDbEntity
  8
0
100
AcDbBlockBegin
  2
*D7
 70
     1
 10
0.0
 20
0.0
 30
0.0
  3
*D7
  1

  0
LINE
  5
179
330
177
100
AcDbEntity
  8
Dimensions
440
 16777216
370
    -2
100
AcDbLine
 10
10.098359
 20
5.939278
 30
0.0
 11
9.978359
 21
5.939278
 31
0.0
  0
LINE
  5
17A
330
177
100
AcDbEntity
  8
Dimensions
440
 16777216
370
    -2
100
AcDbLine
 10
9.978359
 20
5.939278
 30
0.0
 11
9.481691
 21
5.616543
 31
0.0
  0
MTEXT
  5
17B
330
177
100
AcDbEntity
  8
Dimensions
440
 16777216
100
AcDbMText
 10
10.396149
 20
5.939278
 30
0.0
 40
0.12
 41
0.0
 46
0.0
 71
     5
 72
     1
  1
\A1;∅.39in
 73
     1
 44
1.0
  0
SOLID
  5
17C
330
177
100
AcDbEntity
  8
Dimensions
440
 16777216
100
AcDbTrace
 10
9.470793
 20
5.633313
 30
0.0
 11
9.492588
 21
5.599773
 31
0.0
 12
9.381068
 22
5.551159
 32
0.0
 13
9.381068
 23
5.551159
 33
0.0
  0
POINT
  5
17D
330
177
100
AcDbEntity
  8
Defpoints
 62
     0
440
 16777216
100
AcDbPoint
 10
9.381068
 20
5.551159
 30
0.0
  0
POINT
  5
17E
330
177
100
AcDbEntity
  8
Defpoints
 62
     0
440
 16777216
100
AcDbPoint
 10
9.050942
 20
5.336643
 30
0.0
  0
ENDBLK
  5
17F
330
177
100
AcDbEntity
  8
0
100
AcDbBlockEnd
  0
BLOCK
  5
182
330
181
100
AcDbEntity
  8
0
100
AcDbBlockBegin
  2
*D8
 70
     1
 10
0.0
 20
0.0
 30
0.0
  3
*D8
  1

  0
LINE
  5
183
330
181
100
AcDbEntity
  8
Dimensions
440
 16777216
370
    -2
100
AcDbLine
 10
9.859943
 20
5.529589
 30
0.0
 11
9.432522
 21
5.472712
 31
0.0
  0
MTEXT
  5
184
330
181
100
AcDbEntity
  8
Dimensions
440
 16777216
100
AcDbMText
 10
10.111117
 20
5.529589
 30
0.0
 40
0.12
 41
0.0
 46
0.0
 71
     5
 72
     1
  1
\A1;∅.2in
 73
     1
 44
1.0
  0
SOLID
  5
185
330
181
100
AcDbEntity
  8
Dimensions
440
 16777216
100
AcDbTrace
 10
9.429884
 20
5.492538
 30
0.0
 11
9.43516
 21
5.452887
 31
0.0
 12
9.31357
 22
5.456884
 32
0.0
 13
9.31357
 23
5.456884
 33
0.0
  0
POINT
  5
186
330
181
100
AcDbEntity
  8
Defpoints
 62
     0
440
 16777216
100
AcDbPoint
 10
9.31357
 20
5.456884
 30
0.0
  0
POINT
  5
187
330
181
100
AcDbEntity
  8
Defpoints
 62
     0
440
 16777216
100
AcDbPoint
 10
9.11844
 20
5.430918
 30
0.0
  0
ENDBLK
  5
188
330
181
100
AcDbEntity
  8
0
100
AcDbBlockEnd
  0
BLOCK
  5
18B
330
18A
100
AcDbEntity
  8
0
100
AcDbBlockBegin
  2
*D9
 70
     1
 10
0.0
 20
0.0
 30
0.0
  3
*D9
  1

  0
LINE
  5
18C
330
18A
100
AcDbEntity
  8
Dimensions
440
 16777216
370
    -2
100
AcDbLine
 10
7.219157
 20
7.049019
 30
0.0
 11
7.219157
 21
7.777841
 31
0.0
  0
LINE
  5
18D
330
18A
100
AcDbEntity
  8
Dimensions
440
 16777216
370
    -2
100
AcDbLine
 10
9.780559
 20
7.048556
 30
0.0
 11
9.780559
 21
7.777841
 31
0.0
  0
LINE
  5
18E
330
18A
100
AcDbEntity
  8
Dimensions
440
 16777216
370
    -2
100
AcDbLine
 10
7.339157
 20
7.677841
 30
0.0
 11
8.219708
 21
7.677841
 31
0.0
  0
LINE
  5
18F
330
18A
100
AcDbEntity
  8
Dimensions
440
 16777216
370
    -2
100
AcDbLine
 10
9.660559
 20
7.677841
 30
0.0
 11
8.780008
 21
7.677841
 31
0.0
  0
SOLID
  5
190
330
18A
100
AcDbEntity
  8
Dimensions
440
 16777216
100
AcDbTrace
 10
7.339157
 20
7.697841
 30
0.0
 11
7.339157
 21
7.657841
 31
0.0
 12
7.219157
 22
7.677841
 32
0.0
 13
7.219157
 23
7.677841
 33
0.0
  0
SOLID
  5
191
330
18A
100
AcDbEntity
  8
Dimensions
440
 16777216
100
AcDbTrace
 10
9.660559
 20
7.697841
 30
0.0
 11
9.660559
 21
7.657841
 31
0.0
 12
9.780559
 22
7.677841
 32
0.0
 13
9.780559
 23
7.677841
 33
0.0
  0
MTEXT
  5
192
330
18A
100
AcDbEntity
  8
Dimensions
440
 16777216
100
AcDbMText
 10
8.499858
 20
7.677841
 30
0.0
 40
0.12
 41
0.0
 46
0.0
 71
     5
 72
     1
  1
\A1;2.56in
 73
     1
 44
1.0
  0
POINT
  5
193
330
18A
100
AcDbEntity
  8
Defpoints
 62
     0
440
 16777216
100
AcDbPoint
 10
7.219157
 20
6.999019
 30
0.0
  0
POINT
  5
194
330
18A
100
AcDbEntity
  8
Defpoints
 62
     0
440
 16777216
100
AcDbPoint
 10
9.780559
 20
6.998556
 30
0.0
  0
POINT
  5
195
330
18A
100
AcDbEntity
  8
Defpoints
 62
     0
440
 16777216
100
AcDbPoint
 10
9.780559
 20
7.677841
 30
0.0
  0
ENDBLK
  5
196
330
18A
100
AcDbEntity
  8
0
100
AcDbBlockEnd
  0
BLOCK
  5
199
330
198
100
AcDbEntity
  8
0
100
AcDbBlockBegin
  2
*D10
 70
     1
 10
0.0
 20
0.0
 30
0.0
  3
*D10
  1

  0
LINE
  5
19A
330
198
100
AcDbEntity
  8
Dimensions
440
 16777216
370
    -2
100
AcDbLine
 10
8.26378
 20
5.080515
 30
0.0
 11
8.26378
 21
5.469926
 31
0.0
  0
LINE
  5
19B
330
198
100
AcDbEntity
  8
Dimensions
440
 16777216
370
    -2
100
AcDbLine
 10
8.73622
 20
5.080515
 30
0.0
 11
8.73622
 21
5.469926
 31
0.0
  0
LINE
  5
19C
330
198
100
AcDbEntity
  8
Dimensions
440
 16777216
370
    -2
100
AcDbLine
 10
8.14378
 20
5.369926
 30
0.0
 11
8.02378
 21
5.369926
 31
0.0
  0
LINE
  5
19D
330
198
100
AcDbEntity
  8
Dimensions
440
 16777216
370
    -2
100
AcDbLine
 10
8.85622
 20
5.369926
 30
0.0
 11
8.97622
 21
5.369926
 31
0.0
  0
SOLID
  5
19E
330
198
100
AcDbEntity
  8
Dimensions
440
 16777216
100
AcDbTrace
 10
8.14378
 20
5.389926
 30
0.0
 11
8.14378
 21
5.349926
 31
0.0
 12
8.26378
 22
5.369926
 32
0.0
 13
8.26378
 23
5.369926
 33
0.0
  0
SOLID
  5
19F
330
198
100
AcDbEntity
  8
Dimensions
440
 16777216
100
AcDbTrace
 10
8.85622
 20
5.389926
 30
0.0
 11
8.85622
 21
5.349926
 31
0.0
 12
8.73622
 22
5.369926
 32
0.0
 13
8.73622
 23
5.369926
 33
0.0
  0
MTEXT
  5
1A0
330
198
100
AcDbEntity
  8
Dimensions
440
 16777216
100
AcDbMText
 10
8.5
 20
5.369926
 30
0.0
 40
0.12
 41
0.0
 46
0.0
 71
     5
 72
     1
  1
\A1;.47in
 73
     1
 44
1.0
  0
POINT
  5
1A1
330
198
100
AcDbEntity
  8
Defpoints
 62
     0
440
 16777216
100
AcDbPoint
 10
8.26378
 20
5.030515
 30
0.0
  0
POINT
  5
1A2
330
198
100
AcDbEntity
  8
Defpoints
 62
     0
440
 16777216
100
AcDbPoint
 10
8.73622
 20
5.030515
 30
0.0
  0
POINT
  5
1A3
330
198
100
AcDbEntity
  8
Defpoints
 62
     0
440
 16777216
100
AcDbPoint
 10
8.73622
 20
5.369926
 30
0.0
  0
ENDBLK
  5
1A4
330
198
100
AcDbEntity
  8
0
100
AcDbBlockEnd
  0
BLOCK
  5
1A7
330
1A6
100
AcDbEntity
  8
0
100
AcDbBlockBegin
  2
*D11
 70
     1
 10
0.0
 20
0.0
 30
0.0
  3
*D11
  1

  0
LINE
  5
1A8
330
1A6
100
AcDbEntity
  8
Dimensions
440
 16777216
370
    -2
100
AcDbLine
 10
11.075598
 20
7.917001
 30
0.0
 11
10.955712
 21
7.911781
 31
0.0
  0
MTEXT
  5
1A9
330
1A6
100
AcDbEntity
  8
Dimensions
440
 16777216
100
AcDbMText
 10
11.373388
 20
7.917001
 30
0.0
 40
0.12
 41
0.0
 46
0.0
 71
     5
 72
     1
  1
\A1;∅1.9in
 73
     1
 44
1.0
  0
SOLID
  5
1AA
330
1A6
100
AcDbEntity
  8
Dimensions
440
 16777216
100
AcDbTrace
 10
10.954841
 20
7.931762
 30
0.0
 11
10.956582
 21
7.8918
 31
0.0
 12
10.835825
 22
7.90656
 32
0.0
 13
10.835825
 23
7.90656
 33
0.0
  0
ARC
  5
1AB
330
1A6
100
AcDbEntity
  8
Dimensions
440
 16777216
370
    -2
100
AcDbCircle
 10
11.783746
 20
7.947838
 30
0.0
 40
0.9488188976377305
100
AcDbArc
 50
176.454749
 51
235.741073
  0
POINT
  5
1AC
330
1A6
100
AcDbEntity
  8
Defpoints
 62
     0
440
 16777216
100
AcDbPoint
 10
10.835825
 20
7.90656
 30
0.0
  0
POINT
  5
1AD
330
1A6
100
AcDbEntity
  8
Defpoints
 62
     0
440
 16777216
100
AcDbPoint
 10
12.731666
 20
7.989115
 30
0.0
  0
ENDBLK
  5
1AE
330
1A6
100
AcDbEntity
  8
0
100
AcDbBlockEnd
  0
BLOCK
  5
1B1
330
1B0
100
AcDbEntity
  8
0
100
AcDbBlockBegin
  2
*D12
 70
     1
 10
0.0
 20
0.0
 30
0.0
  3
*D12
  1

  0
LINE
  5
1B2
330
1B0
100
AcDbEntity
  8
Dimensions
440
 16777216
370
    -2
100
AcDbLine
 10
11.783746
 20
7.049019
 30
0.0
 11
11.783746
 21
7.777841
 31
0.0
  0
LINE
  5
1B3
330
1B0
100
AcDbEntity
  8
Dimensions
440
 16777216
370
    -2
100
AcDbLine
 10
14.736502
 20
6.261617
 30
0.0
 11
14.736502
 21
7.777841
 31
0.0
  0
LINE
  5
1B4
330
1B0
100
AcDbEntity
  8
Dimensions
440
 16777216
370
    -2
100
AcDbLine
 10
11.903746
 20
7.677841
 30
0.0
 11
12.979974
 21
7.677841
 31
0.0
  0
LINE
  5
1B5
330
1B0
100
AcDbEntity
  8
Dimensions
440
 16777216
370
    -2
100
AcDbLine
 10
14.616502
 20
7.677841
 30
0.0
 11
13.540274
 21
7.677841
 31
0.0
  0
SOLID
  5
1B6
330
1B0
100
AcDbEntity
  8
Dimensions
440
 16777216
100
AcDbTrace
 10
11.903746
 20
7.697841
 30
0.0
 11
11.903746
 21
7.657841
 31
0.0
 12
11.783746
 22
7.677841
 32
0.0
 13
11.783746
 23
7.677841
 33
0.0
  0
SOLID
  5
1B7
330
1B0
100
AcDbEntity
  8
Dimensions
440
 16777216
100
AcDbTrace
 10
14.616502
 20
7.697841
 30
0.0
 11
14.616502
 21
7.657841
 31
0.0
 12
14.736502
 22
7.677841
 32
0.0
 13
14.736502
 23
7.677841
 33
0.0
  0
MTEXT
  5
1B8
330
1B0
100
AcDbEntity
  8
Dimensions
440
 16777216
100
AcDbMText
 10
13.260124
 20
7.677841
 30
0.0
 40
0.12
 41
0.0
 46
0.0
 71
     5
 72
     1
  1
\A1;2.95in
 73
     1
 44
1.0
  0
POINT
  5
1B9
330
1B0
100
AcDbEntity
  8
Defpoints
 62
     0
440
 16777216
100
AcDbPoint
 10
11.783746
 20
6.999019
 30
0.0
  0
POINT
  5
1BA
330
1B0
100
AcDbEntity
  8
Defpoints
 62
     0
440
 16777216
100
AcDbPoint
 10
14.736502
 20
6.211617
 30
0.0
  0
POINT
  5
1BB
330
1B0
100
AcDbEntity
  8
Defpoints
 62
     0
440
 16777216
100
AcDbPoint
 10
14.736502
 20
7.677841
 30
0.0
  0
ENDBLK
  5
1BC
330
1B0
100
AcDbEntity
  8
0
100
AcDbBlockEnd
  0
BLOCK
  5
1BF
330
1BE
100
AcDbEntity
  8
0
100
AcDbBlockBegin
  2
*D13
 70
     1
 10
0.0
 20
0.0
 30
0.0
  3
*D13
  1

  0
LINE
  5
1C0
330
1BE
100
AcDbEntity
  8
Dimensions
440
 16777216
370
    -2
100
AcDbLine
 10
14.736502
 20
6.261617
 30
0.0
 11
14.736502
 21
6.548138
 31
0.0
  0
LINE
  5
1C1
330
1BE
100
AcDbEntity
  8
Dimensions
440
 16777216
370
    -2
100
AcDbLine
 10
14.539651
 20
6.222247
 30
0.0
 11
14.539651
 21
6.548138
 31
0.0
  0
LINE
  5
1C2
330
1BE
100
AcDbEntity
  8
Dimensions
440
 16777216
370
    -2
100
AcDbLine
 10
14.856502
 20
6.448138
 30
0.0
 11
14.976502
 21
6.448138
 31
0.0
  0
LINE
  5
1C3
330
1BE
100
AcDbEntity
  8
Dimensions
440
 16777216
370
    -2
100
AcDbLine
 10
14.419651
 20
6.448138
 30
0.0
 11
14.299651
 21
6.448138
 31
0.0
  0
SOLID
  5
1C4
330
1BE
100
AcDbEntity
  8
Dimensions
440
 16777216
100
AcDbTrace
 10
14.856502
 20
6.468138
 30
0.0
 11
14.856502
 21
6.428138
 31
0.0
 12
14.736502
 22
6.448138
 32
0.0
 13
14.736502
 23
6.448138
 33
0.0
  0
SOLID
  5
1C5
330
1BE
100
AcDbEntity
  8
Dimensions
440
 16777216
100
AcDbTrace
 10
14.419651
 20
6.468138
 30
0.0
 11
14.419651
 21
6.428138
 31
0.0
 12
14.539651
 22
6.448138
 32
0.0
 13
14.539651
 23
6.448138
 33
0.0
  0
MTEXT
  5
1C6
330
1BE
100
AcDbEntity
  8
Dimensions
440
 16777216
100
AcDbMText
 10
14.117891
 20
6.448138
 30
0.0
 40
0.12
 41
0.0
 46
0.0
 71
     5
 72
     1
  1
\A1;.2in
 73
     1
 44
1.0
  0
POINT
  5
1C7
330
1BE
100
AcDbEntity
  8
Defpoints
 62
     0
440
 16777216
100
AcDbPoint
 10
14.736502
 20
6.211617
 30
0.0
  0
POINT
  5
1C8
330
1BE
100
AcDbEntity
  8
Defpoints
 62
     0
440
 16777216
100
AcDbPoint
 10
14.539651
 20
6.172247
 30
0.0
  0
POINT
  5
1C9
330
1BE
100
AcDbEntity
  8
Defpoints
 62
     0
440
 16777216
100
AcDbPoint
 10
14.539651
 20
6.448138
 30
0.0
  0
ENDBLK
  5
1CA
330
1BE
100
AcDbEntity
  8
0
100
AcDbBlockEnd
  0
BLOCK
  5
1CD
330
1CC
100
AcDbEntity
  8
0
100
AcDbBlockBegin
  2
*D14
 70
     1
 10
0.0
 20
0.0
 30
0.0
  3
*D14
  1

  0
LINE
  5
38C
330
1CC
100
AcDbEntity
  8
Dimensions
440
 16777216
370
    -2
100
AcDbLine
 10
10.203111
 20
6.440009
 30
0.0
 11
10.083111
 21
6.440009
 31
0.0
  0
LINE
  5
38D
330
1CC
100
AcDbEntity
  8
Dimensions
440
 16777216
370
    -2
100
AcDbLine
 10
10.083111
 20
6.440009
 30
0.0
 11
9.471759
 21
5.895703
 31
0.0
  0
MTEXT
  5
38E
330
1CC
100
AcDbEntity
  8
Dimensions
440
 16777216
100
AcDbMText
 10
10.547517
 20
6.440009
 30
0.0
 40
0.12
 41
0.0
 46
0.0
 71
     5
 72
     1
  1
\A1;∅2.36in
 73
     1
 44
1.0
  0
SOLID
  5
38F
330
1CC
100
AcDbEntity
  8
Dimensions
440
 16777216
100
AcDbTrace
 10
9.45846
 20
5.910641
 30
0.0
 11
9.485059
 21
5.880766
 31
0.0
 12
9.382135
 22
5.815907
 32
0.0
 13
9.382135
 23
5.815907
 33
0.0
  0
POINT
  5
390
330
1CC
100
AcDbEntity
  8
Defpoints
 62
     0
440
 16777216
100
AcDbPoint
 10
9.382135
 20
5.815907
 30
0.0
  0
POINT
  5
391
330
1CC
100
AcDbEntity
  8
Defpoints
 62
     0
440
 16777216
100
AcDbPoint
 10
7.617865
 20
4.245122
 30
0.0
  0
ENDBLK
  5
1CE
330
1CC
100
AcDbEntity
  8
0
100
AcDbBlockEnd
  0
BLOCK
  5
1D6
330
1D5
100
AcDbEntity
  8
0
100
AcDbBlockBegin
  2
*D15
 70
     1
 10
0.0
 20
0.0
 30
0.0
  3
*D15
  1

  0
LINE
  5
392
330
1D5
100
AcDbEntity
  8
Dimensions
440
 16777216
370
    -2
100
AcDbLine
 10
10.098359
 20
5.939278
 30
0.0
 11
9.978359
 21
5.939278
 31
0.0
  0
LINE
  5
393
330
1D5
100
AcDbEntity
  8
Dimensions
440
 16777216
370
    -2
100
AcDbLine
 10
9.978359
 20
5.939278
 30
0.0
 11
9.481691
 21
5.616543
 31
0.0
  0
MTEXT
  5
394
330
1D5
100
AcDbEntity
  8
Dimensions
440
 16777216
100
AcDbMText
 10
10.396149
 20
5.939278
 30
0.0
 40
0.12
 41
0.0
 46
0.0
 71
     5
 72
     1
  1
\A1;∅.39in
 73
     1
 44
1.0
  0
SOLID
  5
395
330
1D5
100
AcDbEntity
  8
Dimensions
440
 16777216
100
AcDbTrace
 10
9.470793
 20
5.633313
 30
0.0
 11
9.492588
 21
5.599773
 31
0.0
 12
9.381068
 22
5.551159
 32
0.0
 13
9.381068
 23
5.551159
 33
0.0
  0
POINT
  5
396
330
1D5
100
AcDbEntity
  8
Defpoints
 62
     0
440
 16777216
100
AcDbPoint
 10
9.381068
 20
5.551159
 30
0.0
  0
POINT
  5
397
330
1D5
100
AcDbEntity
  8
Defpoints
 62
     0
440
 16777216
100
AcDbPoint
 10
9.050942
 20
5.336643
 30
0.0
  0
ENDBLK
  5
1D7
330
1D5
100
AcDbEntity
  8
0
100
AcDbBlockEnd
  0
BLOCK
  5
1DF
330
1DE
100
AcDbEntity
  8
0
100
AcDbBlockBegin
  2
*D16
 70
     1
 10
0.0
 20
0.0
 30
0.0
  3
*D16
  1

  0
LINE
  5
398
330
1DE
100
AcDbEntity
  8
Dimensions
440
 16777216
370
    -2
100
AcDbLine
 10
9.859943
 20
5.529589
 30
0.0
 11
9.432522
 21
5.472712
 31
0.0
  0
MTEXT
  5
399
330
1DE
100
AcDbEntity
  8
Dimensions
440
 16777216
100
AcDbMText
 10
10.111117
 20
5.529589
 30
0.0
 40
0.12
 41
0.0
 46
0.0
 71
     5
 72
     1
  1
\A1;∅.2in
 73
     1
 44
1.0
  0
SOLID
  5
39A
330
1DE
100
AcDbEntity
  8
Dimensions
440
 16777216
100
AcDbTrace
 10
9.429884
 20
5.492538
 30
0.0
 11
9.43516
 21
5.452887
 31
0.0
 12
9.31357
 22
5.456884
 32
0.0
 13
9.31357
 23
5.456884
 33
0.0
  0
POINT
  5
39B
330
1DE
100
AcDbEntity
  8
Defpoints
 62
     0
440
 16777216
100
AcDbPoint
 10
9.31357
 20
5.456884
 30
0.0
  0
POINT
  5
39C
330
1DE
100
AcDbEntity
  8
Defpoints
 62
     0
440
 16777216
100
AcDbPoint
 10
9.11844
 20
5.430918
 30
0.0
  0
ENDBLK
  5
1E0
330
1DE
100
AcDbEntity
  8
0
100
AcDbBlockEnd
  0
BLOCK
  5
1E7
330
1E6
100
AcDbEntity
  8
0
100
AcDbBlockBegin
  2
*D17
 70
     1
 10
0.0
 20
0.0
 30
0.0
  3
*D17
  1

  0
LINE
  5
39D
330
1E6
100
AcDbEntity
  8
Dimensions
440
 16777216
370
    -2
100
AcDbLine
 10
7.219157
 20
7.049019
 30
0.0
 11
7.219157
 21
7.777841
 31
0.0
  0
LINE
  5
39E
330
1E6
100
AcDbEntity
  8
Dimensions
440
 16777216
370
    -2
100
AcDbLine
 10
9.780559
 20
7.048556
 30
0.0
 11
9.780559
 21
7.777841
 31
0.0
  0
LINE
  5
39F
330
1E6
100
AcDbEntity
  8
Dimensions
440
 16777216
370
    -2
100
AcDbLine
 10
7.339157
 20
7.677841
 30
0.0
 11
8.219708
 21
7.677841
 31
0.0
  0
LINE
  5
3A0
330
1E6
100
AcDbEntity
  8
Dimensions
440
 16777216
370
    -2
100
AcDbLine
 10
9.660559
 20
7.677841
 30
0.0
 11
8.780008
 21
7.677841
 31
0.0
  0
SOLID
  5
3A1
330
1E6
100
AcDbEntity
  8
Dimensions
440
 16777216
100
AcDbTrace
 10
7.339157
 20
7.697841
 30
0.0
 11
7.339157
 21
7.657841
 31
0.0
 12
7.219157
 22
7.677841
 32
0.0
 13
7.219157
 23
7.677841
 33
0.0
  0
SOLID
  5
3A2
330
1E6
100
AcDbEntity
  8
Dimensions
440
 16777216
100
AcDbTrace
 10
9.660559
 20
7.697841
 30
0.0
 11
9.660559
 21
7.657841
 31
0.0
 12
9.780559
 22
7.677841
 32
0.0
 13
9.780559
 23
7.677841
 33
0.0
  0
MTEXT
  5
3A3
330
1E6
100
AcDbEntity
  8
Dimensions
440
 16777216
100
AcDbMText
 10
8.499858
 20
7.677841
 30
0.0
 40
0.12
 41
0.0
 46
0.0
 71
     5
 72
     1
  1
\A1;2.56in
 73
     1
 44
1.0
  0
POINT
  5
3A4
330
1E6
100
AcDbEntity
  8
Defpoints
 62
     0
440
 16777216
100
AcDbPoint
 10
7.219157
 20
6.999019
 30
0.0
  0
POINT
  5
3A5
330
1E6
100
AcDbEntity
  8
Defpoints
 62
     0
440
 16777216
100
AcDbPoint
 10
9.780559
 20
6.998556
 30
0.0
  0
POINT
  5
3A6
330
1E6
100
AcDbEntity
  8
Defpoints
 62
     0
440
 16777216
100
AcDbPoint
 10
9.780559
 20
7.677841
 30
0.0
  0
ENDBLK
  5
1E8
330
1E6
100
AcDbEntity
  8
0
100
AcDbBlockEnd
  0
BLOCK
  5
1F4
330
1F3
100
AcDbEntity
  8
0
100
AcDbBlockBegin
  2
*D18
 70
     1
 10
0.0
 20
0.0
 30
0.0
  3
*D18
  1

  0
LINE
  5
3A7
330
1F3
100
AcDbEntity
  8
Dimensions
440
 16777216
370
    -2
100
AcDbLine
 10
8.26378
 20
5.080515
 30
0.0
 11
8.26378
 21
5.469926
 31
0.0
  0
LINE
  5
3A8
330
1F3
100
AcDbEntity
  8
Dimensions
440
 16777216
370
    -2
100
AcDbLine
 10
8.73622
 20
5.080515
 30
0.0
 11
8.73622
 21
5.469926
 31
0.0
  0
LINE
  5
3A9
330
1F3
100
AcDbEntity
  8
Dimensions
440
 16777216
370
    -2
100
AcDbLine
 10
8.14378
 20
5.369926
 30
0.0
 11
8.02378
 21
5.369926
 31
0.0
  0
LINE
  5
3AA
330
1F3
100
AcDbEntity
  8
Dimensions
440
 16777216
370
    -2
100
AcDbLine
 10
8.85622
 20
5.369926
 30
0.0
 11
8.97622
 21
5.369926
 31
0.0
  0
SOLID
  5
3AB
330
1F3
100
AcDbEntity
  8
Dimensions
440
 16777216
100
AcDbTrace
 10
8.14378
 20
5.389926
 30
0.0
 11
8.14378
 21
5.349926
 31
0.0
 12
8.26378
 22
5.369926
 32
0.0
 13
8.26378
 23
5.369926
 33
0.0
  0
SOLID
  5
3AC
330
1F3
100
AcDbEntity
  8
Dimensions
440
 16777216
100
AcDbTrace
 10
8.85622
 20
5.389926
 30
0.0
 11
8.85622
 21
5.349926
 31
0.0
 12
8.73622
 22
5.369926
 32
0.0
 13
8.73622
 23
5.369926
 33
0.0
  0
MTEXT
  5
3AD
330
1F3
100
AcDbEntity
  8
Dimensions
440
 16777216
100
AcDbMText
 10
8.5
 20
5.369926
 30
0.0
 40
0.12
 41
0.0
 46
0.0
 71
     5
 72
     1
  1
\A1;.47in
 73
     1
 44
1.0
  0
POINT
  5
3AE
330
1F3
100
AcDbEntity
  8
Defpoints
 62
     0
440
 16777216
100
AcDbPoint
 10
8.26378
 20
5.030515
 30
0.0
  0
POINT
  5
3AF
330
1F3
100
AcDbEntity
  8
Defpoints
 62
     0
440
 16777216
100
AcDbPoint
 10
8.73622
 20
5.030515
 30
0.0
  0
POINT
  5
3B0
330
1F3
100
AcDbEntity
  8
Defpoints
 62
     0
440
 16777216
100
AcDbPoint
 10
8.73622
 20
5.369926
 30
0.0
  0
ENDBLK
  5
1F5
330
1F3
100
AcDbEntity
  8
0
100
AcDbBlockEnd
  0
BLOCK
  5
201
330
200
100
AcDbEntity
  8
0
100
AcDbBlockBegin
  2
*D19
 70
     1
 10
0.0
 20
0.0
 30
0.0
  3
*D19
  1

  0
LINE
  5
3B1
330
200
100
AcDbEntity
  8
Dimensions
440
 16777216
370
    -2
100
AcDbLine
 10
11.075598
 20
7.917001
 30
0.0
 11
10.955712
 21
7.911781
 31
0.0
  0
MTEXT
  5
3B2
330
200
100
AcDbEntity
  8
Dimensions
440
 16777216
100
AcDbMText
 10
11.373388
 20
7.917001
 30
0.0
 40
0.12
 41
0.0
 46
0.0
 71
     5
 72
     1
  1
\A1;∅1.9in
 73
     1
 44
1.0
  0
SOLID
  5
3B3
330
200
100
AcDbEntity
  8
Dimensions
440
 16777216
100
AcDbTrace
 10
10.954841
 20
7.931762
 30
0.0
 11
10.956582
 21
7.8918
 31
0.0
 12
10.835825
 22
7.90656
 32
0.0
 13
10.835825
 23
7.90656
 33
0.0
  0
ARC
  5
3B4
330
200
100
AcDbEntity
  8
Dimensions
440
 16777216
370
    -2
100
AcDbCircle
 10
11.783746
 20
7.947838
 30
0.0
 40
0.9488188976377305
100
AcDbArc
 50
176.454749
 51
235.741073
  0
POINT
  5
3B5
330
200
100
AcDbEntity
  8
Defpoints
 62
     0
440
 16777216
100
AcDbPoint
 10
10.835825
 20
7.90656
 30
0.0
  0
POINT
  5
3B6
330
200
100
AcDbEntity
  8
Defpoints
 62
     0
440
 16777216
100
AcDbPoint
 10
12.731666
 20
7.989115
 30
0.0
  0
ENDBLK
  5
202
330
200
100
AcDbEntity
  8
0
100
AcDbBlockEnd
  0
BLOCK
  5
20A
330
209
100
AcDbEntity
  8
0
100
AcDbBlockBegin
  2
*D20
 70
     1
 10
0.0
 20
0.0
 30
0.0
  3
*D20
  1

  0
LINE
  5
3B7
330
209
100
AcDbEntity
  8
Dimensions
440
 16777216
370
    -2
100
AcDbLine
 10
11.783746
 20
7.049019
 30
0.0
 11
11.783746
 21
7.777841
 31
0.0
  0
LINE
  5
3B8
330
209
100
AcDbEntity
  8
Dimensions
440
 16777216
370
    -2
100
AcDbLine
 10
14.736502
 20
6.261617
 30
0.0
 11
14.736502
 21
7.777841
 31
0.0
  0
LINE
  5
3B9
330
209
100
AcDbEntity
  8
Dimensions
440
 16777216
370
    -2
100
AcDbLine
 10
11.903746
 20
7.677841
 30
0.0
 11
12.979974
 21
7.677841
 31
0.0
  0
LINE
  5
3BA
330
209
100
AcDbEntity
  8
Dimensions
440
 16777216
370
    -2
100
AcDbLine
 10
14.616502
 20
7.677841
 30
0.0
 11
13.540274
 21
7.677841
 31
0.0
  0
SOLID
  5
3BB
330
209
100
AcDbEntity
  8
Dimensions
440
 16777216
100
AcDbTrace
 10
11.903746
 20
7.697841
 30
0.0
 11
11.903746
 21
7.657841
 31
0.0
 12
11.783746
 22
7.677841
 32
0.0
 13
11.783746
 23
7.677841
 33
0.0
  0
SOLID
  5
3BC
330
209
100
AcDbEntity
  8
Dimensions
440
 16777216
100
AcDbTrace
 10
14.616502
 20
7.697841
 30
0.0
 11
14.616502
 21
7.657841
 31
0.0
 12
14.736502
 22
7.677841
 32
0.0
 13
14.736502
 23
7.677841
 33
0.0
  0
MTEXT
  5
3BD
330
209
100
AcDbEntity
  8
Dimensions
440
 16777216
100
AcDbMText
 10
13.260124
 20
7.677841
 30
0.0
 40
0.12
 41
0.0
 46
0.0
 71
     5
 72
     1
  1
\A1;2.95in
 73
     1
 44
1.0
  0
POINT
  5
3BE
330
209
100
AcDbEntity
  8
Defpoints
 62
     0
440
 16777216
100
AcDbPoint
 10
11.783746
 20
6.999019
 30
0.0
  0
POINT
  5
3BF
330
209
100
AcDbEntity
  8
Defpoints
 62
     0
440
 16777216
100
AcDbPoint
 10
14.736502
 20
6.211617
 30
0.0
  0
POINT
  5
3C0
330
209
100
AcDbEntity
  8
Defpoints
 62
     0
440
 16777216
100
AcDbPoint
 10
14.736502
 20
7.677841
 30
0.0
  0
ENDBLK
  5
20B
330
209
100
AcDbEntity
  8
0
100
AcDbBlockEnd
  0
BLOCK
  5
217
330
216
100
AcDbEntity
  8
0
100
AcDbBlockBegin
  2
*D21
 70
     1
 10
0.0
 20
0.0
 30
0.0
  3
*D21
  1

  0
LINE
  5
3C1
330
216
100
AcDbEntity
  8
Dimensions
440
 16777216
370
    -2
100
AcDbLine
 10
14.736502
 20
6.261617
 30
0.0
 11
14.736502
 21
6.548138
 31
0.0
  0
LINE
  5
3C2
330
216
100
AcDbEntity
  8
Dimensions
440
 16777216
370
    -2
100
AcDbLine
 10
14.539651
 20
6.222247
 30
0.0
 11
14.539651
 21
6.548138
 31
0.0
  0
LINE
  5
3C3
330
216
100
AcDbEntity
  8
Dimensions
440
 16777216
370
    -2
100
AcDbLine
 10
14.856502
 20
6.448138
 30
0.0
 11
14.976502
 21
6.448138
 31
0.0
  0
LINE
  5
3C4
330
216
100
AcDbEntity
  8
Dimensions
440
 16777216
370
    -2
100
AcDbLine
 10
14.419651
 20
6.448138
 30
0.0
 11
14.299651
 21
6.448138
 31
0.0
  0
SOLID
  5
3C5
330
216
100
AcDbEntity
  8
Dimensions
440
 16777216
100
AcDbTrace
 10
14.856502
 20
6.468138
 30
0.0
 11
14.856502
 21
6.428138
 31
0.0
 12
14.736502
 22
6.448138
 32
0.0
 13
14.736502
 23
6.448138
 33
0.0
  0
SOLID
  5
3C6
330
216
100
AcDbEntity
  8
Dimensions
440
 16777216
100
AcDbTrace
 10
14.419651
 20
6.468138
 30
0.0
 11
14.419651
 21
6.428138
 31
0.0
 12
14.539651
 22
6.448138
 32
0.0
 13
14.539651
 23
6.448138
 33
0.0
  0
MTEXT
  5
3C7
330
216
100
AcDbEntity
  8
Dimensions
440
 16777216
100
AcDbMText
 10
14.117891
 20
6.448138
 30
0.0
 40
0.12
 41
0.0
 46
0.0
 71
     5
 72
     1
  1
\A1;.2in
 73
     1
 44
1.0
  0
POINT
  5
3C8
330
216
100
AcDbEntity
  8
Defpoints
 62
     0
440
 16777216
100
AcDbPoint
 10
14.736502
 20
6.211617
 30
0.0
  0
POINT
  5
3C9
330
216
100
AcDbEntity
  8
Defpoints
 62
     0
440
 16777216
100
AcDbPoint
 10
14.539651
 20
6.172247
 30
0.0
  0
POINT
  5
3CA
330
216
100
AcDbEntity
  8
Defpoints
 62
     0
440
 16777216
100
AcDbPoint
 10
14.539651
 20
6.448138
 30
0.0
  0
ENDBLK
  5
218
330
216
100
AcDbEntity
  8
0
100
AcDbBlockEnd
  0
ENDSEC
  0
SECTION
  2
ENTITIES
  0
INSERT
  5
125
330
70
100
AcDbEntity
  8
Titleblock
100
AcDbBlockReference
 66
     1
  2
Shower
 10
16.38
 20
0.38
 30
0.0
  0
ATTRIB
  5
145
330
125
100
AcDbEntity
  8
Titleblock
  6
Continuous
370
    25
100
AcDbText
 10
12.6925
 20
2.6925
 30
0.0
 40
0.12
  1
Railing Products and Mock Ups
100
AcDbAttribute
280
     0
  2
PROJECT
 70
     0
280
     1
1001
FD_ATT_APPNAME
1005
133
  0
ATTRIB
  5
146
330
125
100
AcDbEntity
  8
Titleblock
  6
Continuous
370
    25
100
AcDbText
 10
14.6925
 20
1.0675
 30
0.0
 40
0.12
  1
2/11/2020
100
AcDbAttribute
280
     0
  2
DRAWN_DATE
 70
     0
280
     1
1001
FD_ATT_APPNAME
1005
135
  0
ATTRIB
  5
147
330
125
100
AcDbEntity
  8
Titleblock
  6
Continuous
370
    25
100
AcDbText
 10
12.0675
 20
2.1925
 30
0.0
 40
0.3048
  1
R13-0112-048-12
100
AcDbAttribute
280
     0
  2
TITLE_1
 70
     0
280
     1
1001
FD_ATT_APPNAME
1005
136
  0
ATTRIB
  5
148
330
125
100
AcDbEntity
  8
Titleblock
  6
Continuous
370
    25
100
AcDbText
 10
14.6925
 20
1.29994
 30
0.0
 40
0.12
  1
1:1
100
AcDbAttribute
280
     0
  2
SCALE
 70
     0
280
     1
1001
FD_ATT_APPNAME
1005
137
  0
SEQEND
  5
149
330
125
100
AcDbEntity
  8
Titleblock
  0
INSERT
  5
14A
330
70
100
AcDbEntity
  8
Border
100
AcDbBlockReference
  2
ANSI_B_SHEET
 10
0.0
 20
0.0
 30
0.0
  0
DIMENSION
  5
16B
330
70
100
AcDbEntity
  8
Dimensions
100
AcDbDimension
280
     0
  2
*D14
 10
7.617865
 20
4.245122
 30
0.0
 11
10.547517
 21
6.440009
 31
0.0
 70
   163
 71
     5
 42
2.362205
 73
     0
 74
     0
 75
     0
  3
Standard
100
AcDbDiametricDimension
 15
9.382135
 25
5.815907
 35
0.0
 40
0.0
1001
ACAD_DIMASSOC_CALC_DIMLFAC
1040
-1.0
1001
ACAD_DIMASSOC_DIMLFAC
1040
-1.0
1001
ACAD_DIMASSOC_OVERRIDDEN_DIMLFAC
1040
0.0
1001
ACAD_DSTYLE_DIMRADIAL_EXTENSION
1070
   387
1070
     1
1070
   388
1040
0.0
1070
   390
1040
0.0
1001
ACAD
1000
DSTYLE
1002
{
1070
   144
1040
1.0
1070
   288
1070
     1
1002
}
  0
DIMENSION
  5
176
330
70
100
AcDbEntity
  8
Dimensions
100
AcDbDimension
280
     0
  2
*D15
 10
9.050942
 20
5.336643
 30
0.0
 11
10.396149
 21
5.939278
 31
0.0
 70
   163
 71
     5
 42
0.393701
 73
     0
 74
     0
 75
     0
  3
Standard
100
AcDbDiametricDimension
 15
9.381068
 25
5.551159
 35
0.0
 40
0.0
1001
ACAD_DIMASSOC_CALC_DIMLFAC
1040
-1.0
1001
ACAD_DIMASSOC_DIMLFAC
1040
-1.0
1001
ACAD_DIMASSOC_OVERRIDDEN_DIMLFAC
1040
0.0
1001
ACAD_DSTYLE_DIMRADIAL_EXTENSION
1070
   387
1070
     1
1070
   388
1040
0.0
1070
   390
1040
0.0
1001
ACAD
1000
DSTYLE
1002
{
1070
   144
1040
1.0
1070
   288
1070
     1
1002
}
  0
DIMENSION
  5
180
330
70
100
AcDbEntity
  8
Dimensions
100
AcDbDimension
280
     0
  2
*D16
 10
9.11844
 20
5.430918
 30
0.0
 11
9.859943
 21
5.529589
 31
0.0
 70
   163
 71
     5
 42
0.19685
 73
     0
 74
     0
 75
     0
  3
Standard
100
AcDbDiametricDimension
 15
9.31357
 25
5.456884
 35
0.0
 40
0.0
1001
ACAD_DIMASSOC_CALC_DIMLFAC
1040
-1.0
1001
ACAD_DIMASSOC_DIMLFAC
1040
-1.0
1001
ACAD_DIMASSOC_OVERRIDDEN_DIMLFAC
1040
0.0
1001
ACAD_DSTYLE_DIMRADIAL_EXTENSION
1070
   387
1070
     1
1070
   388
1040
0.0
1070
   390
1040
0.0
1001
ACAD
1000
DSTYLE
1002
{
1070
   144
1040
1.0
1070
   288
1070
     1
1002
}
  0
DIMENSION
  5
189
330
70
100
AcDbEntity
  8
Dimensions
100
AcDbDimension
280
     0
  2
*D17
 10
9.780559
 20
7.677841
 30
0.0
 11
8.499858
 21
7.677841
 31
0.0
 70
    32
 71
     5
 42
2.561402
 73
     0
 74
     0
 75
     0
  3
Standard
100
AcDbAlignedDimension
 13
7.219157
 23
6.999019
 33
0.0
 14
9.780559
 24
6.998556
 34
0.0
100
AcDbRotatedDimension
1001
ACAD_DIMASSOC_CALC_DIMLFAC
1040
-1.0
1001
ACAD_DIMASSOC_DIMLFAC
1040
-1.0
1001
ACAD_DIMASSOC_OVERRIDDEN_DIMLFAC
1040
0.0
1001
ACAD
1000
DSTYLE
1002
{
1070
   177
1070
   256
1070
   176
1070
   256
1070
   144
1040
1.0
1002
}
  0
DIMENSION
  5
197
330
70
100
AcDbEntity
  8
Dimensions
100
AcDbDimension
280
     0
  2
*D18
 10
8.73622
 20
5.369926
 30
0.0
 11
8.5
 21
5.369926
 31
0.0
 70
    32
 71
     5
 42
0.472441
 73
     0
 74
     0
 75
     0
  3
Standard
100
AcDbAlignedDimension
 13
8.26378
 23
5.030515
 33
0.0
 14
8.73622
 24
5.030515
 34
0.0
100
AcDbRotatedDimension
1001
ACAD_DIMASSOC_CALC_DIMLFAC
1040
-1.0
1001
ACAD_DIMASSOC_DIMLFAC
1040
-1.0
1001
ACAD_DIMASSOC_OVERRIDDEN_DIMLFAC
1040
0.0
1001
ACAD
1000
DSTYLE
1002
{
1070
   177
1070
   256
1070
   176
1070
   256
1070
   144
1040
1.0
1002
}
  0
DIMENSION
  5
1A5
330
70
100
AcDbEntity
  8
Dimensions
100
AcDbDimension
280
     0
  2
*D19
 10
12.731666
 20
7.989115
 30
0.0
 11
11.075598
 21
7.917001
 31
0.0
 70
   163
 71
     5
 42
1.897638
 73
     0
 74
     0
 75
     0
  3
Standard
100
AcDbDiametricDimension
 15
10.835825
 25
7.90656
 35
0.0
 40
0.0
1001
ACAD_DIMASSOC_CALC_DIMLFAC
1040
-1.0
1001
ACAD_DIMASSOC_DIMLFAC
1040
-1.0
1001
ACAD_DIMASSOC_OVERRIDDEN_DIMLFAC
1040
0.0
1001
ACAD_DSTYLE_DIMRADIAL_EXTENSION
1070
   387
1070
     1
1070
   388
1040
4.167155
1070
   390
1040
5.257623
1001
ACAD
1000
DSTYLE
1002
{
1070
   144
1040
1.0
1070
   288
1070
     1
1002
}
  0
DIMENSION
  5
1AF
330
70
100
AcDbEntity
  8
Dimensions
100
AcDbDimension
280
     0
  2
*D20
 10
14.736502
 20
7.677841
 30
0.0
 11
13.260124
 21
7.677841
 31
0.0
 70
    32
 71
     5
 42
2.952756
 73
     0
 74
     0
 75
     0
  3
Standard
100
AcDbAlignedDimension
 13
11.783746
 23
6.999019
 33
0.0
 14
14.736502
 24
6.211617
 34
0.0
100
AcDbRotatedDimension
1001
ACAD_DIMASSOC_CALC_DIMLFAC
1040
-1.0
1001
ACAD_DIMASSOC_DIMLFAC
1040
-1.0
1001
ACAD_DIMASSOC_OVERRIDDEN_DIMLFAC
1040
0.0
1001
ACAD
1000
DSTYLE
1002
{
1070
   177
1070
   256
1070
   176
1070
   256
1070
   144
1040
1.0
1002
}
  0
DIMENSION
  5
1BD
330
70
100
AcDbEntity
  8
Dimensions
100
AcDbDimension
280
     0
  2
*D21
 10
14.539651
 20
6.448138
 30
0.0
 11
14.117891
 21
6.448138
 31
0.0
 70
    32
 71
     5
 42
0.19685
 73
     0
 74
     0
 75
     0
  3
Standard
100
AcDbAlignedDimension
 13
14.736502
 23
6.211617
 33
0.0
 14
14.539651
 24
6.172247
 34
0.0
100
AcDbRotatedDimension
1001
ACAD_DIMASSOC_CALC_DIMLFAC
1040
-1.0
1001
ACAD_DIMASSOC_DIMLFAC
1040
-1.0
1001
ACAD_DIMASSOC_OVERRIDDEN_DIMLFAC
1040
0.0
1001
ACAD
1000
DSTYLE
1002
{
1070
   144
1040
1.0
1070
   176
1070
   256
1070
   177
1070
   256
1002
}
  0
CIRCLE
  5
2E1
330
70
100
AcDbEntity
  8
Visible
100
AcDbCircle
 10
9.216005
 20
5.443901
 30
-1.670377
 40
0.0984251968503938
  0
CIRCLE
  5
2E2
330
70
100
AcDbEntity
  8
Visible
100
AcDbCircle
 10
-9.216005
 20
5.443901
 30
1.532582
 40
0.1968503937007875
210
0.0
220
-0.0000000000000001
230
-1.0
  0
CIRCLE
  5
2E3
330
70
100
AcDbEntity
  8
Visible
100
AcDbCircle
 10
7.783995
 20
5.443901
 30
-1.670377
 40
0.0984251968503938
  0
CIRCLE
  5
2E4
330
70
100
AcDbEntity
  8
Visible
100
AcDbCircle
 10
-7.783995
 20
5.443901
 30
1.532582
 40
0.1968503937007875
210
0.0
220
-0.0000000000000001
230
-1.0
  0
CIRCLE
  5
2E5
330
70
100
AcDbEntity
  8
Visible
100
AcDbCircle
 10
8.5
 20
4.203743
 30
-1.670377
 40
0.0984251968503937
  0
CIRCLE
  5
2E6
330
70
100
AcDbEntity
  8
Visible
100
AcDbCircle
 10
-8.5
 20
4.203743
 30
1.532582
 40
0.1968503937007874
210
0.0
220
-0.0000000000000001
230
-1.0
  0
SPLINE
  5
2E7
330
70
100
AcDbEntity
  8
Visible
100
AcDbSpline
 70
     0
 71
     3
 72
    22
 73
    18
 74
     0
 42
0.000000001
 43
0.0000000001
 40
1.957982985127438
 40
1.957982985127438
 40
1.957982985127438
 40
1.957982985127438
 40
1.973595860812815
 40
1.973595860812815
 40
2.174868837173361
 40
2.174868837173361
 40
2.494813777377718
 40
2.494813777377718
 40
2.890488454285002
 40
2.890488454285002
 40
3.33798213589051
 40
3.33798213589051
 40
3.710161916081305
 40
3.710161916081305
 40
3.826647173757633
 40
3.826647173757633
 40
3.915282440913668
 40
3.915282440913668
 40
3.915282440913668
 40
3.915282440913668
 10
9.780842799375022
 20
6.999018875242993
 30
1.223323536791212
 10
9.780842775669952
 20
6.999018833449289
 30
1.225377294347708
 10
9.780831204212518
 20
6.999025474848997
 30
1.227431354174768
 10
9.780509990005157
 20
6.999210808068642
 30
1.255967883356788
 10
9.778293702123846
 20
7.000495877725803
 30
1.28235889885218
 10
9.767618166128158
 20
7.006571532040419
 30
1.349833198048145
 10
9.75631569644247
 20
7.012965359506199
 30
1.390025980581413
 10
9.720759245727094
 20
7.031775602792851
 30
1.475137477689713
 10
9.694309267313656
 20
7.045141393452482
 30
1.518337849222007
 10
9.624701060507504
 20
7.07538963329678
 30
1.599069762725775
 10
9.580288813569495
 20
7.092240288482615
 30
1.634553696967486
 10
9.487758371285963
 20
7.117596362424603
 30
1.683300800652432
 10
9.442175535168644
 20
7.126786899680658
 30
1.698964602255728
 10
9.379376480199425
 20
7.133540372890877
 30
1.710342123709779
 10
9.364256560529611
 20
7.134751428294982
 30
1.712353523791534
 10
9.337451127224994
 20
7.136137410849754
 30
1.714649576639203
 10
9.325829242816325
 20
7.136489972040463
 30
1.715230231948225
 10
9.31419007353179
 20
7.136591887346885
 30
1.715398251892111
1001
ACAD_VIEW_EDGE_ID
1071
       16
1071
       -1
1071
        2
1071
        0
  0
SPLINE
  5
2E8
330
70
100
AcDbEntity
  8
Visible
100
AcDbSpline
 70
     0
 71
     3
 72
    20
 73
    16
 74
     0
 42
0.000000001
 43
0.0000000001
 40
0.0
 40
0.0
 40
0.0
 40
0.0
 40
0.106679152003576
 40
0.106679152003576
 40
0.2985566617524614
 40
0.2985566617524614
 40
0.5631400895163444
 40
0.5631400895163444
 40
1.006729448506496
 40
1.006729448506496
 40
1.479509452341741
 40
1.479509452341741
 40
1.770920547281719
 40
1.770920547281719
 40
1.957949801484245
 40
1.957949801484245
 40
1.957949801484245
 40
1.957949801484245
 10
7.685809926464571
 20
7.136591887346885
 30
1.715398251892111
 10
7.671812032742309
 20
7.136469318493977
 30
1.715196182030922
 10
7.657841786749486
 20
7.135984044870208
 30
1.714397443582129
 10
7.618926565552101
 20
7.133634788945135
 30
1.710498527794698
 10
7.594262946679009
 20
7.130983458945905
 30
1.706085566915135
 10
7.536908100921209
 20
7.122307991625683
 30
1.691146436669441
 10
7.505029616262618
 20
7.115431502953527
 30
1.679019737972339
 10
7.424578281372305
 20
7.09385322467246
 30
1.637830657973609
 10
7.380094338283015
 20
7.077257901452189
 30
1.603266721192994
 10
7.30321332040512
 20
7.044269086437529
 30
1.516756386216002
 10
7.272376710412572
 20
7.028310211165489
 30
1.464470820592396
 10
7.238379488095233
 20
7.00999144967518
 30
1.371658068679607
 10
7.229270254183575
 20
7.004809369597769
 30
1.334671346785398
 10
7.220813567299046
 20
6.999979384135784
 30
1.272481378155134
 10
7.219157039540732
 20
6.999019159526508
 30
1.247926351597925
 10
7.219157225790695
 20
6.999018830927768
 30
1.223323536793031
1001
ACAD_VIEW_EDGE_ID
1071
       21
1071
       -1
1071
        2
1071
        0
  0
SPLINE
  5
2E9
330
70
100
AcDbEntity
  8
Visible
100
AcDbSpline
 70
     0
 71
     3
 72
     8
 73
     4
 74
     0
 42
0.000000001
 43
0.0000000001
 40
0.0
 40
0.0
 40
0.0
 40
0.0
 40
0.0180091728074468
 40
0.0180091728074468
 40
0.0180091728074468
 40
0.0180091728074468
 10
9.307086614171566
 20
7.136622987724279
 30
1.71544952104341
 10
9.309450022676173
 20
7.136622987724279
 30
1.71544952104341
 10
9.311818013742595
 20
7.136612657660842
 30
1.715432494314882
 10
9.31419007353179
 20
7.136591887346883
 30
1.715398251892111
1001
ACAD_VIEW_EDGE_ID
1071
       31
1071
       -1
1071
        2
1071
        0
  0
SPLINE
  5
2EA
330
70
100
AcDbEntity
  8
Visible
100
AcDbSpline
 70
     0
 71
     3
 72
     8
 73
     4
 74
     0
 42
0.000000001
 43
0.0000000001
 40
-0.0180091728056606
 40
-0.0180091728056606
 40
-0.0180091728056606
 40
-0.0180091728056606
 40
0.0
 40
0.0
 40
0.0
 40
0.0
 10
7.685809926464571
 20
7.136591887346886
 30
1.715398251892111
 10
7.688181986253766
 20
7.136612657660841
 30
1.715432494314882
 10
7.690549977320188
 20
7.136622987724278
 30
1.71544952104341
 10
7.692913385824795
 20
7.136622987724278
 30
1.71544952104341
1001
ACAD_VIEW_EDGE_ID
1071
       34
1071
       -1
1071
        2
1071
        0
  0
ARC
  5
2EB
330
70
100
AcDbEntity
  8
Visible
100
AcDbCircle
 10
-8.5
 20
5.030515
 30
0.5877
 40
0.2362204724409454
210
0.0000000000000001
220
0.0
230
-1.0
100
AcDbArc
 50
180.0
 51
0.0
  0
ARC
  5
2EC
330
70
100
AcDbEntity
  8
Visible
100
AcDbCircle
 10
-8.5
 20
5.030515
 30
1.532582
 40
1.141732283464567
210
0.0
220
-0.0000000000000001
230
-1.0
100
AcDbArc
 50
101.940544
 51
78.059456
  0
ARC
  5
2ED
330
70
100
AcDbEntity
  8
Visible
100
AcDbCircle
 10
8.5
 20
5.030515
 30
-1.571952
 40
1.181102362204724
100
AcDbArc
 50
101.536959
 51
78.463041
  0
LINE
  5
2EE
330
70
100
AcDbEntity
  8
Visible
100
AcDbLine
 10
9.307087
 20
7.136623
 30
1.71545
 11
7.692913
 21
7.136623
 31
1.71545
210
0.0
220
1.0
230
0.0
  0
ARC
  5
2EF
330
70
100
AcDbEntity
  8
Visible
100
AcDbCircle
 10
9.622283
 20
7.077523
 30
1.223324
 40
0.1769291338582677
100
AcDbArc
 50
270.0
 51
333.659631
  0
ARC
  5
2F0
330
70
100
AcDbEntity
  8
Visible
100
AcDbCircle
 10
-7.377717
 20
7.077523
 30
-1.223324
 40
0.1769291338582677
210
-0.0000000000000008
220
0.0
230
-1.0
100
AcDbArc
 50
270.0
 51
333.659631
  0
LINE
  5
2F1
330
70
100
AcDbEntity
  8
Visible
100
AcDbLine
 10
7.377717
 20
6.900594
 30
1.223324
 11
8.185039
 21
6.900594
 31
1.223324
210
0.0
220
1.0
230
0.0
  0
LINE
  5
2F2
330
70
100
AcDbEntity
  8
Visible
100
AcDbLine
 10
8.814961
 20
6.900594
 30
1.223324
 11
9.622283
 21
6.900594
 31
1.223324
210
0.0
220
1.0
230
0.0
  0
SPLINE
  5
2F3
330
70
100
AcDbEntity
  8
Visible
100
AcDbSpline
 70
     0
 71
     3
 72
    22
 73
    18
 74
     0
 42
0.000000001
 43
0.0000000001
 40
1.812918875511957
 40
1.812918875511957
 40
1.812918875511957
 40
1.812918875511957
 40
1.813087669806384
 40
1.813087669806384
 40
1.813256464100811
 40
1.813256464100811
 40
1.813425258395238
 40
1.813425258395238
 40
1.813509655542451
 40
1.813509655542451
 40
1.813571608313924
 40
1.813571608313924
 40
1.813666368647135
 40
1.813666368647135
 40
1.813738251593317
 40
1.813738251593317
 40
1.813762846984092
 40
1.813762846984092
 40
1.813762846984092
 40
1.813762846984092
 10
8.185039388245058
 20
6.900593609657477
 30
1.223323536791212
 10
8.186507925285695
 20
6.900593609657477
 30
1.223316404231809
 10
8.188255127375668
 20
6.900561046606508
 30
1.223309271690595
 10
8.192810839802405
 20
6.900242423850411
 30
1.223295006646367
 10
8.195600506602204
 20
6.899981651886035
 30
1.223287874141533
 10
8.203351155560085
 20
6.898536121704907
 30
1.223273609170064
 10
8.208311392314499
 20
6.89747970351494
 30
1.22326647670161
 10
8.219105670819772
 20
6.892950048695603
 30
1.223255778028033
 10
8.223289366884273
 20
6.890916314330669
 30
1.223252211808357
 10
8.2315965006037
 20
6.885493707050318
 30
1.223246027768254
 10
8.235445530399374
 20
6.882593751913026
 30
1.223243409946007
 10
8.245491392524854
 20
6.873001356877634
 30
1.223236788020585
 10
8.251898661545055
 20
6.864893397623354
 30
1.223232783919229
 10
8.260055558021122
 20
6.84721339206466
 30
1.223225742412978
 10
8.262435983891919
 20
6.838587330893952
 30
1.223222705006264
 10
8.263636089293868
 20
6.827402512486004
 30
1.223218628325412
 10
8.263779527556835
 20
6.824587598817946
 30
1.223217589051273
 10
8.263779527556835
 20
6.821853457259924
 30
1.223216549777134
1001
ACAD_VIEW_EDGE_ID
1071
   -38913
1071
       -1
1071
        2
1071
        0
  0
SPLINE
  5
2F4
330
70
100
AcDbEntity
  8
Visible
100
AcDbSpline
 70
     0
 71
     3
 72
    22
 73
    18
 74
     0
 42
0.000000001
 43
0.0000000001
 40
1.812090823857427
 40
1.812090823857427
 40
1.812090823857427
 40
1.812090823857427
 40
1.812166356382198
 40
1.812166356382198
 40
1.812236705451252
 40
1.812236705451252
 40
1.812317228737511
 40
1.812317228737511
 40
1.812427156732163
 40
1.812427156732163
 40
1.812595907262168
 40
1.812595907262168
 40
1.812764657792173
 40
1.812764657792173
 40
1.812933408322178
 40
1.812933408322178
 40
1.812934576507452
 40
1.812934576507452
 40
1.812934576507452
 40
1.812934576507452
 10
8.736220472439526
 20
6.821853457259836
 30
1.223216549777134
 10
8.736220472439526
 20
6.830252407504548
 30
1.223219742301807
 10
8.737684901170723
 20
6.839454448104643
 30
1.223222934822842
 10
8.743459940995307
 20
6.855885886094993
 30
1.223229100767639
 10
8.747492618331307
 20
6.863107815435943
 30
1.223232074193219
 10
8.756912293330969
 20
6.875713881244474
 30
1.223238451069846
 10
8.762313447903579
 20
6.880727368122629
 30
1.223241854517254
 10
8.773882959761976
 20
6.889552641368506
 30
1.223249904243857
 10
8.779635282073286
 20
6.892410142653069
 30
1.223254550517594
 10
8.791570620260245
 20
6.897447490095929
 30
1.2232663292707
 10
8.796552977673854
 20
6.898514021796975
 30
1.223273461739154
 10
8.804334790225766
 20
6.899973718609704
 30
1.223287726637863
 10
8.807134359998599
 20
6.900237195497288
 30
1.223294859069937
 10
8.811705185626124
 20
6.900559638048424
 30
1.223309123895887
 10
8.813457498277784
 20
6.900593032592043
 30
1.223316256291582
 10
8.814940266132907
 20
6.900593607688803
 30
1.223323438043735
 10
8.814950445977956
 20
6.900593609657477
 30
1.223323487418383
 10
8.814960611751303
 20
6.900593609657477
 30
1.223323536791212
1001
ACAD_VIEW_EDGE_ID
1071
   -43009
1071
       -1
1071
        2
1071
        0
  0
ARC
  5
2F5
330
70
100
AcDbEntity
  8
Visible
100
AcDbCircle
 10
-6.841538
 20
-0.5877
 30
-8.26378
 40
1.811023622047244
210
-1.0
220
0.0
230
0.0
100
AcDbArc
 50
0.0
 51
89.377208
  0
ARC
  5
2F6
330
70
100
AcDbEntity
  8
Visible
100
AcDbCircle
 10
6.841538
 20
-0.5877
 30
8.73622
 40
1.811023622047244
210
1.0
220
0.0000000000000003
230
0.0000000000000001
100
AcDbArc
 50
90.622792
 51
180.0
  0
ARC
  5
2F7
330
70
100
AcDbEntity
  8
Visible
100
AcDbCircle
 10
-12.098943
 20
7.136605
 30
-0.807087
 40
0.176929133858268
210
-0.0000000000002969
220
0.0
230
-1.0
100
AcDbArc
 50
180.0
 51
248.766838
  0
SPLINE
  5
2F8
330
70
100
AcDbEntity
  8
Visible
100
AcDbSpline
 70
     0
 71
     3
 72
    34
 73
    30
 74
     0
 42
0.000000001
 43
0.0000000001
 40
0.0
 40
0.0
 40
0.0
 40
0.0
 40
0.1062757339530975
 40
0.1062757339530975
 40
0.2974099137937778
 40
0.2974099137937778
 40
0.567406066131198
 40
0.567406066131198
 40
1.012190020092648
 40
1.012190020092648
 40
1.49791604478357
 40
1.49791604478357
 40
1.780636442224168
 40
1.780636442224168
 40
1.973595860812815
 40
1.973595860812815
 40
2.174868837173361
 40
2.174868837173361
 40
2.494813777377718
 40
2.494813777377718
 40
2.890488454285002
 40
2.890488454285002
 40
3.33798213589051
 40
3.33798213589051
 40
3.710161916081305
 40
3.710161916081305
 40
3.826647173757633
 40
3.826647173757633
 40
3.915282440913668
 40
3.915282440913668
 40
3.915282440913668
 40
3.915282440913668
 10
12.27582046131647
 20
7.136591901638747
 30
0.8141900735372473
 10
12.27561915560363
 20
7.136469796292407
 30
0.8281350328034022
 10
12.2748256817631
 20
7.135987728514727
 30
0.8420526118607085
 10
12.27095423644277
 20
7.133654922320764
 30
0.8808200598632538
 10
12.2665735985538
 20
7.131022847082101
 30
0.9053916633984044
 10
12.25153466790652
 20
7.122286675003749
 30
0.9633512835771398
 10
12.23911842031884
 20
7.115244646198481
 30
0.9958644384314538
 10
12.19726789810556
 20
7.093366969709753
 30
1.076896987291547
 10
12.16243215415488
 20
7.076696302418345
 30
1.121354447615885
 10
12.07422650396984
 20
7.043236547225363
 30
1.199034768844285
 10
12.02015029340509
 20
7.026957307967387
 30
1.230237817362649
 10
11.9262416996462
 20
7.009121055714293
 30
1.263165507822122
 10
11.89024540721584
 20
7.004293025296743
 30
1.271638469224853
 10
11.82833183788534
 20
6.999732461613216
 30
1.279615182811539
 10
11.80297211476318
 20
6.998873943037327
 30
1.2810938595685
 10
11.75110139965181
 20
6.999210822360504
 30
1.280509990010614
 10
11.72471038415642
 20
7.000495892017664
 30
1.278293702129303
 10
11.65723608496046
 20
7.006571546332281
 30
1.267618166133615
 10
11.61704330242719
 20
7.012965373798061
 30
1.256315696447927
 10
11.53193180531889
 20
7.031775617084713
 30
1.220759245732551
 10
11.4887314337866
 20
7.045141407744344
 30
1.194309267319113
 10
11.40799952028283
 20
7.075389647588642
 30
1.124701060512961
 10
11.37251558604112
 20
7.092240302774476
 30
1.080288813574952
 10
11.32376848235617
 20
7.117596376716464
 30
0.9877583712914201
 10
11.30810468075287
 20
7.12678691397252
 30
0.9421755351741012
 10
11.29672715929882
 20
7.133540387182739
 30
0.8793764802048826
 10
11.29471575921707
 20
7.134751442586844
 30
0.8642565605350682
 10
11.2924197063694
 20
7.136137425141616
 30
0.8374511272304516
 10
11.29183905106038
 20
7.136489986332325
 30
0.8258292428217828
 10
11.29167103111649
 20
7.136591901638747
 30
0.8141900735372473
1001
ACAD_VIEW_EDGE_ID
1071
       16
1071
       -1
1071
        2
1071
        0
  0
ARC
  5
2F9
330
70
100
AcDbEntity
  8
Visible
100
AcDbCircle
 10
11.468549
 20
7.136605
 30
0.807087
 40
0.1769291338582676
100
AcDbArc
 50
180.0
 51
248.766838
  0
SPLINE
  5
2FA
330
70
100
AcDbEntity
  8
Visible
100
AcDbSpline
 70
     0
 71
     3
 72
    16
 73
    12
 74
     0
 42
0.000000001
 43
0.0000000001
 40
-7.565550358967681
 40
-7.565550358967681
 40
-7.565550358967681
 40
-7.565550358967681
 40
-6.76586581676304
 40
-6.76586581676304
 40
-6.003796441971776
 40
-6.003796441971776
 40
-5.527503082727236
 40
-5.527503082727236
 40
-5.229819733199398
 40
-5.229819733199398
 40
-5.0437676397445
 40
-5.0437676397445
 40
-5.0437676397445
 40
-5.0437676397445
 10
11.4044715120508
 20
6.971686475679409
 30
0.8070866141770238
 10
11.4044715120508
 20
6.97168647567941
 30
0.9114714528768672
 10
11.47233857488936
 20
6.942266216139008
 30
1.014837228052783
 10
11.67701311448763
 20
6.901077579836173
 30
1.12532695624759
 10
11.81183336852882
 20
6.894928915183198
 30
1.136875355659867
 10
11.9932221760082
 20
6.919346027524293
 30
1.077146548268501
 10
12.05343998135504
 20
6.934939450926379
 30
1.037242679960399
 10
12.12242094010253
 20
6.956479135174276
 30
0.9541842930520942
 10
12.14177170151197
 20
6.963625210375876
 30
0.9182696310745086
 10
12.15954964573211
 20
6.970317896472493
 30
0.8561986271597561
 10
12.16301998038216
 20
6.97168647567941
 30
0.8315028994074964
 10
12.16301998038216
 20
6.97168647567941
 30
0.8070866141770238
1001
ACAD_VIEW_EDGE_ID
1071
       19
1071
       -1
1071
        2
1071
        0
  0
LINE
  5
2FB
330
70
100
AcDbEntity
  8
Visible
100
AcDbLine
 10
12.275872
 20
7.136623
 30
0.807087
 11
12.275872
 21
7.136605
 31
0.807087
210
0.0
220
1.0
230
0.0
  0
SPLINE
  5
2FC
330
70
100
AcDbEntity
  8
Visible
100
AcDbSpline
 70
     0
 71
     3
 72
     8
 73
     4
 74
     0
 42
0.000000001
 43
0.0000000001
 40
0.0
 40
0.0
 40
0.0
 40
0.0
 40
0.0180091728074468
 40
0.0180091728074468
 40
0.0180091728074468
 40
0.0180091728074468
 10
11.29161976196519
 20
7.136623002016141
 30
0.8070866141770238
 10
11.29161976196519
 20
7.136623002016141
 30
0.8094500226816307
 10
11.29163678869372
 20
7.136612671952704
 30
0.8118180137480521
 10
11.29167103111649
 20
7.136591901638745
 30
0.8141900735372473
1001
ACAD_VIEW_EDGE_ID
1071
       31
1071
       -1
1071
        2
1071
        0
  0
LINE
  5
2FD
330
70
100
AcDbEntity
  8
Visible
100
AcDbLine
 10
11.29162
 20
7.136623
 30
0.807087
 11
11.29162
 21
7.136605
 31
0.807087
210
0.0
220
1.0
230
0.0
  0
ARC
  5
2FE
330
70
100
AcDbEntity
  8
Visible
100
AcDbCircle
 10
5.030515
 20
0.0
 30
14.539651
 40
1.141732283464567
210
1.0
220
-0.0000000000000001
230
-0.000000000000297
100
AcDbArc
 50
0.0
 51
180.0
  0
ARC
  5
2FF
330
70
100
AcDbEntity
  8
Visible
100
AcDbCircle
 10
-5.030515
 20
0.0
 30
-14.579021
 40
1.181102362204724
210
-1.0
220
0.0000000000000001
230
0.000000000000297
100
AcDbArc
 50
0.0
 51
180.0
  0
ARC
  5
300
330
70
100
AcDbEntity
  8
Visible
100
AcDbCircle
 10
-5.030515
 20
0.0
 30
-14.736502
 40
1.181102362204724
210
-1.0
220
0.0000000000000001
230
0.000000000000297
100
AcDbArc
 50
0.0
 51
180.0
  0
SPLINE
  5
301
330
70
100
AcDbEntity
  8
Visible
100
AcDbSpline
 70
     0
 71
     3
 72
     8
 73
     4
 74
     0
 42
0.000000001
 43
0.0000000001
 40
3.832740722753325
 40
3.832740722753325
 40
3.832740722753325
 40
3.832740722753325
 40
3.850749895559956
 40
3.850749895559956
 40
3.850749895559956
 40
3.850749895559956
 10
12.27582046131647
 20
7.136591901638747
 30
0.8141900735372473
 10
12.27585470373924
 20
7.136612671952704
 30
0.8118180137480521
 10
12.27587173046777
 20
7.136623002016141
 30
0.8094500226816307
 10
12.27587173046777
 20
7.136623002016141
 30
0.8070866141770238
1001
ACAD_VIEW_EDGE_ID
1071
       58
1071
       -1
1071
        2
1071
        0
  0
ARC
  5
302
330
70
100
AcDbEntity
  8
Visible
100
AcDbCircle
 10
-11.468785
 20
6.866801
 30
0.0
 40
0.078740157480315
210
-0.0000000000002967
220
-0.0000000000000001
230
-1.0
100
AcDbArc
 50
106.243511
 51
180.0
  0
ARC
  5
303
330
70
100
AcDbEntity
  8
Visible
100
AcDbCircle
 10
12.098706
 20
6.866801
 30
0.0
 40
0.078740157480315
100
AcDbArc
 50
106.243511
 51
180.0
  0
ARC
  5
304
330
70
100
AcDbEntity
  8
Visible
100
AcDbCircle
 10
-13.594769
 20
6.841539
 30
0.0
 40
2.047244094488189
210
-0.000000000000297
220
0.0
230
-1.0
100
AcDbArc
 50
270.0
 51
0.0
  0
ARC
  5
305
330
70
100
AcDbEntity
  8
Visible
100
AcDbCircle
 10
13.594769
 20
6.841539
 30
0.0
 40
1.574803149606299
100
AcDbArc
 50
180.0
 51
270.0
  0
LINE
  5
306
330
70
100
AcDbEntity
  8
Visible
100
AcDbLine
 10
11.547525
 20
6.841539
 30
0.0
 11
11.547525
 21
6.866801
 31
0.0
210
0.0
220
1.0
230
0.0
  0
LINE
  5
307
330
70
100
AcDbEntity
  8
Visible
100
AcDbLine
 10
12.019966
 20
6.841539
 30
0.0
 11
12.019966
 21
6.866801
 31
0.0
210
0.0
220
1.0
230
0.0
  0
ARC
  5
308
330
70
100
AcDbEntity
  8
Visible
100
AcDbCircle
 10
-14.342801
 20
5.463586
 30
0.0
 40
0.1968503937007874
210
-0.0000000000002969
220
0.0
230
-1.0
100
AcDbArc
 50
180.0
 51
270.0
  0
ARC
  5
309
330
70
100
AcDbEntity
  8
Visible
100
AcDbCircle
 10
-14.342801
 20
4.597444
 30
0.0
 40
0.1968503937007874
210
-0.0000000000002969
220
0.0
230
-1.0
100
AcDbArc
 50
90.0
 51
180.0
  0
LINE
  5
30A
330
70
100
AcDbEntity
  8
Visible
100
AcDbLine
 10
14.342801
 20
4.794294
 30
0.0
 11
13.594769
 21
4.794294
 31
0.0
210
0.0
220
1.0
230
0.0
  0
LINE
  5
30B
330
70
100
AcDbEntity
  8
Visible
100
AcDbLine
 10
14.342801
 20
5.266735
 30
0.0
 11
13.594769
 21
5.266735
 31
0.0
210
0.0
220
1.0
230
0.0
  0
LINE
  5
30C
330
70
100
AcDbEntity
  8
Visible
100
AcDbLine
 10
14.539651
 20
6.172247
 30
0.0
 11
14.579021
 21
6.211617
 31
0.0
210
0.0
220
1.0
230
0.0
  0
LINE
  5
30D
330
70
100
AcDbEntity
  8
Visible
100
AcDbLine
 10
14.539651
 20
3.888783
 30
0.0
 11
14.579021
 21
3.849413
 31
0.0
210
0.0
220
1.0
230
0.0
  0
LINE
  5
30E
330
70
100
AcDbEntity
  8
Visible
100
AcDbLine
 10
14.579021
 20
6.211617
 30
0.0
 11
14.736502
 21
6.211617
 31
0.0
210
0.0
220
1.0
230
0.0
  0
LINE
  5
30F
330
70
100
AcDbEntity
  8
Visible
100
AcDbLine
 10
14.579021
 20
3.849413
 30
0.0
 11
14.736502
 21
3.849413
 31
0.0
210
0.0
220
1.0
230
0.0
  0
ARC
  5
310
330
70
100
AcDbEntity
  8
Visible
100
AcDbCircle
 10
6.971365
 20
-1.048373
 30
-0.864075
 40
0.1968503937007875
210
0.7071067811864423
220
-0.4071957137923944
230
0.5780931159158111
100
AcDbArc
 50
188.114321
 51
351.885679
  0
ARC
  5
311
330
70
100
AcDbEntity
  8
Visible
100
AcDbCircle
 10
6.971365
 20
-1.048373
 30
-0.9625
 40
0.0984251968503939
210
0.7071067811864422
220
-0.4071957137923946
230
0.5780931159158111
100
AcDbArc
 50
193.236013
 51
346.763987
  0
ARC
  5
312
330
70
100
AcDbEntity
  8
Visible
100
AcDbCircle
 10
6.971365
 20
-1.048373
 30
-1.021555
 40
0.0984251968503968
210
0.7071067811864422
220
-0.4071957137923946
230
0.5780931159158111
100
AcDbArc
 50
241.658315
 51
298.341685
  0
CIRCLE
  5
313
330
70
100
AcDbEntity
  8
Visible
100
AcDbCircle
 10
-6.971365
 20
-1.048373
 30
0.824705
 40
0.1968503937007875
210
-0.7071067811864423
220
0.4071957137923944
230
-0.578093115915811
  0
ARC
  5
314
330
70
100
AcDbEntity
  8
Visible
100
AcDbCircle
 10
5.96074
 20
-0.033833
 30
-0.864075
 40
0.1968503937007875
210
0.7071067811864423
220
-0.4071957137923942
230
0.5780931159158111
100
AcDbArc
 50
188.114321
 51
351.885679
  0
ARC
  5
315
330
70
100
AcDbEntity
  8
Visible
100
AcDbCircle
 10
5.96074
 20
-0.033833
 30
-0.9625
 40
0.0984251968503937
210
0.7071067811864422
220
-0.4071957137923946
230
0.5780931159158111
100
AcDbArc
 50
193.236013
 51
346.763987
  0
ARC
  5
316
330
70
100
AcDbEntity
  8
Visible
100
AcDbCircle
 10
5.96074
 20
-0.033833
 30
-1.021555
 40
0.0984251968503933
210
0.7071067811864422
220
-0.4071957137923946
230
0.5780931159158111
100
AcDbArc
 50
241.658315
 51
298.341685
  0
CIRCLE
  5
317
330
70
100
AcDbEntity
  8
Visible
100
AcDbCircle
 10
-5.96074
 20
-0.033833
 30
0.824705
 40
0.1968503937007875
210
-0.7071067811864423
220
0.4071957137923944
230
-0.578093115915811
  0
ARC
  5
318
330
70
100
AcDbEntity
  8
Visible
100
AcDbCircle
 10
5.587435
 20
-1.41633
 30
-0.864075
 40
0.1968503937007877
210
0.7071067811864423
220
-0.4071957137923944
230
0.5780931159158111
100
AcDbArc
 50
188.114321
 51
351.885679
  0
ARC
  5
319
330
70
100
AcDbEntity
  8
Visible
100
AcDbCircle
 10
5.587435
 20
-1.41633
 30
-0.9625
 40
0.098425196850394
210
0.7071067811864422
220
-0.4071957137923946
230
0.5780931159158111
100
AcDbArc
 50
193.236013
 51
346.763987
  0
ARC
  5
31A
330
70
100
AcDbEntity
  8
Visible
100
AcDbCircle
 10
5.587435
 20
-1.41633
 30
-1.021555
 40
0.0984251968503957
210
0.7071067811864422
220
-0.4071957137923946
230
0.5780931159158111
100
AcDbArc
 50
241.658315
 51
298.341685
  0
CIRCLE
  5
31B
330
70
100
AcDbEntity
  8
Visible
100
AcDbCircle
 10
-5.587435
 20
-1.41633
 30
0.824705
 40
0.1968503937007875
210
-0.7071067811864423
220
0.4071957137923944
230
-0.578093115915811
  0
SPLINE
  5
31C
330
70
100
AcDbEntity
  8
Visible
100
AcDbSpline
 70
     0
 71
     3
 72
    34
 73
    30
 74
     0
 42
0.000000001
 43
0.0000000001
 40
0.0
 40
0.0
 40
0.0
 40
0.0
 40
0.1062757339530975
 40
0.1062757339530975
 40
0.2974099137937778
 40
0.2974099137937778
 40
0.567406066131198
 40
0.567406066131198
 40
1.012190020092648
 40
1.012190020092648
 40
1.49791604478357
 40
1.49791604478357
 40
1.780636442224168
 40
1.780636442224168
 40
1.973595860812815
 40
1.973595860812815
 40
2.174868837173361
 40
2.174868837173361
 40
2.494813777377718
 40
2.494813777377718
 40
2.890488454285002
 40
2.890488454285002
 40
3.33798213589051
 40
3.33798213589051
 40
3.710161916081305
 40
3.710161916081305
 40
3.826647173757633
 40
3.826647173757633
 40
3.915282440913668
 40
3.915282440913668
 40
3.915282440913668
 40
3.915282440913668
 10
5.0911776810188
 20
6.576656225773149
 30
0.8945028213565819
 10
5.10118060091265
 20
6.582152755717288
 30
0.8864873940565303
 10
5.111582886175549
 20
6.587102721982773
 30
0.8786228348071745
 10
5.141733136786408
 20
6.599405045706589
 30
0.8571063221424992
 10
5.162205463027769
 20
6.605474874831998
 30
0.8439183525715634
 10
5.213823233334389
 20
6.615809763277866
 30
0.8140753705101815
 10
5.245593118475719
 20
6.61823594737325
 30
0.7984022520831786
 10
5.332484571323968
 20
6.616304669170858
 30
0.7631528762140079
 10
5.388553333769616
 20
6.606593534723288
 30
0.7479906293920067
 10
5.505852429059652
 20
6.574952739229956
 30
0.7348070580665081
 10
5.566153971451806
 20
6.55232984043414
 30
0.7386552851730812
 10
5.655840768123036
 20
6.51291670124101
 30
0.7636367110117135
 10
5.687285279061891
 20
6.497762176430114
 30
0.776767481396746
 10
5.736705172052845
 20
6.472070844228255
 30
0.8053217524375213
 10
5.755682786603594
 20
6.46164470511394
 30
0.8186328329738898
 10
5.791948062879621
 20
6.440560837790144
 30
0.8491504631710995
 10
5.809042176709064
 20
6.42996267147555
 30
0.8664281707151531
 10
5.849204967331226
 20
6.40310752726873
 30
0.9151047890773043
 10
5.869633503456336
 20
6.387366136545097
 30
0.9485558002470497
 10
5.90467421280193
 20
6.353608925716798
 30
1.02914520889135
 10
5.916518529364859
 20
6.336174765478972
 30
1.077106443659431
 10
5.924384177802332
 20
6.299686274394844
 30
1.18143583510573
 10
5.918070907349667
 20
6.280929096567888
 30
1.237326914391815
 10
5.887111411723546
 20
6.244131270743309
 30
1.333600083020428
 10
5.865955459532253
 20
6.226705599689012
 30
1.374298821076081
 10
5.829594944485345
 20
6.202022498311634
 30
1.42106885584144
 10
5.820325821392382
 20
6.196036793200619
 30
1.431669754279937
 10
5.802995072269206
 20
6.185319898827401
 30
1.449291257358709
 10
5.795187744300003
 20
6.180639312344283
 30
1.456548488054977
 10
5.787076416813599
 20
6.175914796064716
 30
1.463432831988029
1001
ACAD_VIEW_EDGE_ID
1071
       16
1071
       -1
1071
        2
1071
        0
  0
SPLINE
  5
31D
330
70
100
AcDbEntity
  8
Visible Narrow
100
AcDbSpline
 70
     0
 71
     3
 72
     8
 73
     4
 74
     0
 42
0.000000001
 43
0.0000000001
 40
7.554104072068267
 40
7.554104072068267
 40
7.554104072068267
 40
7.554104072068267
 40
7.56555035896768
 40
7.56555035896768
 40
7.56555035896768
 40
7.56555035896768
 10
5.787076416813599
 20
6.175914796064716
 30
1.463432831988029
 10
5.785450862777745
 20
6.174958129196966
 30
1.46480555502967
 10
5.783745952592491
 20
6.173965586124722
 30
1.466222266783006
 10
5.782089765294424
 20
6.173011851290539
 30
1.467576277947955
1001
ACAD_VIEW_EDGE_ID
1071
       17
1071
       -1
1071
        2
1071
        0
  0
ARC
  5
31E
330
70
100
AcDbEntity
  8
Visible Narrow
100
AcDbCircle
 10
2.588846
 20
5.749614
 30
5.753783
 40
0.176929133858268
210
0.7071067811866531
220
0.4071957137922733
230
-0.5780931159156388
100
AcDbArc
 50
134.889207
 51
180.0
  0
SPLINE
  5
31F
330
70
100
AcDbEntity
  8
Visible
100
AcDbSpline
 70
     0
 71
     3
 72
    34
 73
    30
 74
     0
 42
0.000000001
 43
0.0000000001
 40
0.0
 40
0.0
 40
0.0
 40
0.0
 40
0.106679152003576
 40
0.106679152003576
 40
0.2985566617524614
 40
0.2985566617524614
 40
0.5631400895163444
 40
0.5631400895163444
 40
1.006729448506496
 40
1.006729448506496
 40
1.479509452341741
 40
1.479509452341741
 40
1.770920547281719
 40
1.770920547281719
 40
1.966779011001102
 40
1.966779011001102
 40
2.166568117186363
 40
2.166568117186363
 40
2.480978957885821
 40
2.480978957885821
 40
2.87883954172877
 40
2.87883954172877
 40
3.330470981546314
 40
3.330470981546314
 40
3.708906406073404
 40
3.708906406073404
 40
3.826207375591041
 40
3.826207375591041
 40
3.915569139040119
 40
3.915569139040119
 40
3.915569139040119
 40
3.915569139040119
 10
4.635637772472202
 20
5.512845379754253
 30
2.404788185100187
 10
4.625596881929434
 20
5.507127573597244
 30
2.412692873193009
 10
4.615153632879648
 20
5.50136745812415
 30
2.420027780535747
 10
4.584879466286858
 20
5.485188341221146
 30
2.438917619125277
 10
4.564319219571027
 20
5.474774772867931
 30
2.449097585702475
 10
4.513199658899631
 20
5.450410671949612
 30
2.468621949477892
 10
4.482083295340837
 20
5.436745975822304
 30
2.476080414506213
 10
4.396070533107215
 20
5.403117294549701
 30
2.486351549738174
 10
4.340175241212657
 20
5.385510451715163
 30
2.48252962603874
 10
4.224640107621619
 20
5.362461557497226
 30
2.457965988982323
 10
4.165863853576249
 20
5.358148347701899
 30
2.436376390329314
 10
4.07619566087653
 20
5.367121328470602
 30
2.391826464410769
 10
4.043600897940288
 20
5.374236327419566
 30
2.372726519070056
 10
3.992724296741309
 20
5.392498454137239
 30
2.338257708430319
 10
3.973364087896536
 20
5.401516324574913
 30
2.323788579134998
 10
3.936790499158471
 20
5.423003774532844
 30
2.293614966256427
 10
3.919713039204745
 20
5.435489103932013
 30
2.277961881551163
 10
3.879755057082386
 20
5.47146866429648
 30
2.236904738792873
 10
3.85937888158771
 20
5.496983705819729
 30
2.211295161077941
 10
3.823574953085719
 20
5.560705030427925
 30
2.152682223202646
 10
3.811152453813358
 20
5.600049132021013
 30
2.119936562678049
 10
3.80219037473291
 20
5.6865242769627
 30
2.049920431132704
 10
3.808093091138127
 20
5.733330749424567
 30
2.013104074216244
 10
3.8387761842667
 20
5.81281799629869
 30
1.945182080135055
 10
3.860112975395006
 20
5.845933156568207
 30
1.914562987027238
 10
3.896926776708662
 20
5.882230236956274
 30
1.875003798226316
 10
3.906248214588979
 20
5.890261915216797
 30
1.865732705109621
 10
3.923694655319943
 20
5.903353895234431
 30
1.849586664760863
 10
3.931562362542374
 20
5.908656247805993
 30
1.842679656328982
 10
3.939739036677403
 20
5.913586809462685
 30
1.835858174468739
1001
ACAD_VIEW_EDGE_ID
1071
       21
1071
       -1
1071
        2
1071
        0
  0
ARC
  5
320
330
70
100
AcDbEntity
  8
Visible Narrow
100
AcDbCircle
 10
-2.588846
 20
5.749614
 30
-4.13961
 40
0.1769291338582658
210
-0.7071067811866531
220
-0.4071957137922733
230
0.5780931159156388
100
AcDbArc
 50
360.0
 51
45.110793
  0
SPLINE
  5
321
330
70
100
AcDbEntity
  8
Visible Narrow
100
AcDbSpline
 70
     0
 71
     3
 72
     8
 73
     4
 74
     0
 42
0.000000001
 43
0.0000000001
 40
-2.521782719223182
 40
-2.521782719223182
 40
-2.521782719223182
 40
-2.521782719223182
 40
-2.510336432324906
 40
-2.510336432324906
 40
-2.510336432324906
 40
-2.510336432324906
 10
4.640696929520183
 20
5.515727431389677
 30
2.400718709150169
 10
4.639047605795733
 20
5.514777649023926
 30
2.402067109018389
 10
4.637310328883197
 20
5.513787975965897
 30
2.4034645312895
 10
4.635637772472202
 20
5.512845379754253
 30
2.404788185100187
1001
ACAD_VIEW_EDGE_ID
1071
       25
1071
       -1
1071
        2
1071
        0
  0
LINE
  5
322
330
70
100
AcDbEntity
  8
Visible Narrow
100
AcDbLine
 10
5.78209
 20
6.173012
 30
1.467576
 11
4.640697
 21
5.515727
 31
2.400719
210
0.0
220
0.8175471248425399
230
0.5758617009853118
  0
LINE
  5
323
330
70
100
AcDbEntity
  8
Visible
100
AcDbLine
 10
5.086119
 20
6.57381
 30
0.898598
 11
3.944726
 21
5.916526
 31
1.83174
210
0.0
220
0.8175471248425399
230
0.5758617009853118
  0
SPLINE
  5
324
330
70
100
AcDbEntity
  8
Visible
100
AcDbSpline
 70
     0
 71
     3
 72
     8
 73
     4
 74
     0
 42
0.000000001
 43
0.0000000001
 40
0.0
 40
0.0
 40
0.0
 40
0.0
 40
0.0180091728074468
 40
0.0180091728074468
 40
0.0180091728074468
 40
0.0180091728074468
 10
5.782089765294424
 20
6.173026847305663
 30
1.467586840801232
 10
5.783760947474386
 20
6.173989217119014
 30
1.466220570615405
 10
5.785423330300384
 20
6.174951940828577
 30
1.464835859558661
 10
5.787076416813599
 20
6.175914796064716
 30
1.463432831988029
1001
ACAD_VIEW_EDGE_ID
1071
       31
1071
       -1
1071
        2
1071
        0
  0
LINE
  5
325
330
70
100
AcDbEntity
  8
Visible Narrow
100
AcDbLine
 10
5.78209
 20
6.173027
 30
1.467587
 11
5.78209
 21
6.173012
 31
1.467576
210
0.0
220
0.8175471248425399
230
0.5758617009853118
  0
LINE
  5
326
330
70
100
AcDbEntity
  8
Visible Narrow
100
AcDbLine
 10
4.640697
 20
5.515742
 30
2.400729
 11
4.640697
 21
5.515727
 31
2.400719
210
0.0
220
0.8175471248425399
230
0.5758617009853118
  0
SPLINE
  5
327
330
70
100
AcDbEntity
  8
Visible
100
AcDbSpline
 70
     0
 71
     3
 72
     8
 73
     4
 74
     0
 42
0.000000001
 43
0.0000000001
 40
-0.0180091728056606
 40
-0.0180091728056606
 40
-0.0180091728056606
 40
-0.0180091728056606
 40
0.0
 40
0.0
 40
0.0
 40
0.0
 10
4.635637772472202
 20
5.512845379754253
 30
2.404788185100187
 10
4.637339285083564
 20
5.51381430967649
 30
2.403448669801946
 10
4.639025747340221
 20
5.514780057591451
 30
2.402095542191091
 10
4.640696929520183
 20
5.515742427404802
 30
2.400729272003445
1001
ACAD_VIEW_EDGE_ID
1071
       34
1071
       -1
1071
        2
1071
        0
  0
SPLINE
  5
328
330
70
100
AcDbEntity
  8
Visible
100
AcDbSpline
 70
     0
 71
     3
 72
     8
 73
     4
 74
     0
 42
0.000000001
 43
0.0000000001
 40
-3.850749895559955
 40
-3.850749895559955
 40
-3.850749895559955
 40
-3.850749895559955
 40
-3.832740722742557
 40
-3.832740722742557
 40
-3.832740722742557
 40
-3.832740722742557
 10
3.944725688195669
 20
5.916525610270582
 30
1.831739984685555
 10
3.943054506013888
 20
5.915563240456322
 30
1.8331062548732
 10
3.941392123186981
 20
5.914583626118655
 30
1.834479068555083
 10
3.939739036673765
 20
5.913586809460866
 30
1.835858174470558
1001
ACAD_VIEW_EDGE_ID
1071
       35
1071
       -1
1071
        2
1071
        0
  0
ARC
  5
329
330
70
100
AcDbEntity
  8
Visible Narrow
100
AcDbCircle
 10
-6.17318
 20
-0.832845
 30
-0.120177
 40
0.2362204724409449
210
-0.7071067811864422
220
0.4071957137923946
230
-0.5780931159158111
100
AcDbArc
 50
360.0
 51
180.0
  0
ARC
  5
32A
330
70
100
AcDbEntity
  8
Visible Narrow
100
AcDbCircle
 10
6.17318
 20
-0.832845
 30
-0.824705
 40
0.433070866141731
210
0.7071067811864423
220
-0.4071957137923944
230
0.578093115915811
100
AcDbArc
 50
303.055731
 51
236.944269
  0
ARC
  5
32B
330
70
100
AcDbEntity
  8
Visible Narrow
100
AcDbCircle
 10
-6.17318
 20
-0.832845
 30
0.627854
 40
0.2362204724409449
210
-0.7071067811864423
220
0.4071957137923944
230
-0.578093115915811
100
AcDbArc
 50
360.0
 51
180.0
  0
ARC
  5
32C
330
70
100
AcDbEntity
  8
Visible
100
AcDbCircle
 10
-6.17318
 20
-0.832845
 30
0.824705
 40
1.141732283464567
210
-0.7071067811864423
220
0.4071957137923944
230
-0.578093115915811
100
AcDbArc
 50
281.940544
 51
258.059456
  0
ARC
  5
32D
330
70
100
AcDbEntity
  8
Visible
100
AcDbCircle
 10
6.17318
 20
-0.832845
 30
-0.864075
 40
1.181102362204725
210
0.7071067811864423
220
-0.4071957137923944
230
0.578093115915811
100
AcDbArc
 50
314.889207
 51
225.110793
  0
ARC
  5
32E
330
70
100
AcDbEntity
  8
Visible
100
AcDbCircle
 10
6.17318
 20
-0.832845
 30
-1.021555
 40
1.181102362204724
210
0.7071067811864423
220
-0.4071957137923944
230
0.578093115915811
100
AcDbArc
 50
0.0
 51
180.0
  0
SPLINE
  5
32F
330
70
100
AcDbEntity
  8
Visible
100
AcDbSpline
 70
     0
 71
     3
 72
     8
 73
     4
 74
     0
 42
0.000000001
 43
0.0000000001
 40
3.832740722753325
 40
3.832740722753325
 40
3.832740722753325
 40
3.832740722753325
 40
3.850749895559956
 40
3.850749895559956
 40
3.850749895559956
 40
3.850749895559956
 10
5.0911776810188
 20
6.576656225773149
 30
0.8945028213565819
 10
5.089476168406529
 20
6.575721257272562
 30
0.8958662583099794
 10
5.087789706149871
 20
6.574772399984794
 30
0.8972312832956959
 10
5.08611852396991
 20
6.573810030171443
 30
0.8985975534833414
1001
ACAD_VIEW_EDGE_ID
1071
       58
1071
       -1
1071
        2
1071
        0
  0
LINE
  5
330
330
70
100
AcDbEntity
  8
Visible
100
AcDbLine
 10
5.78209
 20
6.173027
 30
1.467587
 11
4.640697
 21
5.515742
 31
2.400729
210
0.0
220
0.8175471248425399
230
0.5758617009853118
  0
SPLINE
  5
331
330
70
100
AcDbEntity
  8
Visible
100
AcDbSpline
 70
     0
 71
     3
 72
    16
 73
    12
 74
     0
 42
0.000000001
 43
0.0000000001
 40
7.015215173816636
 40
7.015215173816636
 40
7.015215173816636
 40
7.015215173816636
 40
7.125282210846845
 40
7.125282210846845
 40
7.235349247877054
 40
7.235349247877054
 40
7.345416284907263
 40
7.345416284907263
 40
7.455483321937472
 40
7.455483321937472
 40
7.565550358967681
 40
7.565550358967681
 40
7.565550358967681
 40
7.565550358967681
 10
5.920010654934978
 20
6.295244237432598
 30
1.194622380193322
 10
5.914480268770441
 20
6.27166188755109
 30
1.207805728030507
 10
5.905627735842083
 20
6.250332860979142
 30
1.220849992721923
 10
5.885296893013057
 20
6.213566859874845
 30
1.246280891138667
 10
5.873722608445698
 20
6.197752282785586
 30
1.258838310293867
 10
5.84976626016016
 20
6.16998243755188
 30
1.283181013137436
 10
5.837345591483265
 20
6.157970782031952
 30
1.294963239148273
 10
5.812093221650522
 20
6.13622760995986
 30
1.31732744310284
 10
5.799284649201419
 20
6.126526188948446
 30
1.327872361109257
 10
5.77293749399889
 20
6.108337909839974
 30
1.34762209497785
 10
5.759331369560479
 20
6.099827124733565
 30
1.356863231663737
 10
5.745275311917632
 20
6.091732779468657
 30
1.365294763658312
1001
ACAD_VIEW_EDGE_ID
1071
   -20481
1071
       -1
1071
        2
1071
        0
  0
SPLINE
  5
332
330
70
100
AcDbEntity
  8
Visible
100
AcDbSpline
 70
     0
 71
     3
 72
    18
 73
    14
 74
     0
 42
0.000000001
 43
0.0000000001
 40
-2.521782719223182
 40
-2.521782719223182
 40
-2.521782719223182
 40
-2.521782719223182
 40
-2.197387959538617
 40
-2.197387959538617
 40
-1.903959564108115
 40
-1.903959564108115
 40
-1.590057518198064
 40
-1.590057518198064
 40
-1.301587734851693
 40
-1.301587734851693
 40
-1.067000410774405
 40
-1.067000410774405
 40
-0.8998089208003587
 40
-0.8998089208003587
 40
-0.8998089208003587
 40
-0.8998089208003587
 10
4.603882476143391
 20
5.434448359567795
 30
2.298437194862344
 10
4.56245580050456
 20
5.410592323670243
 30
2.323287003384393
 10
4.517445696196611
 20
5.390200098883724
 30
2.340695262646477
 10
4.423400846870956
 20
5.357093840514608
 30
2.358704083539123
 10
4.376071651048571
 20
5.344288606335794
 30
2.360740017444186
 10
4.272206194324846
 20
5.327447605171073
 30
2.35319769086891
 10
4.21620489467916
 20
5.324233557394109
 30
2.342885023410417
 10
4.105879597702207
 20
5.336129704033737
 30
2.313189515620251
 10
4.052479243130457
 20
5.349911339910249
 30
2.294830437418568
 10
3.961550042659675
 20
5.395365205868984
 30
2.25618748103443
 10
3.923762179558091
 20
5.422982190226321
 30
2.237198870187057
 10
3.869823284241485
 20
5.481828102989311
 30
2.20269285321774
 10
3.85080772639669
 20
5.509547341685902
 30
2.187822314988807
 10
3.83626468643599
 20
5.538964760485214
 30
2.172840970362813
1001
ACAD_VIEW_EDGE_ID
1071
   -22529
1071
       -1
1071
        2
1071
        0
  0
LINE
  5
333
330
70
100
AcDbEntity
  8
Visible
100
AcDbLine
 10
4.603882
 20
5.434448
 30
2.298437
 11
5.745275
 21
6.091733
 31
1.365295
210
0.0
220
0.8175471248425399
230
0.5758617009853118
  0
SPLINE
  5
334
330
70
100
AcDbEntity
  8
Visible
100
AcDbSpline
 70
     0
 71
     3
 72
    18
 73
    14
 74
     0
 42
0.000000001
 43
0.0000000001
 40
1.570796326794896
 40
1.570796326794896
 40
1.570796326794896
 40
1.570796326794896
 40
1.884955592153875
 40
1.884955592153875
 40
2.199114857512855
 40
2.199114857512855
 40
2.471878373737934
 40
2.471878373737934
 40
2.740860772741811
 40
2.740860772741811
 40
3.04808058214413
 40
3.04808058214413
 40
3.09090833608395
 40
3.09090833608395
 40
3.09090833608395
 40
3.09090833608395
 10
3.464939017921844
 20
4.855669899905478
 30
-0.6101038793422049
 10
3.617654300290107
 20
4.76772701763366
 30
-0.5004685486874223
 10
3.774824601828024
 20
4.704834228757135
 30
-0.3735562246038171
 10
4.089523313019364
 20
4.6418334281243
 30
-0.0975206170223828
 10
4.247876505983933
 20
4.64220898107851
 30
0.051558062694312
 10
4.524345495760664
 20
4.715240135520616
 30
0.3371924903094623
 10
4.643923505020959
 20
4.778895818372802
 30
0.4727735083197331
 10
4.841274444190114
 20
4.953424702645861
 30
0.7377834580165655
 10
4.919381101398196
 20
5.062548710400733
 30
0.8672486009418207
 10
5.041089488149575
 20
5.324611880934753
 30
1.13012734125732
 10
5.078982258408197
 20
5.481588032177569
 30
1.261435506716225
 10
5.095162263269978
 20
5.671737229457903
 30
1.393998703264514
 10
5.096680449829202
 20
5.695199901850173
 30
1.409928666796986
 10
5.097744759557665
 20
5.718844734147751
 30
1.425555095414893
1001
ACAD_VIEW_EDGE_ID
1071
   -45057
1071
       -1
1071
        2
1071
        0
  0
SPLINE
  5
335
330
70
100
AcDbEntity
  8
Visible
100
AcDbSpline
 70
     0
 71
     3
 72
    14
 73
    10
 74
     0
 42
0.000000001
 43
0.0000000001
 40
1.570796326794896
 40
1.570796326794896
 40
1.570796326794896
 40
1.570796326794896
 40
1.865806337418892
 40
1.865806337418892
 40
2.169632237935518
 40
2.169632237935518
 40
2.483791503294498
 40
2.483791503294498
 40
2.774209416683655
 40
2.774209416683655
 40
2.774209416683655
 40
2.774209416683655
 10
3.700702267489598
 20
5.265079397297085
 30
-0.6101038793422049
 10
3.809152927519628
 20
5.202626815738767
 30
-0.5071512574504596
 10
3.913661682975382
 20
5.161343521088383
 30
-0.3889754085594177
 10
4.102923084327651
 20
5.11884996106346
 30
-0.1284949628716276
 10
4.186221514927476
 20
5.118608896950718
 30
0.0143939612753457
 10
4.326969361260873
 20
5.148609804902662
 30
0.3136280315247859
 10
4.384683146253175
 20
5.178555578928353
 30
0.470221058540119
 10
4.483828879093218
 20
5.269834077006635
 30
0.7655293581829028
 10
4.52631855077727
 20
5.330246975538102
 30
0.9046665810928971
 10
4.559529739894808
 20
5.410895192553653
 30
1.035290865205752
1001
ACAD_VIEW_EDGE_ID
1071
   -45058
1071
       -1
1071
        2
1071
        0
  0
SPLINE
  5
336
330
70
100
AcDbEntity
  8
Visible
100
AcDbSpline
 70
     0
 71
     3
 72
    10
 73
     6
 74
     0
 42
0.000000001
 43
0.0000000001
 40
3.928924525410126
 40
3.928924525410126
 40
3.928924525410126
 40
3.928924525410126
 40
4.243083790769105
 40
4.243083790769105
 40
4.273704082279454
 40
4.273704082279454
 40
4.273704082279454
 40
4.273704082279454
 10
2.936000874515068
 20
5.160265118884126
 30
-1.042535737706202
 10
2.927818864748426
 20
5.16497682494537
 30
-1.079540890776115
 10
2.918795951765625
 20
5.166264314890213
 30
-1.116540064293076
 10
2.917307119222479
 20
5.166279845229837
 30
-1.155164323679855
 10
2.917239933481889
 20
5.166277602732407
 30
-1.158577525618966
 10
2.917239933481889
 20
5.166277602732407
 30
-1.161972062192944
1001
ACAD_VIEW_EDGE_ID
1071
   -51201
1071
       -1
1071
        2
1071
        0
  0
SPLINE
  5
337
330
70
100
AcDbEntity
  8
Visible
100
AcDbSpline
 70
     0
 71
     3
 72
    10
 73
     6
 74
     0
 42
0.000000001
 43
0.0000000001
 40
6.725737622130589
 40
6.725737622130589
 40
6.725737622130589
 40
6.725737622130589
 40
6.822449928618341
 40
6.822449928618341
 40
7.070517178999919
 40
7.070517178999919
 40
7.070517178999919
 40
7.070517178999919
 10
3.157147141524385
 20
5.582883200278956
 30
-1.161972062192944
 10
3.157147141526204
 20
5.582883200280775
 30
-1.151250627319313
 10
3.157469608424273
 20
5.582285464082815
 30
-1.1403428763806
 10
3.160132389288103
 20
5.578674282211977
 30
-1.100974107957881
 10
3.165303424403484
 20
5.573395085782976
 30
-1.07175584223296
 10
3.171764124082821
 20
5.569674616275733
 30
-1.042535737706202
1001
ACAD_VIEW_EDGE_ID
1071
   -51201
1071
       -1
1071
        2
1071
        0
  0
LINE
  5
338
330
70
100
AcDbEntity
  8
Visible
100
AcDbLine
 10
3.171764
 20
5.569675
 30
-1.042536
 11
3.700702
 21
5.265079
 31
-0.610104
210
0.0
220
0.8175471248425399
230
0.5758617009853118
  0
LINE
  5
339
330
70
100
AcDbEntity
  8
Visible
100
AcDbLine
 10
2.936001
 20
5.160265
 30
-1.042536
 11
3.464939
 21
4.85567
 31
-0.610104
210
0.0
220
0.8175471248425399
230
0.5758617009853118
  0
LINE
  5
33A
330
70
100
AcDbEntity
  8
Visible
100
AcDbLine
 10
2.917811
 20
4.513512
 30
-1.816361
 11
2.890079
 21
4.497418
 31
-1.86188
210
0.0
220
0.8175471248425399
230
0.5758617009853118
  0
LINE
  5
33B
330
70
100
AcDbEntity
  8
Visible
100
AcDbLine
 10
3.722015
 20
5.910035
 30
-1.816361
 11
3.722015
 21
5.942098
 31
-1.86188
210
0.0
220
0.8175471248425399
230
0.5758617009853118
  0
LINE
  5
33C
330
70
100
AcDbEntity
  8
Visible
100
AcDbLine
 10
2.297441
 20
4.437634
 30
-1.179093
 11
2.186086
 21
4.501759
 31
-1.270131
210
0.0
220
0.8175471248425399
230
0.5758617009853118
  0
LINE
  5
33D
330
70
100
AcDbEntity
  8
Visible
100
AcDbLine
 10
3.476258
 20
6.484682
 30
-1.179093
 11
3.364902
 21
6.548807
 31
-1.270131
210
0.0
220
0.8175471248425399
230
0.5758617009853118
  0
ENDSEC
  0
SECTION
  2
OBJECTS
  0
DICTIONARY
  5
C
330
0
100
AcDbDictionary
281
     1
  3
ACAD_COLOR
350
63
  3
ACAD_DETAILVIEWSTYLE
350
6A
  3
ACAD_GROUP
350
D
  3
ACAD_IMAGE_DICT
350
12E
  3
ACAD_IMAGE_VARS
350
130
  3
ACAD_LAYOUT
350
62
  3
ACAD_MATERIAL
350
10
  3
ACAD_MLEADERSTYLE
350
66
  3
ACAD_MLINESTYLE
350
5F
  3
ACAD_PLOTSETTINGS
350
61
  3
ACAD_PLOTSTYLENAME
350
E
  3
ACAD_SCALELIST
350
42
  3
ACAD_SECTIONVIEWSTYLE
350
68
  3
ACAD_TABLESTYLE
350
64
  3
ACAD_VISUALSTYLE
350
29
  3
ACDB_RECOMPOSE_DATA
350
387
  3
AcDbVariableDictionary
350
37E
  0
DICTIONARY
  5
B2
330
70
100
AcDbDictionary
280
     1
281
     1
  3
ACAD_SORTENTS
360
124
  0
DICTIONARY
  5
128
330
127
100
AcDbDictionary
280
     1
281
     1
  3
ACAD_SORTENTS
360
2E0
  0
IMAGEDEF_REACTOR
  5
12F
330
12C
100
AcDbRasterImageDefReactor
 90
        2
330
12C
  0
DICTIONARY
  5
63
102
{ACAD_REACTORS
330
C
102
}
330
C
100
AcDbDictionary
281
     1
  0
DICTIONARY
  5
6A
102
{ACAD_REACTORS
330
C
102
}
330
C
100
AcDbDictionary
281
     1
  3
Imperial24
350
6B
  0
DICTIONARY
  5
D
102
{ACAD_REACTORS
330
C
102
}
330
C
100
AcDbDictionary
281
     1
  0
DICTIONARY
  5
12E
102
{ACAD_REACTORS
330
C
102
}
330
C
100
AcDbDictionary
281
     1
  3
morse_logo-16 (1)_01-2018(B)_1_1
350
12D
  0
RASTERVARIABLES
  5
130
102
{ACAD_REACTORS
330
C
102
}
330
C
100
AcDbRasterVariables
 90
        0
 70
     0
 71
     1
 72
     5
  0
DICTIONARY
  5
62
102
{ACAD_REACTORS
330
C
102
}
330
C
100
AcDbDictionary
281
     1
  3
Model
350
73
  3
Sheet1
350
6F
  3
Sheet2
350
77
  0
DICTIONARY
  5
10
102
{ACAD_REACTORS
330
C
102
}
330
C
100
AcDbDictionary
281
     1
  3
ByBlock
350
19
  3
ByLayer
350
11
  3
Global
350
21
  0
DICTIONARY
  5
66
102
{ACAD_REACTORS
330
C
102
}
330
C
100
AcDbDictionary
281
     1
  3
Standard
350
67
  0
DICTIONARY
  5
5F
102
{ACAD_REACTORS
330
C
102
}
330
C
100
AcDbDictionary
281
     1
  3
Standard
350
60
  0
DICTIONARY
  5
61
102
{ACAD_REACTORS
330
C
102
}
330
C
100
AcDbDictionary
281
     1
  0
ACDBDICTIONARYWDFLT
  5
E
102
{ACAD_REACTORS
330
C
102
}
330
C
100
AcDbDictionary
281
     1
  3
Normal
350
F
100
AcDbDictionaryWithDefault
340
F
  0
DICTIONARY
  5
42
102
{ACAD_REACTORS
330
C
102
}
330
C
100
AcDbDictionary
281
     1
  3
*A1
350
A2
  3
*A10
350
AB
  3
*A11
350
AC
  3
*A12
350
AD
  3
*A13
350
AE
  3
*A14
350
AF
  3
*A15
350
B0
  3
*A16
350
B1
  3
*A2
350
A3
  3
*A3
350
A4
  3
*A4
350
A5
  3
*A5
350
A6
  3
*A6
350
A7
  3
*A7
350
A8
  3
*A8
350
A9
  3
*A9
350
AA
  3
A0
350
43
  3
A1
350
44
  3
A2
350
45
  3
A3
350
46
  3
A4
350
47
  3
A5
350
48
  3
A6
350
49
  3
A7
350
4A
  3
A8
350
4B
  3
A9
350
4C
  3
B0
350
4D
  3
B1
350
4E
  3
B2
350
4F
  3
B3
350
50
  3
B4
350
51
  3
B5
350
52
  3
B6
350
53
  0
DICTIONARY
  5
68
102
{ACAD_REACTORS
330
C
102
}
330
C
100
AcDbDictionary
281
     1
  3
Imperial24
350
69
  0
DICTIONARY
  5
64
102
{ACAD_REACTORS
330
C
102
}
330
C
100
AcDbDictionary
281
     1
  3
Standard
350
65
  0
DICTIONARY
  5
29
102
{ACAD_REACTORS
330
C
102
}
330
C
100
AcDbDictionary
281
     1
  3
2dWireframe
350
2F
  3
Basic
350
2E
  3
Brighten
350
35
  3
ColorChange
350
39
  3
Conceptual
350
32
  3
Dim
350
34
  3
EdgeColorOff
350
41
  3
Facepattern
350
38
  3
Flat
350
2A
  3
FlatWithEdges
350
2B
  3
Gouraud
350
2C
  3
GouraudWithEdges
350
2D
  3
Hidden
350
31
  3
JitterOff
350
3F
  3
Linepattern
350
37
  3
OverhangOff
350
40
  3
Realistic
350
33
  3
Shaded
350
3E
  3
Shaded with edges
350
3D
  3
Shades of Gray
350
3A
  3
Sketchy
350
3B
  3
Thicken
350
36
  3
Wireframe
350
30
  3
X-Ray
350
3C
  0
XRECORD
  5
387
102
{ACAD_REACTORS
330
C
102
}
330
C
100
AcDbXrecord
280
     1
 90
        1
330
65
330
134
330
13E
330
13F
330
140
330
143
  0
DICTIONARY
  5
37E
102
{ACAD_REACTORS
330
C
102
}
330
C
100
AcDbDictionary
281
     1
  3
ANNOALLVISIBLE
350
383
  3
CANNOSCALE
350
384
  3
CMLEADERSTYLE
350
380
  3
CTABLESTYLE
350
37F
  3
CVIEWDETAILSTYLE
350
381
  3
CVIEWSECTIONSTYLE
350
382
  0
SORTENTSTABLE
  5
124
102
{ACAD_REACTORS
330
B2
102
}
330
B2
100
AcDbSortentsTable
330
70
  0
SORTENTSTABLE
  5
2E0
102
{ACAD_REACTORS
330
128
102
}
330
128
100
AcDbSortentsTable
330
127
  0
ACDBDETAILVIEWSTYLE
  5
6B
102
{ACAD_XDICTIONARY
360
38A
102
}
102
{ACAD_REACTORS
330
6A
102
}
330
6A
100
AcDbModelDocViewStyle
 70
     0
  3
Imperial24
290
     0
100
AcDbDetailViewStyle
 70
     0
 71
     0
 90
        3
 71
     1
340
55
 62
   256
 40
0.24
340
0
 62
   256
 40
0.24
300

 40
0.36
280
     3
 71
     2
340
5D
 90
       25
 62
   256
 71
     3
340
55
 62
   256
 40
0.24
 90
        1
 40
0.75
 90
        1
300
%<\AcVar ViewType \f "%tc1">% %<\AcVar ViewDetailId>%\PSCALE %<\AcVar ViewScale \f "%sn">%
 71
     4
340
5D
 90
       25
 62
   256
340
5D
 90
       25
 62
   256
280
     0
  0
IMAGEDEF
  5
12D
102
{ACAD_REACTORS
330
12E
330
12F
330
33E
102
}
330
12E
100
AcDbRasterImageDef
 90
        0
  1
morse_logo-16 (1)_01-2018(B)_1_1.jpg
 10
948.0
 20
333.0
 11
0.264583
 21
0.264583
280
     1
281
     5
  0
LAYOUT
  5
73
102
{ACAD_REACTORS
330
62
102
}
330
62
100
AcDbPlotSettings
  1

  2
AutoCAD PDF (High Quality Print).pc3
  4
ANSI_full_bleed_B_(17.00_x_11.00_Inches)
  6

 40
0.0
 41
0.0
 42
0.0
 43
0.0
 44
431.799988
 45
279.399994
 46
0.0
 47
0.0
 48
0.0
 49
0.0
140
0.0
141
0.0
142
1.0
143
1.660034
 70
 11952
 72
     0
 73
     0
 74
     0
  7

 75
     0
147
0.602397
 76
     0
 77
     2
 78
   300
148
130.664396
149
40.775977
100
AcDbLayout
  1
Model
 70
     1
 71
     0
 10
0.0
 20
0.0
 11
12.0
 21
9.0
 12
0.0
 22
0.0
 32
0.0
 14
0.0
 24
0.0
 34
0.0
 15
0.0
 25
0.0
 35
0.0
146
0.0
 13
0.0
 23
0.0
 33
0.0
 16
1.0
 26
0.0
 36
0.0
 17
0.0
 27
1.0
 37
0.0
 76
     0
330
70
1001
ACAD_PSEXT
1000
AutoCAD PDF (High Quality Print).pc3
1000
DWG To PDF
1000
File
1000

1070
     0
  0
LAYOUT
  5
6F
102
{ACAD_REACTORS
330
62
102
}
330
62
100
AcDbPlotSettings
  1

  2
None
  4

  6

 40
0.0
 41
0.0
 42
0.0
 43
0.0
 44
0.0
 45
0.0
 46
0.0
 47
0.0
 48
0.0
 49
0.0
140
0.0
141
0.0
142
1.0
143
1.0
 70
   688
 72
     0
 73
     0
 74
     5
  7

 75
    16
147
1.0
 76
     0
 77
     2
 78
   300
148
0.0
149
0.0
100
AcDbLayout
  1
Sheet1
 70
     1
 71
     1
 10
0.0
 20
0.0
 11
12.0
 21
9.0
 12
0.0
 22
0.0
 32
0.0
 14
0.0
 24
0.0
 34
0.0
 15
0.0
 25
0.0
 35
0.0
146
0.0
 13
0.0
 23
0.0
 33
0.0
 16
1.0
 26
0.0
 36
0.0
 17
0.0
 27
1.0
 37
0.0
 76
     0
330
6C
  0
LAYOUT
  5
77
102
{ACAD_REACTORS
330
62
102
}
330
62
100
AcDbPlotSettings
  1

  2
None
  4

  6

 40
0.0
 41
0.0
 42
0.0
 43
0.0
 44
0.0
 45
0.0
 46
0.0
 47
0.0
 48
0.0
 49
0.0
140
0.0
141
0.0
142
1.0
143
1.0
 70
   688
 72
     0
 73
     0
 74
     5
  7

 75
    16
147
1.0
 76
     0
 77
     2
 78
   300
148
0.0
149
0.0
100
AcDbLayout
  1
Sheet2
 70
     1
 71
     2
 10
0.0
 20
0.0
 11
12.0
 21
9.0
 12
0.0
 22
0.0
 32
0.0
 14
0.0
 24
0.0
 34
0.0
 15
0.0
 25
0.0
 35
0.0
146
0.0
 13
0.0
 23
0.0
 33
0.0
 16
1.0
 26
0.0
 36
0.0
 17
0.0
 27
1.0
 37
0.0
 76
     0
330
74
  0
MATERIAL
  5
19
102
{ACAD_XDICTIONARY
360
1A
102
}
102
{ACAD_REACTORS
330
10
102
}
330
10
100
AcDbMaterial
  1
ByBlock
 72
     0
 43
0.020833
 43
0.0
 43
0.0
 43
0.0
 43
0.0
 43
0.020833
 43
0.0
 43
0.0
 43
0.0
 43
0.0
 43
1.0
 43
0.0
 43
0.0
 43
0.0
 43
0.0
 43
1.0
 77
     0
 47
0.020833
 47
0.0
 47
0.0
 47
0.0
 47
0.0
 47
0.020833
 47
0.0
 47
0.0
 47
0.0
 47
0.0
 47
1.0
 47
0.0
 47
0.0
 47
0.0
 47
0.0
 47
1.0
171
     0
 49
0.020833
 49
0.0
 49
0.0
 49
0.0
 49
0.0
 49
0.020833
 49
0.0
 49
0.0
 49
0.0
 49
0.0
 49
1.0
 49
0.0
 49
0.0
 49
0.0
 49
0.0
 49
1.0
175
     0
142
0.020833
142
0.0
142
0.0
142
0.0
142
0.0
142
0.020833
142
0.0
142
0.0
142
0.0
142
0.0
142
1.0
142
0.0
142
0.0
142
0.0
142
0.0
142
1.0
179
     0
144
0.020833
144
0.0
144
0.0
144
0.0
144
0.0
144
0.020833
144
0.0
144
0.0
144
0.0
144
0.0
144
1.0
144
0.0
144
0.0
144
0.0
144
0.0
144
1.0
147
0.020833
147
0.0
147
0.0
147
0.0
147
0.0
147
0.020833
147
0.0
147
0.0
147
0.0
147
0.0
147
1.0
147
0.0
147
0.0
147
0.0
147
0.0
147
1.0
  0
MATERIAL
  5
11
102
{ACAD_XDICTIONARY
360
12
102
}
102
{ACAD_REACTORS
330
10
102
}
330
10
100
AcDbMaterial
  1
ByLayer
 72
     0
 43
0.020833
 43
0.0
 43
0.0
 43
0.0
 43
0.0
 43
0.020833
 43
0.0
 43
0.0
 43
0.0
 43
0.0
 43
1.0
 43
0.0
 43
0.0
 43
0.0
 43
0.0
 43
1.0
 77
     0
 47
0.020833
 47
0.0
 47
0.0
 47
0.0
 47
0.0
 47
0.020833
 47
0.0
 47
0.0
 47
0.0
 47
0.0
 47
1.0
 47
0.0
 47
0.0
 47
0.0
 47
0.0
 47
1.0
171
     0
 49
0.020833
 49
0.0
 49
0.0
 49
0.0
 49
0.0
 49
0.020833
 49
0.0
 49
0.0
 49
0.0
 49
0.0
 49
1.0
 49
0.0
 49
0.0
 49
0.0
 49
0.0
 49
1.0
175
     0
142
0.020833
142
0.0
142
0.0
142
0.0
142
0.0
142
0.020833
142
0.0
142
0.0
142
0.0
142
0.0
142
1.0
142
0.0
142
0.0
142
0.0
142
0.0
142
1.0
179
     0
144
0.020833
144
0.0
144
0.0
144
0.0
144
0.0
144
0.020833
144
0.0
144
0.0
144
0.0
144
0.0
144
1.0
144
0.0
144
0.0
144
0.0
144
0.0
144
1.0
147
0.020833
147
0.0
147
0.0
147
0.0
147
0.0
147
0.020833
147
0.0
147
0.0
147
0.0
147
0.0
147
1.0
147
0.0
147
0.0
147
0.0
147
0.0
147
1.0
  0
MATERIAL
  5
21
102
{ACAD_XDICTIONARY
360
22
102
}
102
{ACAD_REACTORS
330
10
102
}
330
10
100
AcDbMaterial
  1
Global
 72
     0
 43
0.020833
 43
0.0
 43
0.0
 43
0.0
 43
0.0
 43
0.020833
 43
0.0
 43
0.0
 43
0.0
 43
0.0
 43
1.0
 43
0.0
 43
0.0
 43
0.0
 43
0.0
 43
1.0
 77
     0
 47
0.020833
 47
0.0
 47
0.0
 47
0.0
 47
0.0
 47
0.020833
 47
0.0
 47
0.0
 47
0.0
 47
0.0
 47
1.0
 47
0.0
 47
0.0
 47
0.0
 47
0.0
 47
1.0
171
     0
 49
0.020833
 49
0.0
 49
0.0
 49
0.0
 49
0.0
 49
0.020833
 49
0.0
 49
0.0
 49
0.0
 49
0.0
 49
1.0
 49
0.0
 49
0.0
 49
0.0
 49
0.0
 49
1.0
175
     0
142
0.020833
142
0.0
142
0.0
142
0.0
142
0.0
142
0.020833
142
0.0
142
0.0
142
0.0
142
0.0
142
1.0
142
0.0
142
0.0
142
0.0
142
0.0
142
1.0
179
     0
144
0.020833
144
0.0
144
0.0
144
0.0
144
0.0
144
0.020833
144
0.0
144
0.0
144
0.0
144
0.0
144
1.0
144
0.0
144
0.0
144
0.0
144
0.0
144
1.0
147
0.020833
147
0.0
147
0.0
147
0.0
147
0.0
147
0.020833
147
0.0
147
0.0
147
0.0
147
0.0
147
1.0
147
0.0
147
0.0
147
0.0
147
0.0
147
1.0
  0
MLEADERSTYLE
  5
67
102
{ACAD_REACTORS
330
66
102
}
330
66
100
AcDbMLeaderStyle
179
     2
170
     2
171
     1
172
     0
 90
        2
 40
0.0
 41
0.0
173
     1
 91
-1056964608
340
5B
 92
       -2
290
     1
 42
0.09
291
     1
 43
0.36
  3
Standard
 44
0.18
300

342
55
174
     1
178
     6
175
     1
176
     0
 93
-1056964608
 45
0.18
292
     0
297
     0
 46
0.18
 94
-1056964608
 47
1.0
 49
1.0
140
1.0
293
     1
141
0.0
294
     1
177
     0
142
1.0
295
     0
296
     0
143
0.125
271
     0
272
     9
273
     9
298
     1
  0
MLINESTYLE
  5
60
102
{ACAD_REACTORS
330
5F
102
}
330
5F
100
AcDbMlineStyle
  2
STANDARD
 70
     0
  3

 62
   256
 51
90.0
 52
90.0
 71
     0
  0
ACDBPLACEHOLDER
  5
F
102
{ACAD_REACTORS
330
E
102
}
330
E
  0
SCALE
  5
A2
102
{ACAD_REACTORS
330
42
102
}
330
42
100
AcDbScale
 70
     0
300
1:2
140
1.0
141
2.0
290
     0
  0
SCALE
  5
AB
102
{ACAD_REACTORS
330
42
102
}
330
42
100
AcDbScale
 70
     0
300
1:50
140
1.0
141
50.0
290
     0
  0
SCALE
  5
AC
102
{ACAD_REACTORS
330
42
102
}
330
42
100
AcDbScale
 70
     0
300
1:100
140
1.0
141
100.0
290
     0
  0
SCALE
  5
AD
102
{ACAD_REACTORS
330
42
102
}
330
42
100
AcDbScale
 70
     0
300
2:1
140
2.0
141
1.0
290
     0
  0
SCALE
  5
AE
102
{ACAD_REACTORS
330
42
102
}
330
42
100
AcDbScale
 70
     0
300
4:1
140
4.0
141
1.0
290
     0
  0
SCALE
  5
AF
102
{ACAD_REACTORS
330
42
102
}
330
42
100
AcDbScale
 70
     0
300
8:1
140
8.0
141
1.0
290
     0
  0
SCALE
  5
B0
102
{ACAD_REACTORS
330
42
102
}
330
42
100
AcDbScale
 70
     0
300
10:1
140
10.0
141
1.0
290
     0
  0
SCALE
  5
B1
102
{ACAD_REACTORS
330
42
102
}
330
42
100
AcDbScale
 70
     0
300
100:1
140
100.0
141
1.0
290
     0
  0
SCALE
  5
A3
102
{ACAD_REACTORS
330
42
102
}
330
42
100
AcDbScale
 70
     0
300
1:4
140
1.0
141
4.0
290
     0
  0
SCALE
  5
A4
102
{ACAD_REACTORS
330
42
102
}
330
42
100
AcDbScale
 70
     0
300
1:5
140
1.0
141
5.0
290
     0
  0
SCALE
  5
A5
102
{ACAD_REACTORS
330
42
102
}
330
42
100
AcDbScale
 70
     0
300
1:8
140
1.0
141
8.0
290
     0
  0
SCALE
  5
A6
102
{ACAD_REACTORS
330
42
102
}
330
42
100
AcDbScale
 70
     0
300
1:10
140
1.0
141
10.0
290
     0
  0
SCALE
  5
A7
102
{ACAD_REACTORS
330
42
102
}
330
42
100
AcDbScale
 70
     0
300
1:16
140
1.0
141
16.0
290
     0
  0
SCALE
  5
A8
102
{ACAD_REACTORS
330
42
102
}
330
42
100
AcDbScale
 70
     0
300
1:20
140
1.0
141
20.0
290
     0
  0
SCALE
  5
A9
102
{ACAD_REACTORS
330
42
102
}
330
42
100
AcDbScale
 70
     0
300
1:30
140
1.0
141
30.0
290
     0
  0
SCALE
  5
AA
102
{ACAD_REACTORS
330
42
102
}
330
42
100
AcDbScale
 70
     0
300
1:40
140
1.0
141
40.0
290
     0
  0
SCALE
  5
43
102
{ACAD_REACTORS
330
42
102
}
330
42
100
AcDbScale
 70
     0
300
1:1
140
1.0
141
1.0
290
     1
  0
SCALE
  5
44
102
{ACAD_REACTORS
330
42
102
}
330
42
100
AcDbScale
 70
     0
300
1/128" = 1'-0"
140
0.007813
141
12.0
290
     0
  0
SCALE
  5
45
102
{ACAD_REACTORS
330
42
102
}
330
42
100
AcDbScale
 70
     0
300
1/64" = 1'-0"
140
0.015625
141
12.0
290
     0
  0
SCALE
  5
46
102
{ACAD_REACTORS
330
42
102
}
330
42
100
AcDbScale
 70
     0
300
1/32" = 1'-0"
140
0.03125
141
12.0
290
     0
  0
SCALE
  5
47
102
{ACAD_REACTORS
330
42
102
}
330
42
100
AcDbScale
 70
     0
300
1/16" = 1'-0"
140
0.0625
141
12.0
290
     0
  0
SCALE
  5
48
102
{ACAD_REACTORS
330
42
102
}
330
42
100
AcDbScale
 70
     0
300
3/32" = 1'-0"
140
0.09375
141
12.0
290
     0
  0
SCALE
  5
49
102
{ACAD_REACTORS
330
42
102
}
330
42
100
AcDbScale
 70
     0
300
1/8" = 1'-0"
140
0.125
141
12.0
290
     0
  0
SCALE
  5
4A
102
{ACAD_REACTORS
330
42
102
}
330
42
100
AcDbScale
 70
     0
300
3/16" = 1'-0"
140
0.1875
141
12.0
290
     0
  0
SCALE
  5
4B
102
{ACAD_REACTORS
330
42
102
}
330
42
100
AcDbScale
 70
     0
300
1/4" = 1'-0"
140
0.25
141
12.0
290
     0
  0
SCALE
  5
4C
102
{ACAD_REACTORS
330
42
102
}
330
42
100
AcDbScale
 70
     0
300
3/8" = 1'-0"
140
0.375
141
12.0
290
     0
  0
SCALE
  5
4D
102
{ACAD_REACTORS
330
42
102
}
330
42
100
AcDbScale
 70
     0
300
1/2" = 1'-0"
140
0.5
141
12.0
290
     0
  0
SCALE
  5
4E
102
{ACAD_REACTORS
330
42
102
}
330
42
100
AcDbScale
 70
     0
300
3/4" = 1'-0"
140
0.75
141
12.0
290
     0
  0
SCALE
  5
4F
102
{ACAD_REACTORS
330
42
102
}
330
42
100
AcDbScale
 70
     0
300
1" = 1'-0"
140
1.0
141
12.0
290
     0
  0
SCALE
  5
50
102
{ACAD_REACTORS
330
42
102
}
330
42
100
AcDbScale
 70
     0
300
1-1/2" = 1'-0"
140
1.5
141
12.0
290
     0
  0
SCALE
  5
51
102
{ACAD_REACTORS
330
42
102
}
330
42
100
AcDbScale
 70
     0
300
3" = 1'-0"
140
3.0
141
12.0
290
     0
  0
SCALE
  5
52
102
{ACAD_REACTORS
330
42
102
}
330
42
100
AcDbScale
 70
     0
300
6" = 1'-0"
140
6.0
141
12.0
290
     0
  0
SCALE
  5
53
102
{ACAD_REACTORS
330
42
102
}
330
42
100
AcDbScale
 70
     0
300
1'-0" = 1'-0"
140
12.0
141
12.0
290
     0
  0
ACDBSECTIONVIEWSTYLE
  5
69
102
{ACAD_XDICTIONARY
360
388
102
}
102
{ACAD_REACTORS
330
68
102
}
330
68
100
AcDbModelDocViewStyle
 70
     0
  3
Imperial24
290
     0
100
AcDbSectionViewStyle
 70
     0
 71
     0
 90
       78
 71
     1
340
55
 62
   256
 40
0.24
340
0
340
0
 62
   256
 40
0.24
300
I, O, Q, S, X, Z
 40
0.48
 90
        3
 40
0.18
 90
        1
 71
     2
340
5D
 90
       25
 62
   256
340
5D
 90
       50
 62
   256
 40
0.24
 40
0.0
 40
0.24
 71
     3
340
55
 62
   256
 40
0.24
 90
        1
 40
0.75
 90
        1
300
%<\AcVar ViewType \f "%tc1">% %<\AcVar ViewSectionStartId>%-%<\AcVar ViewSectionEndId>%\PSCALE %<\AcVar ViewScale \f "%sn">%
 71
     4
 62
   256
 62
   257
300
ANSI31
 40
1.0
 90
        0
290
     0
290
     0
 90
        6
 40
0.0
 40
1.570796
 40
0.261799
 40
1.308997
 40
-0.261799
 40
1.832596
  0
TABLESTYLE
  5
65
102
{ACAD_XDICTIONARY
360
385
102
}
102
{ACAD_REACTORS
330
64
102
}
330
64
100
AcDbTableStyle
280
     0
  3
Standard
 70
     0
 71
     0
 40
0.06
 41
0.06
280
     0
281
     0
  7
Standard
140
0.18
170
     2
 62
     0
 63
     7
283
     0
 90
      512
 91
        0
  1

274
    -2
284
     1
 64
     0
275
    -2
285
     1
 65
     0
276
    -2
286
     1
 66
     0
277
    -2
287
     1
 67
     0
278
    -2
288
     1
 68
     0
279
    -2
289
     1
 69
     0
  7
Standard
140
0.25
170
     5
 62
     0
 63
     7
283
     0
 90
      512
 91
        0
  1

274
    -2
284
     1
 64
     0
275
    -2
285
     1
 65
     0
276
    -2
286
     1
 66
     0
277
    -2
287
     1
 67
     0
278
    -2
288
     1
 68
     0
279
    -2
289
     1
 69
     0
  7
Standard
140
0.18
170
     5
 62
     0
 63
     7
283
     0
 90
      512
 91
        0
  1

274
    -2
284
     1
 64
     0
275
    -2
285
     1
 65
     0
276
    -2
286
     1
 66
     0
277
    -2
287
     1
 67
     0
278
    -2
288
     1
 68
     0
279
    -2
289
     1
 69
     0
  0
VISUALSTYLE
  5
2F
102
{ACAD_REACTORS
330
29
102
}
330
29
100
AcDbVisualStyle
  2
2dWireframe
 70
     4
177
     3
291
     0
 70
    58
 90
        0
176
     1
 90
        2
176
     1
 90
        0
176
     1
 90
        0
176
     1
 40
0.6
176
     1
 40
30.0
176
     1
 62
     7
420
 16777215
176
     1
 90
        1
176
     1
 90
        4
176
     1
 62
     7
176
     1
 62
   257
176
     1
 90
        1
176
     1
 90
        1
176
     1
 40
1.0
176
     1
 90
        0
176
     1
 62
   257
176
     1
 40
1.0
176
     1
 90
        1
176
     1
 90
        6
176
     1
 90
        2
176
     1
 62
     7
176
     1
 90
        5
176
     1
 90
        0
176
     1
 90
        0
176
     1
290
     0
176
     1
 90
        1
176
     1
 40
0.0
176
     1
 90
        0
176
     1
290
     1
176
     1
290
     1
176
     1
290
     0
176
     1
290
     0
176
     1
290
     0
176
     1
290
     0
176
     1
290
     0
176
     1
290
     0
176
     1
290
     0
176
     1
 90
       50
176
     1
 40
0.0
176
     1
 40
1.0
176
     1
 90
        0
176
     1
 62
    18
420
        0
176
     1
 90
       50
176
     1
 90
        3
176
     1
 62
     5
420
      255
176
     1
290
     0
176
     1
 90
       50
176
     1
 90
       50
176
     1
 90
       50
176
     1
290
     0
176
     1
 90
       50
176
     1
 62
   256
176
     0
 40
1.0
176
     0
 90
        2
176
     1
  1
strokes_ogs.tif
176
     1
290
     0
176
     1
 40
1.0
176
     1
 40
1.0
176
     1
1001
ACAD
1000
AcDbSavedByObjectVersion
1070
     0
  0
VISUALSTYLE
  5
2E
102
{ACAD_REACTORS
330
29
102
}
330
29
100
AcDbVisualStyle
  2
Basic
 70
     7
177
     3
291
     1
 70
    58
 90
        1
176
     1
 90
        0
176
     1
 90
        1
176
     1
 90
        0
176
     1
 40
0.6
176
     1
 40
30.0
176
     1
 62
     7
420
 16777215
176
     1
 90
        0
176
     1
 90
        4
176
     1
 62
     7
176
     1
 62
   257
176
     1
 90
        1
176
     1
 90
        1
176
     1
 40
1.0
176
     1
 90
        8
176
     1
 62
     7
176
     1
 40
1.0
176
     1
 90
        1
176
     1
 90
        6
176
     1
 90
        2
176
     1
 62
     7
176
     1
 90
        5
176
     1
 90
        0
176
     1
 90
        0
176
     1
290
     0
176
     1
 90
        1
176
     1
 40
0.0
176
     1
 90
        0
176
     1
290
     0
176
     1
290
     1
176
     1
290
     1
176
     1
290
     0
176
     1
290
     0
176
     1
290
     0
176
     1
290
     0
176
     1
290
     0
176
     1
290
     0
176
     1
 90
       50
176
     1
 40
0.0
176
     1
 40
1.0
176
     1
 90
        0
176
     1
 62
    18
420
        0
176
     1
 90
       50
176
     1
 90
        3
176
     1
 62
     5
420
      255
176
     1
290
     0
176
     1
 90
       50
176
     1
 90
       50
176
     1
 90
       50
176
     1
290
     0
176
     1
 90
       50
176
     1
 62
   256
176
     0
 40
1.0
176
     0
 90
        2
176
     1
  1
strokes_ogs.tif
176
     1
290
     0
176
     1
 40
1.0
176
     1
 40
1.0
176
     1
1001
ACAD
1000
AcDbSavedByObjectVersion
1070
     0
  0
VISUALSTYLE
  5
35
102
{ACAD_REACTORS
330
29
102
}
330
29
100
AcDbVisualStyle
  2
Brighten
 70
    12
177
     3
291
     1
 70
    58
 90
        2
176
     1
 90
        2
176
     1
 90
        0
176
     1
 90
        0
176
     1
 40
0.6
176
     1
 40
30.0
176
     1
 62
     7
420
 16777215
176
     1
 90
        1
176
     1
 90
        4
176
     1
 62
     7
176
     1
 62
   257
176
     1
 90
        1
176
     1
 90
        1
176
     1
 40
1.0
176
     1
 90
        8
176
     1
 62
     7
176
     1
 40
1.0
176
     1
 90
        1
176
     1
 90
        6
176
     1
 90
        2
176
     1
 62
     7
176
     1
 90
        5
176
     1
 90
        0
176
     1
 90
        0
176
     1
290
     0
176
     1
 90
        1
176
     1
 40
50.0
176
     1
 90
        0
176
     1
290
     0
176
     1
290
     1
176
     1
290
     1
176
     1
290
     0
176
     1
290
     0
176
     1
290
     0
176
     1
290
     0
176
     1
290
     0
176
     1
290
     0
176
     1
 90
       50
176
     1
 40
0.0
176
     1
 40
1.0
176
     1
 90
        0
176
     1
 62
    18
420
        0
176
     1
 90
       50
176
     1
 90
        3
176
     1
 62
     5
420
      255
176
     1
290
     0
176
     1
 90
       50
176
     1
 90
       50
176
     1
 90
       50
176
     1
290
     0
176
     1
 90
       50
176
     1
 62
   256
176
     0
 40
1.0
176
     0
 90
        2
176
     1
  1
strokes_ogs.tif
176
     1
290
     0
176
     1
 40
1.0
176
     1
 40
1.0
176
     1
1001
ACAD
1000
AcDbSavedByObjectVersion
1070
     0
  0
VISUALSTYLE
  5
39
102
{ACAD_REACTORS
330
29
102
}
330
29
100
AcDbVisualStyle
  2
ColorChange
 70
    16
177
     3
291
     1
 70
    58
 90
        2
176
     1
 90
        2
176
     1
 90
        3
176
     1
 90
        0
176
     1
 40
0.6
176
     1
 40
30.0
176
     1
 62
     8
420
  8421504
176
     1
 90
        1
176
     1
 90
        4
176
     1
 62
     7
176
     1
 62
   257
176
     1
 90
        1
176
     1
 90
        1
176
     1
 40
1.0
176
     1
 90
        8
176
     1
 62
     8
420
  8421504
176
     1
 40
1.0
176
     1
 90
        1
176
     1
 90
        6
176
     1
 90
        2
176
     1
 62
     7
176
     1
 90
        5
176
     1
 90
        0
176
     1
 90
        0
176
     1
290
     0
176
     1
 90
        1
176
     1
 40
0.0
176
     1
 90
        0
176
     1
290
     0
176
     1
290
     1
176
     1
290
     1
176
     1
290
     0
176
     1
290
     0
176
     1
290
     0
176
     1
290
     0
176
     1
290
     0
176
     1
290
     0
176
     1
 90
       50
176
     1
 40
0.0
176
     1
 40
1.0
176
     1
 90
        0
176
     1
 62
    18
420
        0
176
     1
 90
       50
176
     1
 90
        3
176
     1
 62
     5
420
      255
176
     1
290
     0
176
     1
 90
       50
176
     1
 90
       50
176
     1
 90
       50
176
     1
290
     0
176
     1
 90
       50
176
     1
 62
   256
176
     0
 40
1.0
176
     0
 90
        2
176
     1
  1
strokes_ogs.tif
176
     1
290
     0
176
     1
 40
1.0
176
     1
 40
1.0
176
     1
1001
ACAD
1000
AcDbSavedByObjectVersion
1070
     0
  0
VISUALSTYLE
  5
32
102
{ACAD_REACTORS
330
29
102
}
330
29
100
AcDbVisualStyle
  2
Conceptual
 70
     9
177
     3
291
     0
 70
    58
 90
        3
176
     1
 90
        2
176
     1
 90
        0
176
     1
 90
        0
176
     1
 40
0.6
176
     1
 40
30.0
176
     1
 62
     7
420
 16777215
176
     1
 90
        2
176
     1
 90
        2
176
     1
 62
     7
176
     1
 62
   257
176
     1
 90
        1
176
     1
 90
        1
176
     1
 40
179.0
176
     1
 90
        8
176
     1
 62
     7
176
     1
 40
1.0
176
     1
 90
        1
176
     1
 90
        6
176
     1
 90
        2
176
     1
 62
     7
176
     1
 90
        3
176
     1
 90
        0
176
     1
 90
        0
176
     1
290
     0
176
     1
 90
        1
176
     1
 40
0.0
176
     1
 90
        0
176
     1
290
     0
176
     1
290
     1
176
     1
290
     1
176
     1
290
     0
176
     1
290
     0
176
     1
290
     0
176
     1
290
     0
176
     1
290
     0
176
     1
290
     0
176
     1
 90
       50
176
     1
 40
0.0
176
     1
 40
1.0
176
     1
 90
        0
176
     1
 62
    18
420
        0
176
     1
 90
       50
176
     1
 90
        3
176
     1
 62
     5
420
      255
176
     1
290
     0
176
     1
 90
       50
176
     1
 90
       50
176
     1
 90
       50
176
     1
290
     0
176
     1
 90
       50
176
     1
 62
   256
176
     0
 40
1.0
176
     0
 90
        2
176
     1
  1
strokes_ogs.tif
176
     1
290
     0
176
     1
 40
1.0
176
     1
 40
1.0
176
     1
1001
ACAD
1000
AcDbSavedByObjectVersion
1070
     0
  0
VISUALSTYLE
  5
34
102
{ACAD_REACTORS
330
29
102
}
330
29
100
AcDbVisualStyle
  2
Dim
 70
    11
177
     3
291
     1
 70
    58
 90
        2
176
     1
 90
        2
176
     1
 90
        0
176
     1
 90
        0
176
     1
 40
0.6
176
     1
 40
30.0
176
     1
 62
     7
420
 16777215
176
     1
 90
        1
176
     1
 90
        4
176
     1
 62
     7
176
     1
 62
   257
176
     1
 90
        1
176
     1
 90
        1
176
     1
 40
1.0
176
     1
 90
        8
176
     1
 62
     7
176
     1
 40
1.0
176
     1
 90
        1
176
     1
 90
        6
176
     1
 90
        2
176
     1
 62
     7
176
     1
 90
        5
176
     1
 90
        0
176
     1
 90
        0
176
     1
290
     0
176
     1
 90
        1
176
     1
 40
-50.0
176
     1
 90
        0
176
     1
290
     0
176
     1
290
     1
176
     1
290
     1
176
     1
290
     0
176
     1
290
     0
176
     1
290
     0
176
     1
290
     0
176
     1
290
     0
176
     1
290
     0
176
     1
 90
       50
176
     1
 40
0.0
176
     1
 40
1.0
176
     1
 90
        0
176
     1
 62
    18
420
        0
176
     1
 90
       50
176
     1
 90
        3
176
     1
 62
     5
420
      255
176
     1
290
     0
176
     1
 90
       50
176
     1
 90
       50
176
     1
 90
       50
176
     1
290
     0
176
     1
 90
       50
176
     1
 62
   256
176
     0
 40
1.0
176
     0
 90
        2
176
     1
  1
strokes_ogs.tif
176
     1
290
     0
176
     1
 40
1.0
176
     1
 40
1.0
176
     1
1001
ACAD
1000
AcDbSavedByObjectVersion
1070
     0
  0
VISUALSTYLE
  5
41
102
{ACAD_REACTORS
330
29
102
}
330
29
100
AcDbVisualStyle
  2
EdgeColorOff
 70
    22
177
     3
291
     1
 70
    58
 90
        2
176
     0
 90
        2
176
     0
 90
        0
176
     0
 90
        0
176
     0
 40
0.6
176
     0
 40
30.0
176
     0
 62
     7
420
 16777215
176
     0
 90
        1
176
     0
 90
        4
176
     0
 62
     7
176
     0
 62
   257
176
     0
 90
        1
176
     0
 90
        1
176
     0
 40
1.0
176
     0
 90
        8
176
     2
 62
     7
176
     0
 40
1.0
176
     0
 90
        1
176
     0
 90
        6
176
     0
 90
        2
176
     0
 62
     7
176
     0
 90
        5
176
     0
 90
        0
176
     0
 90
        0
176
     0
290
     0
176
     0
 90
        1
176
     0
 40
0.0
176
     0
 90
        0
176
     0
290
     0
176
     0
290
     1
176
     0
290
     1
176
     0
290
     0
176
     0
290
     0
176
     0
290
     0
176
     0
290
     0
176
     0
290
     0
176
     0
290
     0
176
     0
 90
       50
176
     0
 40
0.0
176
     0
 40
1.0
176
     0
 90
        0
176
     0
 62
    18
420
        0
176
     0
 90
       50
176
     0
 90
        3
176
     0
 62
     5
420
      255
176
     0
290
     0
176
     0
 90
       50
176
     0
 90
       50
176
     0
 90
       50
176
     0
290
     0
176
     0
 90
       50
176
     0
 62
   256
176
     0
 40
1.0
176
     0
 90
        2
176
     0
  1
strokes_ogs.tif
176
     0
290
     0
176
     0
 40
1.0
176
     0
 40
1.0
176
     0
1001
ACAD
1000
AcDbSavedByObjectVersion
1070
     0
  0
VISUALSTYLE
  5
38
102
{ACAD_REACTORS
330
29
102
}
330
29
100
AcDbVisualStyle
  2
Facepattern
 70
    15
177
     3
291
     1
 70
    58
 90
        2
176
     1
 90
        2
176
     1
 90
        0
176
     1
 90
        0
176
     1
 40
0.6
176
     1
 40
30.0
176
     1
 62
     7
420
 16777215
176
     1
 90
        1
176
     1
 90
        4
176
     1
 62
     7
176
     1
 62
   257
176
     1
 90
        1
176
     1
 90
        1
176
     1
 40
1.0
176
     1
 90
        8
176
     1
 62
     7
176
     1
 40
1.0
176
     1
 90
        1
176
     1
 90
        6
176
     1
 90
        2
176
     1
 62
     7
176
     1
 90
        5
176
     1
 90
        0
176
     1
 90
        0
176
     1
290
     0
176
     1
 90
        1
176
     1
 40
0.0
176
     1
 90
        0
176
     1
290
     0
176
     1
290
     1
176
     1
290
     1
176
     1
290
     0
176
     1
290
     0
176
     1
290
     0
176
     1
290
     0
176
     1
290
     0
176
     1
290
     0
176
     1
 90
       50
176
     1
 40
0.0
176
     1
 40
1.0
176
     1
 90
        0
176
     1
 62
    18
420
        0
176
     1
 90
       50
176
     1
 90
        3
176
     1
 62
     5
420
      255
176
     1
290
     0
176
     1
 90
       50
176
     1
 90
       50
176
     1
 90
       50
176
     1
290
     0
176
     1
 90
       50
176
     1
 62
   256
176
     0
 40
1.0
176
     0
 90
        2
176
     1
  1
strokes_ogs.tif
176
     1
290
     0
176
     1
 40
1.0
176
     1
 40
1.0
176
     1
1001
ACAD
1000
AcDbSavedByObjectVersion
1070
     0
  0
VISUALSTYLE
  5
2A
102
{ACAD_REACTORS
330
29
102
}
330
29
100
AcDbVisualStyle
  2
Flat
 70
     0
177
     3
291
     1
 70
    58
 90
        2
176
     1
 90
        1
176
     1
 90
        1
176
     1
 90
        2
176
     1
 40
0.6
176
     1
 40
30.0
176
     1
 62
     7
420
 16777215
176
     1
 90
        0
176
     1
 90
        0
176
     1
 62
     7
176
     1
 62
   257
176
     1
 90
        1
176
     1
 90
        1
176
     1
 40
1.0
176
     1
 90
        8
176
     1
 62
     7
176
     1
 40
1.0
176
     1
 90
        1
176
     1
 90
        6
176
     1
 90
        2
176
     1
 62
     7
176
     1
 90
        5
176
     1
 90
        0
176
     1
 90
        0
176
     1
290
     0
176
     1
 90
       13
176
     1
 40
0.0
176
     1
 90
        0
176
     1
290
     0
176
     1
290
     1
176
     1
290
     1
176
     1
290
     0
176
     1
290
     0
176
     1
290
     0
176
     1
290
     0
176
     1
290
     0
176
     1
290
     0
176
     1
 90
       50
176
     1
 40
0.0
176
     1
 40
1.0
176
     1
 90
        0
176
     1
 62
    18
420
        0
176
     1
 90
       50
176
     1
 90
        3
176
     1
 62
     5
420
      255
176
     1
290
     0
176
     1
 90
       50
176
     1
 90
       50
176
     1
 90
       50
176
     1
290
     0
176
     1
 90
       50
176
     1
 62
   256
176
     0
 40
1.0
176
     0
 90
        2
176
     1
  1
strokes_ogs.tif
176
     1
290
     0
176
     1
 40
1.0
176
     1
 40
1.0
176
     1
1001
ACAD
1000
AcDbSavedByObjectVersion
1070
     0
  0
VISUALSTYLE
  5
2B
102
{ACAD_REACTORS
330
29
102
}
330
29
100
AcDbVisualStyle
  2
FlatWithEdges
 70
     1
177
     3
291
     1
 70
    58
 90
        2
176
     1
 90
        1
176
     1
 90
        1
176
     1
 90
        2
176
     1
 40
0.6
176
     1
 40
30.0
176
     1
 62
     7
420
 16777215
176
     1
 90
        1
176
     1
 90
        0
176
     1
 62
     7
176
     1
 62
   257
176
     1
 90
        1
176
     1
 90
        1
176
     1
 40
1.0
176
     1
 90
        0
176
     1
 62
   257
176
     1
 40
1.0
176
     1
 90
        1
176
     1
 90
        6
176
     1
 90
        2
176
     1
 62
     7
176
     1
 90
        5
176
     1
 90
        0
176
     1
 90
        0
176
     1
290
     0
176
     1
 90
       13
176
     1
 40
0.0
176
     1
 90
        0
176
     1
290
     0
176
     1
290
     1
176
     1
290
     1
176
     1
290
     0
176
     1
290
     0
176
     1
290
     0
176
     1
290
     0
176
     1
290
     0
176
     1
290
     0
176
     1
 90
       50
176
     1
 40
0.0
176
     1
 40
1.0
176
     1
 90
        0
176
     1
 62
    18
420
        0
176
     1
 90
       50
176
     1
 90
        3
176
     1
 62
     5
420
      255
176
     1
290
     0
176
     1
 90
       50
176
     1
 90
       50
176
     1
 90
       50
176
     1
290
     0
176
     1
 90
       50
176
     1
 62
   256
176
     0
 40
1.0
176
     0
 90
        2
176
     1
  1
strokes_ogs.tif
176
     1
290
     0
176
     1
 40
1.0
176
     1
 40
1.0
176
     1
1001
ACAD
1000
AcDbSavedByObjectVersion
1070
     0
  0
VISUALSTYLE
  5
2C
102
{ACAD_REACTORS
330
29
102
}
330
29
100
AcDbVisualStyle
  2
Gouraud
 70
     2
177
     3
291
     1
 70
    58
 90
        2
176
     1
 90
        2
176
     1
 90
        1
176
     1
 90
        2
176
     1
 40
0.6
176
     1
 40
30.0
176
     1
 62
     7
420
 16777215
176
     1
 90
        0
176
     1
 90
        0
176
     1
 62
     7
176
     1
 62
   257
176
     1
 90
        1
176
     1
 90
        1
176
     1
 40
1.0
176
     1
 90
        0
176
     1
 62
     7
176
     1
 40
1.0
176
     1
 90
        1
176
     1
 90
        6
176
     1
 90
        2
176
     1
 62
     7
176
     1
 90
        5
176
     1
 90
        0
176
     1
 90
        0
176
     1
290
     0
176
     1
 90
       13
176
     1
 40
0.0
176
     1
 90
        0
176
     1
290
     0
176
     1
290
     1
176
     1
290
     1
176
     1
290
     0
176
     1
290
     0
176
     1
290
     0
176
     1
290
     0
176
     1
290
     0
176
     1
290
     0
176
     1
 90
       50
176
     1
 40
0.0
176
     1
 40
1.0
176
     1
 90
        0
176
     1
 62
    18
420
        0
176
     1
 90
       50
176
     1
 90
        3
176
     1
 62
     5
420
      255
176
     1
290
     0
176
     1
 90
       50
176
     1
 90
       50
176
     1
 90
       50
176
     1
290
     0
176
     1
 90
       50
176
     1
 62
   256
176
     0
 40
1.0
176
     0
 90
        2
176
     1
  1
strokes_ogs.tif
176
     1
290
     0
176
     1
 40
1.0
176
     1
 40
1.0
176
     1
1001
ACAD
1000
AcDbSavedByObjectVersion
1070
     0
  0
VISUALSTYLE
  5
2D
102
{ACAD_REACTORS
330
29
102
}
330
29
100
AcDbVisualStyle
  2
GouraudWithEdges
 70
     3
177
     3
291
     1
 70
    58
 90
        2
176
     1
 90
        2
176
     1
 90
        1
176
     1
 90
        2
176
     1
 40
0.6
176
     1
 40
30.0
176
     1
 62
     7
420
 16777215
176
     1
 90
        1
176
     1
 90
        0
176
     1
 62
     7
176
     1
 62
   257
176
     1
 90
        1
176
     1
 90
        1
176
     1
 40
1.0
176
     1
 90
        0
176
     1
 62
   257
176
     1
 40
1.0
176
     1
 90
        1
176
     1
 90
        6
176
     1
 90
        2
176
     1
 62
     7
176
     1
 90
        5
176
     1
 90
        0
176
     1
 90
        0
176
     1
290
     0
176
     1
 90
       13
176
     1
 40
0.0
176
     1
 90
        0
176
     1
290
     0
176
     1
290
     1
176
     1
290
     1
176
     1
290
     0
176
     1
290
     0
176
     1
290
     0
176
     1
290
     0
176
     1
290
     0
176
     1
290
     0
176
     1
 90
       50
176
     1
 40
0.0
176
     1
 40
1.0
176
     1
 90
        0
176
     1
 62
    18
420
        0
176
     1
 90
       50
176
     1
 90
        3
176
     1
 62
     5
420
      255
176
     1
290
     0
176
     1
 90
       50
176
     1
 90
       50
176
     1
 90
       50
176
     1
290
     0
176
     1
 90
       50
176
     1
 62
   256
176
     0
 40
1.0
176
     0
 90
        2
176
     1
  1
strokes_ogs.tif
176
     1
290
     0
176
     1
 40
1.0
176
     1
 40
1.0
176
     1
1001
ACAD
1000
AcDbSavedByObjectVersion
1070
     0
  0
VISUALSTYLE
  5
31
102
{ACAD_REACTORS
330
29
102
}
330
29
100
AcDbVisualStyle
  2
Hidden
 70
     6
177
     3
291
     0
 70
    58
 90
        1
176
     1
 90
        2
176
     1
 90
        2
176
     1
 90
        0
176
     1
 40
0.6
176
     1
 40
30.0
176
     1
 62
     7
420
 16777215
176
     1
 90
        2
176
     1
 90
        2
176
     1
 62
     7
176
     1
 62
   257
176
     1
 90
        2
176
     1
 90
        1
176
     1
 40
40.0
176
     1
 90
        0
176
     1
 62
   257
176
     1
 40
1.0
176
     1
 90
        1
176
     1
 90
        6
176
     1
 90
        2
176
     1
 62
     7
176
     1
 90
        3
176
     1
 90
        0
176
     1
 90
        0
176
     1
290
     0
176
     1
 90
        1
176
     1
 40
0.0
176
     1
 90
        0
176
     1
290
     0
176
     1
290
     1
176
     1
290
     1
176
     1
290
     0
176
     1
290
     0
176
     1
290
     0
176
     1
290
     0
176
     1
290
     0
176
     1
290
     0
176
     1
 90
       50
176
     1
 40
0.0
176
     1
 40
1.0
176
     1
 90
        0
176
     1
 62
    18
420
        0
176
     1
 90
       50
176
     1
 90
        3
176
     1
 62
     5
420
      255
176
     1
290
     0
176
     1
 90
       50
176
     1
 90
       50
176
     1
 90
       50
176
     1
290
     0
176
     1
 90
       50
176
     1
 62
   256
176
     0
 40
1.0
176
     0
 90
        2
176
     1
  1
strokes_ogs.tif
176
     1
290
     0
176
     1
 40
1.0
176
     1
 40
1.0
176
     1
1001
ACAD
1000
AcDbSavedByObjectVersion
1070
     0
  0
VISUALSTYLE
  5
3F
102
{ACAD_REACTORS
330
29
102
}
330
29
100
AcDbVisualStyle
  2
JitterOff
 70
    20
177
     3
291
     1
 70
    58
 90
        2
176
     0
 90
        2
176
     0
 90
        0
176
     0
 90
        0
176
     0
 40
0.6
176
     0
 40
30.0
176
     0
 62
     7
420
 16777215
176
     0
 90
        1
176
     0
 90
        4
176
     0
 62
     7
176
     0
 62
   257
176
     0
 90
        1
176
     0
 90
        1
176
     0
 40
1.0
176
     0
 90
       10
176
     2
 62
     7
176
     0
 40
1.0
176
     0
 90
        1
176
     0
 90
        6
176
     0
 90
        2
176
     0
 62
     7
176
     0
 90
        5
176
     0
 90
        0
176
     0
 90
        0
176
     0
290
     0
176
     0
 90
        1
176
     0
 40
0.0
176
     0
 90
        0
176
     0
290
     0
176
     0
290
     1
176
     0
290
     1
176
     0
290
     0
176
     0
290
     0
176
     0
290
     0
176
     0
290
     0
176
     0
290
     0
176
     0
290
     0
176
     0
 90
       50
176
     0
 40
0.0
176
     0
 40
1.0
176
     0
 90
        0
176
     0
 62
    18
420
        0
176
     0
 90
       50
176
     0
 90
        3
176
     0
 62
     5
420
      255
176
     0
290
     0
176
     0
 90
       50
176
     0
 90
       50
176
     0
 90
       50
176
     0
290
     0
176
     0
 90
       50
176
     0
 62
   256
176
     0
 40
1.0
176
     0
 90
        2
176
     0
  1
strokes_ogs.tif
176
     0
290
     0
176
     0
 40
1.0
176
     0
 40
1.0
176
     0
1001
ACAD
1000
AcDbSavedByObjectVersion
1070
     0
  0
VISUALSTYLE
  5
37
102
{ACAD_REACTORS
330
29
102
}
330
29
100
AcDbVisualStyle
  2
Linepattern
 70
    14
177
     3
291
     1
 70
    58
 90
        2
176
     1
 90
        2
176
     1
 90
        0
176
     1
 90
        0
176
     1
 40
0.6
176
     1
 40
30.0
176
     1
 62
     7
420
 16777215
176
     1
 90
        1
176
     1
 90
        4
176
     1
 62
     7
176
     1
 62
   257
176
     1
 90
        7
176
     1
 90
        7
176
     1
 40
1.0
176
     1
 90
        8
176
     1
 62
     7
176
     1
 40
1.0
176
     1
 90
        1
176
     1
 90
        6
176
     1
 90
        2
176
     1
 62
     7
176
     1
 90
        5
176
     1
 90
        0
176
     1
 90
        0
176
     1
290
     0
176
     1
 90
        1
176
     1
 40
0.0
176
     1
 90
        0
176
     1
290
     0
176
     1
290
     1
176
     1
290
     1
176
     1
290
     0
176
     1
290
     0
176
     1
290
     0
176
     1
290
     0
176
     1
290
     0
176
     1
290
     0
176
     1
 90
       50
176
     1
 40
0.0
176
     1
 40
1.0
176
     1
 90
        0
176
     1
 62
    18
420
        0
176
     1
 90
       50
176
     1
 90
        3
176
     1
 62
     5
420
      255
176
     1
290
     0
176
     1
 90
       50
176
     1
 90
       50
176
     1
 90
       50
176
     1
290
     0
176
     1
 90
       50
176
     1
 62
   256
176
     0
 40
1.0
176
     0
 90
        2
176
     1
  1
strokes_ogs.tif
176
     1
290
     0
176
     1
 40
1.0
176
     1
 40
1.0
176
     1
1001
ACAD
1000
AcDbSavedByObjectVersion
1070
     0
  0
VISUALSTYLE
  5
40
102
{ACAD_REACTORS
330
29
102
}
330
29
100
AcDbVisualStyle
  2
OverhangOff
 70
    21
177
     3
291
     1
 70
    58
 90
        2
176
     0
 90
        2
176
     0
 90
        0
176
     0
 90
        0
176
     0
 40
0.6
176
     0
 40
30.0
176
     0
 62
     7
420
 16777215
176
     0
 90
        1
176
     0
 90
        4
176
     0
 62
     7
176
     0
 62
   257
176
     0
 90
        1
176
     0
 90
        1
176
     0
 40
1.0
176
     0
 90
        9
176
     2
 62
     7
176
     0
 40
1.0
176
     0
 90
        1
176
     0
 90
        6
176
     0
 90
        2
176
     0
 62
     7
176
     0
 90
        5
176
     0
 90
        0
176
     0
 90
        0
176
     0
290
     0
176
     0
 90
        1
176
     0
 40
0.0
176
     0
 90
        0
176
     0
290
     0
176
     0
290
     1
176
     0
290
     1
176
     0
290
     0
176
     0
290
     0
176
     0
290
     0
176
     0
290
     0
176
     0
290
     0
176
     0
290
     0
176
     0
 90
       50
176
     0
 40
0.0
176
     0
 40
1.0
176
     0
 90
        0
176
     0
 62
    18
420
        0
176
     0
 90
       50
176
     0
 90
        3
176
     0
 62
     5
420
      255
176
     0
290
     0
176
     0
 90
       50
176
     0
 90
       50
176
     0
 90
       50
176
     0
290
     0
176
     0
 90
       50
176
     0
 62
   256
176
     0
 40
1.0
176
     0
 90
        2
176
     0
  1
strokes_ogs.tif
176
     0
290
     0
176
     0
 40
1.0
176
     0
 40
1.0
176
     0
1001
ACAD
1000
AcDbSavedByObjectVersion
1070
     0
  0
VISUALSTYLE
  5
33
102
{ACAD_REACTORS
330
29
102
}
330
29
100
AcDbVisualStyle
  2
Realistic
 70
     8
177
     3
291
     0
 70
    58
 90
        2
176
     1
 90
        3
176
     1
 90
        0
176
     1
 90
        2
176
     1
 40
0.6
176
     1
 40
30.0
176
     1
 62
     7
420
 16777215
176
     1
 90
        0
176
     1
 90
        0
176
     1
 62
     7
176
     1
 62
   257
176
     1
 90
        1
176
     1
 90
        1
176
     1
 40
1.0
176
     1
 90
        8
176
     1
 62
   257
176
     1
 40
1.0
176
     1
 90
        1
176
     1
 90
        6
176
     1
 90
        2
176
     1
 62
     7
176
     1
 90
        3
176
     1
 90
        0
176
     1
 90
        0
176
     1
290
     0
176
     1
 90
       13
176
     1
 40
0.0
176
     1
 90
        0
176
     1
290
     0
176
     1
290
     1
176
     1
290
     1
176
     1
290
     0
176
     1
290
     0
176
     1
290
     0
176
     1
290
     0
176
     1
290
     0
176
     1
290
     0
176
     1
 90
       50
176
     1
 40
0.0
176
     1
 40
1.0
176
     1
 90
        0
176
     1
 62
    18
420
        0
176
     1
 90
       50
176
     1
 90
        3
176
     1
 62
     5
420
      255
176
     1
290
     0
176
     1
 90
       50
176
     1
 90
       50
176
     1
 90
       50
176
     1
290
     0
176
     1
 90
       50
176
     1
 62
   256
176
     0
 40
1.0
176
     0
 90
        2
176
     1
  1
strokes_ogs.tif
176
     1
290
     0
176
     1
 40
1.0
176
     1
 40
1.0
176
     1
1001
ACAD
1000
AcDbSavedByObjectVersion
1070
     0
  0
VISUALSTYLE
  5
3E
102
{ACAD_REACTORS
330
29
102
}
330
29
100
AcDbVisualStyle
  2
Shaded
 70
    27
177
     3
291
     0
 70
    58
 90
        2
176
     1
 90
        2
176
     1
 90
        1
176
     1
 90
        2
176
     1
 40
0.6
176
     1
 40
30.0
176
     1
 62
     7
420
 16777215
176
     1
 90
        0
176
     1
 90
        4
176
     1
 62
     7
176
     1
 62
   257
176
     1
 90
        1
176
     1
 90
        1
176
     1
 40
1.0
176
     1
 90
        8
176
     1
 62
   257
176
     1
 40
1.0
176
     1
 90
        1
176
     1
 90
        6
176
     1
 90
        2
176
     1
 62
     8
420
  7895160
176
     1
 90
        3
176
     1
 90
        0
176
     1
 90
        0
176
     1
290
     0
176
     1
 90
        5
176
     1
 40
0.0
176
     1
 90
        0
176
     1
290
     0
176
     1
290
     1
176
     1
290
     1
176
     1
290
     0
176
     1
290
     0
176
     1
290
     0
176
     1
290
     0
176
     1
290
     0
176
     1
290
     0
176
     1
 90
       50
176
     1
 40
0.0
176
     1
 40
1.0
176
     1
 90
        0
176
     1
 62
    18
420
        0
176
     1
 90
       50
176
     1
 90
        3
176
     1
 62
     5
420
      255
176
     1
290
     0
176
     1
 90
       50
176
     1
 90
       50
176
     1
 90
       50
176
     1
290
     0
176
     1
 90
       50
176
     1
 62
   256
176
     0
 40
1.0
176
     0
 90
        2
176
     1
  1
strokes_ogs.tif
176
     1
290
     0
176
     1
 40
1.0
176
     1
 40
1.0
176
     1
1001
ACAD
1000
AcDbSavedByObjectVersion
1070
     0
  0
VISUALSTYLE
  5
3D
102
{ACAD_REACTORS
330
29
102
}
330
29
100
AcDbVisualStyle
  2
Shaded with edges
 70
    26
177
     3
291
     0
 70
    58
 90
        2
176
     1
 90
        2
176
     1
 90
        1
176
     1
 90
        2
176
     1
 40
0.6
176
     1
 40
30.0
176
     1
 62
     7
420
 16777215
176
     1
 90
        1
176
     1
 90
        2
176
     1
 62
     7
176
     1
 62
   257
176
     1
 90
        2
176
     1
 90
        1
176
     1
 40
1.0
176
     1
 90
        8
176
     1
 62
   257
176
     1
 40
1.0
176
     1
 90
        1
176
     1
 90
        6
176
     1
 90
        2
176
     1
 62
     7
176
     1
 90
        3
176
     1
 90
        0
176
     1
 90
        0
176
     1
290
     0
176
     1
 90
        5
176
     1
 40
0.0
176
     1
 90
        0
176
     1
290
     0
176
     1
290
     1
176
     1
290
     1
176
     1
290
     0
176
     1
290
     0
176
     1
290
     0
176
     1
290
     0
176
     1
290
     0
176
     1
290
     0
176
     1
 90
       50
176
     1
 40
0.0
176
     1
 40
1.0
176
     1
 90
        0
176
     1
 62
    18
420
        0
176
     1
 90
       50
176
     1
 90
        3
176
     1
 62
     5
420
      255
176
     1
290
     0
176
     1
 90
       50
176
     1
 90
       50
176
     1
 90
       50
176
     1
290
     0
176
     1
 90
       50
176
     1
 62
   256
176
     0
 40
1.0
176
     0
 90
        2
176
     1
  1
strokes_ogs.tif
176
     1
290
     0
176
     1
 40
1.0
176
     1
 40
1.0
176
     1
1001
ACAD
1000
AcDbSavedByObjectVersion
1070
     0
  0
VISUALSTYLE
  5
3A
102
{ACAD_REACTORS
330
29
102
}
330
29
100
AcDbVisualStyle
  2
Shades of Gray
 70
    23
177
     3
291
     0
 70
    58
 90
        2
176
     1
 90
        2
176
     1
 90
        3
176
     1
 90
        0
176
     1
 40
0.6
176
     1
 40
30.0
176
     1
 62
     7
420
 16777215
176
     1
 90
        2
176
     1
 90
        2
176
     1
 62
     7
176
     1
 62
     7
176
     1
 90
        1
176
     1
 90
        1
176
     1
 40
40.0
176
     1
 90
        8
176
     1
 62
     7
176
     1
 40
1.0
176
     1
 90
        1
176
     1
 90
        6
176
     1
 90
        2
176
     1
 62
     7
176
     1
 90
        3
176
     1
 90
        0
176
     1
 90
        0
176
     1
290
     0
176
     1
 90
        1
176
     1
 40
0.0
176
     1
 90
        0
176
     1
290
     0
176
     1
290
     1
176
     1
290
     1
176
     1
290
     0
176
     1
290
     0
176
     1
290
     0
176
     1
290
     0
176
     1
290
     0
176
     1
290
     0
176
     1
 90
       50
176
     1
 40
0.0
176
     1
 40
1.0
176
     1
 90
        0
176
     1
 62
    18
420
        0
176
     1
 90
       50
176
     1
 90
        3
176
     1
 62
     5
420
      255
176
     1
290
     0
176
     1
 90
       50
176
     1
 90
       50
176
     1
 90
       50
176
     1
290
     0
176
     1
 90
       50
176
     1
 62
   256
176
     0
 40
1.0
176
     0
 90
        2
176
     1
  1
strokes_ogs.tif
176
     1
290
     0
176
     1
 40
1.0
176
     1
 40
1.0
176
     1
1001
ACAD
1000
AcDbSavedByObjectVersion
1070
     0
  0
VISUALSTYLE
  5
3B
102
{ACAD_REACTORS
330
29
102
}
330
29
100
AcDbVisualStyle
  2
Sketchy
 70
    24
177
     3
291
     0
 70
    58
 90
        1
176
     1
 90
        2
176
     1
 90
        2
176
     1
 90
        0
176
     1
 40
0.6
176
     1
 40
30.0
176
     1
 62
     7
420
 16777215
176
     1
 90
        2
176
     1
 90
        2
176
     1
 62
     7
176
     1
 62
     7
176
     1
 90
        1
176
     1
 90
        1
176
     1
 40
40.0
176
     1
 90
       11
176
     1
 62
     7
176
     1
 40
1.0
176
     1
 90
        1
176
     1
 90
        6
176
     1
 90
        2
176
     1
 62
     7
176
     1
 90
        6
176
     1
 90
        0
176
     1
 90
        0
176
     1
290
     0
176
     1
 90
        1
176
     1
 40
0.0
176
     1
 90
        0
176
     1
290
     0
176
     1
290
     1
176
     1
290
     1
176
     1
290
     0
176
     1
290
     0
176
     1
290
     0
176
     1
290
     0
176
     1
290
     0
176
     1
290
     0
176
     1
 90
       50
176
     1
 40
0.0
176
     1
 40
1.0
176
     1
 90
        0
176
     1
 62
    18
420
        0
176
     1
 90
       50
176
     1
 90
        3
176
     1
 62
     5
420
      255
176
     1
290
     0
176
     1
 90
       50
176
     1
 90
       50
176
     1
 90
       50
176
     1
290
     0
176
     1
 90
       50
176
     1
 62
   256
176
     0
 40
1.0
176
     0
 90
        2
176
     1
  1
strokes_ogs.tif
176
     1
290
     0
176
     1
 40
1.0
176
     1
 40
1.0
176
     1
1001
ACAD
1000
AcDbSavedByObjectVersion
1070
     0
  0
VISUALSTYLE
  5
36
102
{ACAD_REACTORS
330
29
102
}
330
29
100
AcDbVisualStyle
  2
Thicken
 70
    13
177
     3
291
     1
 70
    58
 90
        2
176
     1
 90
        2
176
     1
 90
        0
176
     1
 90
        0
176
     1
 40
0.6
176
     1
 40
30.0
176
     1
 62
     7
420
 16777215
176
     1
 90
        1
176
     1
 90
        4
176
     1
 62
     7
176
     1
 62
   257
176
     1
 90
        1
176
     1
 90
        1
176
     1
 40
1.0
176
     1
 90
       12
176
     1
 62
     7
176
     1
 40
1.0
176
     1
 90
        1
176
     1
 90
        6
176
     1
 90
        2
176
     1
 62
     7
176
     1
 90
        5
176
     1
 90
        0
176
     1
 90
        0
176
     1
290
     0
176
     1
 90
        1
176
     1
 40
0.0
176
     1
 90
        0
176
     1
290
     0
176
     1
290
     1
176
     1
290
     1
176
     1
290
     0
176
     1
290
     0
176
     1
290
     0
176
     1
290
     0
176
     1
290
     0
176
     1
290
     0
176
     1
 90
       50
176
     1
 40
0.0
176
     1
 40
1.0
176
     1
 90
        0
176
     1
 62
    18
420
        0
176
     1
 90
       50
176
     1
 90
        3
176
     1
 62
     5
420
      255
176
     1
290
     0
176
     1
 90
       50
176
     1
 90
       50
176
     1
 90
       50
176
     1
290
     0
176
     1
 90
       50
176
     1
 62
   256
176
     0
 40
1.0
176
     0
 90
        2
176
     1
  1
strokes_ogs.tif
176
     1
290
     0
176
     1
 40
1.0
176
     1
 40
1.0
176
     1
1001
ACAD
1000
AcDbSavedByObjectVersion
1070
     0
  0
VISUALSTYLE
  5
30
102
{ACAD_REACTORS
330
29
102
}
330
29
100
AcDbVisualStyle
  2
Wireframe
 70
     5
177
     3
291
     0
 70
    58
 90
        0
176
     1
 90
        2
176
     1
 90
        0
176
     1
 90
        0
176
     1
 40
0.6
176
     1
 40
30.0
176
     1
 62
     7
420
 16777215
176
     1
 90
        1
176
     1
 90
        4
176
     1
 62
     7
176
     1
 62
   257
176
     1
 90
        1
176
     1
 90
        1
176
     1
 40
1.0
176
     1
 90
        0
176
     1
 62
   257
176
     1
 40
1.0
176
     1
 90
        1
176
     1
 90
        6
176
     1
 90
        2
176
     1
 62
     7
176
     1
 90
        3
176
     1
 90
        0
176
     1
 90
        0
176
     1
290
     0
176
     1
 90
        1
176
     1
 40
0.0
176
     1
 90
        0
176
     1
290
     0
176
     1
290
     1
176
     1
290
     1
176
     1
290
     0
176
     1
290
     0
176
     1
290
     0
176
     1
290
     0
176
     1
290
     0
176
     1
290
     0
176
     1
 90
       50
176
     1
 40
0.0
176
     1
 40
1.0
176
     1
 90
        0
176
     1
 62
    18
420
        0
176
     1
 90
       50
176
     1
 90
        3
176
     1
 62
     5
420
      255
176
     1
290
     0
176
     1
 90
       50
176
     1
 90
       50
176
     1
 90
       50
176
     1
290
     0
176
     1
 90
       50
176
     1
 62
   256
176
     0
 40
1.0
176
     0
 90
        2
176
     1
  1
strokes_ogs.tif
176
     1
290
     0
176
     1
 40
1.0
176
     1
 40
1.0
176
     1
1001
ACAD
1000
AcDbSavedByObjectVersion
1070
     0
  0
VISUALSTYLE
  5
3C
102
{ACAD_REACTORS
330
29
102
}
330
29
100
AcDbVisualStyle
  2
X-Ray
 70
    25
177
     3
291
     0
 70
    58
 90
        2
176
     1
 90
        2
176
     1
 90
        1
176
     1
 90
        1
176
     1
 40
0.5
176
     1
 40
30.0
176
     1
 62
     7
420
 16777215
176
     1
 90
        1
176
     1
 90
        0
176
     1
 62
     7
176
     1
 62
   257
176
     1
 90
        1
176
     1
 90
        1
176
     1
 40
1.0
176
     1
 90
        8
176
     1
 62
     7
176
     1
 40
1.0
176
     1
 90
        1
176
     1
 90
        6
176
     1
 90
        2
176
     1
 62
     7
176
     1
 90
        3
176
     1
 90
        0
176
     1
 90
        0
176
     1
290
     0
176
     1
 90
       13
176
     1
 40
0.0
176
     1
 90
        0
176
     1
290
     0
176
     1
290
     1
176
     1
290
     1
176
     1
290
     0
176
     1
290
     0
176
     1
290
     0
176
     1
290
     0
176
     1
290
     0
176
     1
290
     0
176
     1
 90
       50
176
     1
 40
0.0
176
     1
 40
1.0
176
     1
 90
        0
176
     1
 62
    18
420
        0
176
     1
 90
       50
176
     1
 90
        3
176
     1
 62
     5
420
      255
176
     1
290
     0
176
     1
 90
       50
176
     1
 90
       50
176
     1
 90
       50
176
     1
290
     0
176
     1
 90
       50
176
     1
 62
   256
176
     0
 40
1.0
176
     0
 90
        2
176
     1
  1
strokes_ogs.tif
176
     1
290
     0
176
     1
 40
1.0
176
     1
 40
1.0
176
     1
1001
ACAD
1000
AcDbSavedByObjectVersion
1070
     0
  0
DICTIONARYVAR
  5
383
102
{ACAD_REACTORS
330
37E
102
}
330
37E
100
DictionaryVariables
280
     0
  1
0
  0
DICTIONARYVAR
  5
384
102
{ACAD_REACTORS
330
37E
102
}
330
37E
100
DictionaryVariables
280
     0
  1
1:1
  0
DICTIONARYVAR
  5
380
102
{ACAD_REACTORS
330
37E
102
}
330
37E
100
DictionaryVariables
280
     0
  1
STANDARD
  0
DICTIONARYVAR
  5
37F
102
{ACAD_REACTORS
330
37E
102
}
330
37E
100
DictionaryVariables
280
     0
  1
STANDARD
  0
DICTIONARYVAR
  5
381
102
{ACAD_REACTORS
330
37E
102
}
330
37E
100
DictionaryVariables
280
     0
  1
Imperial24
  0
DICTIONARYVAR
  5
382
102
{ACAD_REACTORS
330
37E
102
}
330
37E
100
DictionaryVariables
280
     0
  1
Imperial24
  0
DICTIONARY
  5
38A
330
6B
100
AcDbDictionary
280
     1
281
     1
  3
ACAD_XREC_ROUNDTRIP
360
38B
  0
DICTIONARY
  5
1A
330
19
100
AcDbDictionary
280
     1
281
     1
  3
BUMPTILE
360
1C
  3
DIFFUSETILE
360
1B
  3
OPACITYTILE
360
1F
  3
REFLECTIONTILE
360
1E
  3
REFRACTIONTILE
360
20
  3
SPECULARTILE
360
1D
  0
DICTIONARY
  5
12
330
11
100
AcDbDictionary
280
     1
281
     1
  3
BUMPTILE
360
14
  3
DIFFUSETILE
360
13
  3
OPACITYTILE
360
17
  3
REFLECTIONTILE
360
16
  3
REFRACTIONTILE
360
18
  3
SPECULARTILE
360
15
  0
DICTIONARY
  5
22
330
21
100
AcDbDictionary
280
     1
281
     1
  3
BUMPTILE
360
24
  3
DIFFUSETILE
360
23
  3
OPACITYTILE
360
27
  3
REFLECTIONTILE
360
26
  3
REFRACTIONTILE
360
28
  3
SPECULARTILE
360
25
  0
DICTIONARY
  5
388
330
69
100
AcDbDictionary
280
     1
281
     1
  3
ACAD_XREC_ROUNDTRIP
360
389
  0
DICTIONARY
  5
385
330
65
100
AcDbDictionary
280
     1
281
     1
  3
ACAD_ROUNDTRIP_2008_TABLESTYLE_CELLSTYLEMAP
360
386
  0
XRECORD
  5
38B
102
{ACAD_REACTORS
330
38A
102
}
330
38A
100
AcDbXrecord
280
     1
102
DISPLAYNAME
  1
Imperial24
102
FLAGS
 90
        0
  0
XRECORD
  5
1C
102
{ACAD_REACTORS
330
1A
102
}
330
1A
100
AcDbXrecord
280
     1
270
     1
271
     1
  0
XRECORD
  5
1B
102
{ACAD_REACTORS
330
1A
102
}
330
1A
100
AcDbXrecord
280
     1
270
     1
271
     1
  0
XRECORD
  5
1F
102
{ACAD_REACTORS
330
1A
102
}
330
1A
100
AcDbXrecord
280
     1
270
     1
271
     1
  0
XRECORD
  5
1E
102
{ACAD_REACTORS
330
1A
102
}
330
1A
100
AcDbXrecord
280
     1
270
     1
271
     1
  0
XRECORD
  5
20
102
{ACAD_REACTORS
330
1A
102
}
330
1A
100
AcDbXrecord
280
     1
270
     1
271
     1
  0
XRECORD
  5
1D
102
{ACAD_REACTORS
330
1A
102
}
330
1A
100
AcDbXrecord
280
     1
270
     1
271
     1
  0
XRECORD
  5
14
102
{ACAD_REACTORS
330
12
102
}
330
12
100
AcDbXrecord
280
     1
270
     1
271
     1
  0
XRECORD
  5
13
102
{ACAD_REACTORS
330
12
102
}
330
12
100
AcDbXrecord
280
     1
270
     1
271
     1
  0
XRECORD
  5
17
102
{ACAD_REACTORS
330
12
102
}
330
12
100
AcDbXrecord
280
     1
270
     1
271
     1
  0
XRECORD
  5
16
102
{ACAD_REACTORS
330
12
102
}
330
12
100
AcDbXrecord
280
     1
270
     1
271
     1
  0
XRECORD
  5
18
102
{ACAD_REACTORS
330
12
102
}
330
12
100
AcDbXrecord
280
     1
270
     1
271
     1
  0
XRECORD
  5
15
102
{ACAD_REACTORS
330
12
102
}
330
12
100
AcDbXrecord
280
     1
270
     1
271
     1
  0
XRECORD
  5
24
102
{ACAD_REACTORS
330
22
102
}
330
22
100
AcDbXrecord
280
     1
270
     1
271
     1
  0
XRECORD
  5
23
102
{ACAD_REACTORS
330
22
102
}
330
22
100
AcDbXrecord
280
     1
270
     1
271
     1
  0
XRECORD
  5
27
102
{ACAD_REACTORS
330
22
102
}
330
22
100
AcDbXrecord
280
     1
270
     1
271
     1
  0
XRECORD
  5
26
102
{ACAD_REACTORS
330
22
102
}
330
22
100
AcDbXrecord
280
     1
270
     1
271
     1
  0
XRECORD
  5
28
102
{ACAD_REACTORS
330
22
102
}
330
22
100
AcDbXrecord
280
     1
270
     1
271
     1
  0
XRECORD
  5
25
102
{ACAD_REACTORS
330
22
102
}
330
22
100
AcDbXrecord
280
     1
270
     1
271
     1
  0
XRECORD
  5
389
102
{ACAD_REACTORS
330
388
102
}
330
388
100
AcDbXrecord
280
     1
102
DISPLAYNAME
  1
Imperial24
102
FLAGS
 90
        0
  0
CELLSTYLEMAP
  5
386
102
{ACAD_REACTORS
330
385
102
}
330
385
100
AcDbCellStyleMap
 90
        3
300
CELLSTYLE
  1
TABLEFORMAT_BEGIN
 90
        5
170
     1
 91
        0
 92
    32768
 62
   257
 93
        1
300
CONTENTFORMAT
  1
CONTENTFORMAT_BEGIN
 90
        0
 91
        0
 92
      512
 93
        0
300

 40
0.0
140
1.0
 94
        5
 62
     0
340
55
144
0.25
309
CONTENTFORMAT_END
171
     0
 94
        0
309
TABLEFORMAT_END
  1
CELLSTYLE_BEGIN
 90
        1
 91
        1
300
_TITLE
309
CELLSTYLE_END
300
CELLSTYLE
  1
TABLEFORMAT_BEGIN
 90
        5
170
     1
 91
        0
 92
        0
 62
   257
 93
        1
300
CONTENTFORMAT
  1
CONTENTFORMAT_BEGIN
 90
        0
 91
        0
 92
      512
 93
        0
300

 40
0.0
140
1.0
 94
        5
 62
     0
340
55
144
0.18
309
CONTENTFORMAT_END
171
     0
 94
        0
309
TABLEFORMAT_END
  1
CELLSTYLE_BEGIN
 90
        2
 91
        1
300
_HEADER
309
CELLSTYLE_END
300
CELLSTYLE
  1
TABLEFORMAT_BEGIN
 90
        5
170
     1
 91
        0
 92
        0
 62
   257
 93
        1
300
CONTENTFORMAT
  1
CONTENTFORMAT_BEGIN
 90
        0
 91
        0
 92
      512
 93
        0
300

 40
0.0
140
1.0
 94
        2
 62
     0
340
55
144
0.18
309
CONTENTFORMAT_END
171
     0
 94
        0
309
TABLEFORMAT_END
  1
CELLSTYLE_BEGIN
 90
        3
 91
        2
300
_DATA
309
CELLSTYLE_END
  0
ENDSEC
  0
EOF
