  0
SECTION
  2
HEADER
  9
$ACADVER
  1
AC1027
  9
$ACADMAINTVER
 70
   125
  9
$DWGCODEPAGE
  3
ANSI_1252
  9
$LASTSAVEDBY
  1
Administrator
  9
$REQUIREDVERSIONS
160
                 0
  9
$INSBASE
 10
0.0
 20
0.0
 30
0.0
  9
$EXTMIN
 10
0.0
 20
0.0
 30
-1.965344
  9
$EXTMAX
 10
17.0
 20
11.0
 30
2.535492
  9
$LIMMIN
 10
0.0
 20
0.0
  9
$LIMMAX
 10
17.0
 20
11.0
  9
$ORTHOMODE
 70
     0
  9
$REGENMODE
 70
     1
  9
$FILLMODE
 70
     1
  9
$QTEXTMODE
 70
     0
  9
$MIRRTEXT
 70
     0
  9
$LTSCALE
 40
0.75
  9
$ATTMODE
 70
     1
  9
$TEXTSIZE
 40
0.12
  9
$TRACEWID
 40
0.05
  9
$TEXTSTYLE
  7
Standard
  9
$CLAYER
  8
Titleblock
  9
$CELTYPE
  6
ByLayer
  9
$CECOLOR
 62
   256
  9
$CELTSCALE
 40
1.0
  9
$DISPSILH
 70
     0
  9
$DIMSCALE
 40
1.0
  9
$DIMASZ
 40
0.12
  9
$DIMEXO
 40
0.05
  9
$DIMDLI
 40
0.339411
  9
$DIMRND
 40
0.0
  9
$DIMDLE
 40
0.0
  9
$DIMEXE
 40
0.1
  9
$DIMTP
 40
0.01
  9
$DIMTM
 40
0.01
  9
$DIMTXT
 40
0.12
  9
$DIMCEN
 40
0.0
  9
$DIMTSZ
 40
0.0
  9
$DIMTOL
 70
     0
  9
$DIMLIM
 70
     0
  9
$DIMTIH
 70
     1
  9
$DIMTOH
 70
     1
  9
$DIMSE1
 70
     0
  9
$DIMSE2
 70
     0
  9
$DIMTAD
 70
     0
  9
$DIMZIN
 70
    12
  9
$DIMBLK
  1

  9
$DIMASO
 70
     1
  9
$DIMSHO
 70
     1
  9
$DIMPOST
  1
in
  9
$DIMAPOST
  1
mm
  9
$DIMALT
 70
     0
  9
$DIMALTD
 70
     2
  9
$DIMALTF
 40
25.4
  9
$DIMLFAC
 40
1.0
  9
$DIMTOFL
 70
     0
  9
$DIMTVP
 40
0.0
  9
$DIMTIX
 70
     0
  9
$DIMSOXD
 70
     0
  9
$DIMSAH
 70
     0
  9
$DIMBLK1
  1

  9
$DIMBLK2
  1

  9
$DIMSTYLE
  2
Standard
  9
$DIMCLRD
 70
   256
  9
$DIMCLRE
 70
   256
  9
$DIMCLRT
 70
   256
  9
$DIMTFAC
 40
1.0
  9
$DIMGAP
 40
0.06
  9
$DIMJUST
 70
     0
  9
$DIMSD1
 70
     0
  9
$DIMSD2
 70
     0
  9
$DIMTOLJ
 70
     1
  9
$DIMTZIN
 70
    12
  9
$DIMALTZ
 70
    12
  9
$DIMALTTZ
 70
    12
  9
$DIMUPT
 70
     0
  9
$DIMDEC
 70
     2
  9
$DIMTDEC
 70
     2
  9
$DIMALTU
 70
     2
  9
$DIMALTTD
 70
     2
  9
$DIMTXSTY
  7
Standard
  9
$DIMAUNIT
 70
     0
  9
$DIMADEC
 70
     2
  9
$DIMALTRND
 40
0.0
  9
$DIMAZIN
 70
     3
  9
$DIMDSEP
 70
    46
  9
$DIMATFIT
 70
     3
  9
$DIMFRAC
 70
     0
  9
$DIMLDRBLK
  1

  9
$DIMLUNIT
 70
     2
  9
$DIMLWD
 70
    -2
  9
$DIMLWE
 70
    -2
  9
$DIMTMOVE
 70
     0
  9
$DIMFXL
 40
1.0
  9
$DIMFXLON
 70
     0
  9
$DIMJOGANG
 40
0.785398
  9
$DIMTFILL
 70
     0
  9
$DIMTFILLCLR
 70
     0
  9
$DIMARCSYM
 70
     1
  9
$DIMLTYPE
  6

  9
$DIMLTEX1
  6

  9
$DIMLTEX2
  6

  9
$DIMTXTDIRECTION
 70
     0
  9
$LUNITS
 70
     2
  9
$LUPREC
 70
     4
  9
$SKETCHINC
 40
0.1
  9
$FILLETRAD
 40
0.0
  9
$AUNITS
 70
     0
  9
$AUPREC
 70
     0
  9
$MENU
  1
.
  9
$ELEVATION
 40
0.0
  9
$PELEVATION
 40
0.0
  9
$THICKNESS
 40
0.0
  9
$LIMCHECK
 70
     0
  9
$CHAMFERA
 40
0.0
  9
$CHAMFERB
 40
0.0
  9
$CHAMFERC
 40
0.0
  9
$CHAMFERD
 40
0.0
  9
$SKPOLY
 70
     0
  9
$TDCREATE
 40
2458890.595960649
  9
$TDUCREATE
 40
2458890.929293982
  9
$TDUPDATE
 40
2458890.595960649
  9
$TDUUPDATE
 40
2458890.929293982
  9
$TDINDWG
 40
0.0000115741
  9
$TDUSRTIMER
 40
0.0000115741
  9
$USRTIMER
 70
     1
  9
$ANGBASE
 50
0.0
  9
$ANGDIR
 70
     0
  9
$PDMODE
 70
     0
  9
$PDSIZE
 40
0.0
  9
$PLINEWID
 40
0.0
  9
$SPLFRAME
 70
     0
  9
$SPLINETYPE
 70
     6
  9
$SPLINESEGS
 70
     8
  9
$HANDSEED
  5
3EA
  9
$SURFTAB1
 70
     6
  9
$SURFTAB2
 70
     6
  9
$SURFTYPE
 70
     6
  9
$SURFU
 70
     6
  9
$SURFV
 70
     6
  9
$UCSBASE
  2

  9
$UCSNAME
  2

  9
$UCSORG
 10
0.0
 20
0.0
 30
0.0
  9
$UCSXDIR
 10
1.0
 20
0.0
 30
0.0
  9
$UCSYDIR
 10
0.0
 20
1.0
 30
0.0
  9
$UCSORTHOREF
  2

  9
$UCSORTHOVIEW
 70
     0
  9
$UCSORGTOP
 10
0.0
 20
0.0
 30
0.0
  9
$UCSORGBOTTOM
 10
0.0
 20
0.0
 30
0.0
  9
$UCSORGLEFT
 10
0.0
 20
0.0
 30
0.0
  9
$UCSORGRIGHT
 10
0.0
 20
0.0
 30
0.0
  9
$UCSORGFRONT
 10
0.0
 20
0.0
 30
0.0
  9
$UCSORGBACK
 10
0.0
 20
0.0
 30
0.0
  9
$PUCSBASE
  2

  9
$PUCSNAME
  2

  9
$PUCSORG
 10
0.0
 20
0.0
 30
0.0
  9
$PUCSXDIR
 10
1.0
 20
0.0
 30
0.0
  9
$PUCSYDIR
 10
0.0
 20
1.0
 30
0.0
  9
$PUCSORTHOREF
  2

  9
$PUCSORTHOVIEW
 70
     0
  9
$PUCSORGTOP
 10
0.0
 20
0.0
 30
0.0
  9
$PUCSORGBOTTOM
 10
0.0
 20
0.0
 30
0.0
  9
$PUCSORGLEFT
 10
0.0
 20
0.0
 30
0.0
  9
$PUCSORGRIGHT
 10
0.0
 20
0.0
 30
0.0
  9
$PUCSORGFRONT
 10
0.0
 20
0.0
 30
0.0
  9
$PUCSORGBACK
 10
0.0
 20
0.0
 30
0.0
  9
$USERI1
 70
     0
  9
$USERI2
 70
     0
  9
$USERI3
 70
     0
  9
$USERI4
 70
     0
  9
$USERI5
 70
     0
  9
$USERR1
 40
0.0
  9
$USERR2
 40
0.0
  9
$USERR3
 40
0.0
  9
$USERR4
 40
0.0
  9
$USERR5
 40
0.0
  9
$WORLDVIEW
 70
     1
  9
$SHADEDGE
 70
     3
  9
$SHADEDIF
 70
    70
  9
$TILEMODE
 70
     1
  9
$MAXACTVP
 70
    64
  9
$PINSBASE
 10
0.0
 20
0.0
 30
0.0
  9
$PLIMCHECK
 70
     0
  9
$PEXTMIN
 10
1.000000E+20
 20
1.000000E+20
 30
1.000000E+20
  9
$PEXTMAX
 10
-1.000000E+20
 20
-1.000000E+20
 30
-1.000000E+20
  9
$PLIMMIN
 10
0.0
 20
0.0
  9
$PLIMMAX
 10
12.0
 20
9.0
  9
$UNITMODE
 70
     0
  9
$VISRETAIN
 70
     1
  9
$PLINEGEN
 70
     0
  9
$PSLTSCALE
 70
     1
  9
$TREEDEPTH
 70
  3020
  9
$CMLSTYLE
  2
Standard
  9
$CMLJUST
 70
     0
  9
$CMLSCALE
 40
1.0
  9
$PROXYGRAPHICS
 70
     1
  9
$MEASUREMENT
 70
     0
  9
$CELWEIGHT
370
    -1
  9
$ENDCAPS
280
     0
  9
$JOINSTYLE
280
     0
  9
$LWDISPLAY
290
     0
  9
$INSUNITS
 70
     1
  9
$HYPERLINKBASE
  1

  9
$STYLESHEET
  1

  9
$XEDIT
290
     1
  9
$CEPSNTYPE
380
     0
  9
$PSTYLEMODE
290
     1
  9
$FINGERPRINTGUID
  2
{D396C48C-6DBF-6A41-B5CC-074EEEE7306C}
  9
$VERSIONGUID
  2
{2DD9E828-A84D-4142-B83C-C6337BD47921}
  9
$EXTNAMES
290
     1
  9
$PSVPSCALE
 40
0.0
  9
$OLESTARTUP
290
     0
  9
$SORTENTS
280
   127
  9
$INDEXCTL
280
     0
  9
$HIDETEXT
280
     1
  9
$XCLIPFRAME
280
     2
  9
$HALOGAP
280
     0
  9
$OBSCOLOR
 70
   257
  9
$OBSLTYPE
280
     0
  9
$INTERSECTIONDISPLAY
280
     0
  9
$INTERSECTIONCOLOR
 70
   257
  9
$DIMASSOC
280
     2
  9
$PROJECTNAME
  1

  9
$CAMERADISPLAY
290
     0
  9
$LENSLENGTH
 40
50.0
  9
$CAMERAHEIGHT
 40
0.0
  9
$STEPSPERSEC
 40
2.0
  9
$STEPSIZE
 40
6.0
  9
$3DDWFPREC
 40
2.0
  9
$PSOLWIDTH
 40
0.25
  9
$PSOLHEIGHT
 40
4.0
  9
$LOFTANG1
 40
1.570796
  9
$LOFTANG2
 40
1.570796
  9
$LOFTMAG1
 40
0.0
  9
$LOFTMAG2
 40
0.0
  9
$LOFTPARAM
 70
     7
  9
$LOFTNORMALS
280
     1
  9
$LATITUDE
 40
37.795
  9
$LONGITUDE
 40
-122.394
  9
$NORTHDIRECTION
 40
0.0
  9
$TIMEZONE
 70
 -8000
  9
$LIGHTGLYPHDISPLAY
280
     1
  9
$TILEMODELIGHTSYNCH
280
     1
  9
$CMATERIAL
347
11
  9
$SOLIDHIST
280
     0
  9
$SHOWHIST
280
     1
  9
$DWFFRAME
280
     2
  9
$DGNFRAME
280
     0
  9
$REALWORLDSCALE
290
     1
  9
$INTERFERECOLOR
 62
     1
  9
$INTERFEREOBJVS
345
33
  9
$INTERFEREVPVS
346
30
  9
$CSHADOW
280
     0
  9
$SHADOWPLANELOCATION
 40
0.0
  0
ENDSEC
  0
SECTION
  2
CLASSES
  0
CLASS
  1
ACDBDICTIONARYWDFLT
  2
AcDbDictionaryWithDefault
  3
ObjectDBX Classes
 90
        0
 91
        1
280
     0
281
     0
  0
CLASS
  1
MATERIAL
  2
AcDbMaterial
  3
ObjectDBX Classes
 90
     1153
 91
        3
280
     0
281
     0
  0
CLASS
  1
VISUALSTYLE
  2
AcDbVisualStyle
  3
ObjectDBX Classes
 90
     4095
 91
       24
280
     0
281
     0
  0
CLASS
  1
SCALE
  2
AcDbScale
  3
ObjectDBX Classes
 90
     1153
 91
       33
280
     0
281
     0
  0
CLASS
  1
TABLESTYLE
  2
AcDbTableStyle
  3
ObjectDBX Classes
 90
     4095
 91
        1
280
     0
281
     0
  0
CLASS
  1
MLEADERSTYLE
  2
AcDbMLeaderStyle
  3
ACDB_MLEADERSTYLE_CLASS
 90
     4095
 91
        1
280
     0
281
     0
  0
CLASS
  1
ACDBSECTIONVIEWSTYLE
  2
AcDbSectionViewStyle
  3
ObjectDBX Classes
 90
     1025
 91
        1
280
     0
281
     0
  0
CLASS
  1
ACDBDETAILVIEWSTYLE
  2
AcDbDetailViewStyle
  3
ObjectDBX Classes
 90
     1025
 91
        1
280
     0
281
     0
  0
CLASS
  1
ACMESCOPE
  2
AcMeScope
  3
AcMeServices
 90
     1024
 91
        1
280
     0
281
     0
  0
CLASS
  1
ACMECOMMANDHISTORY
  2
AcMeCommandHistory
  3
AcMeServices
 90
     1024
 91
        1
280
     0
281
     0
  0
CLASS
  1
ACIMSYSVARMAN
  2
AcImSysVarManager
  3
AcMeServices
 90
     1024
 91
        1
280
     0
281
     0
  0
CLASS
  1
ACIMINTSYSVAR
  2
AcImIntSysVar
  3
AcMeServices
 90
     1024
 91
        1
280
     0
281
     0
  0
CLASS
  1
ACMESTATEMGR
  2
AcMeStateMgr
  3
AcMeServices
 90
     1024
 91
        1
280
     0
281
     0
  0
CLASS
  1
ACGREFMASTER
  2
AcGrefMaster
  3
AcAttribServices
 90
     1024
 91
        1
280
     0
281
     0
  0
CLASS
  1
SORTENTSTABLE
  2
AcDbSortentsTable
  3
ObjectDBX Classes
 90
        0
 91
        6
280
     0
281
     0
  0
CLASS
  1
IMAGE
  2
AcDbRasterImage
  3
ISM
 90
     2175
 91
        1
280
     0
281
     1
  0
CLASS
  1
IMAGEDEF
  2
AcDbRasterImageDef
  3
ISM
 90
        0
 91
        1
280
     0
281
     0
  0
CLASS
  1
IMAGEDEF_REACTOR
  2
AcDbRasterImageDefReactor
  3
ISM
 90
        1
 91
        2
280
     0
281
     0
  0
CLASS
  1
RASTERVARIABLES
  2
AcDbRasterVariables
  3
ISM
 90
        0
 91
        1
280
     0
281
     0
  0
CLASS
  1
DICTIONARYVAR
  2
AcDbDictionaryVar
  3
ObjectDBX Classes
 90
        0
 91
        6
280
     0
281
     0
  0
CLASS
  1
CELLSTYLEMAP
  2
AcDbCellStyleMap
  3
ObjectDBX Classes
 90
     1152
 91
        1
280
     0
281
     0
  0
ENDSEC
  0
SECTION
  2
TABLES
  0
TABLE
  2
VPORT
  5
8
330
0
100
AcDbSymbolTable
 70
     1
1001
ACAD
1000
DbSaveVer
1071
      251
  0
VPORT
  5
57
330
8
100
AcDbSymbolTableRecord
100
AcDbViewportTableRecord
  2
*Active
 70
     0
 10
0.0
 20
0.0
 11
1.0
 21
1.0
 12
8.5
 22
5.5
 13
0.0
 23
0.0
 14
0.5
 24
0.5
 15
0.0
 25
0.0
 16
0.0
 26
0.0
 36
1.0
 17
0.0
 27
0.0
 37
0.0
 40
11.0
 41
1.777518
 42
50.0
 43
0.0
 44
0.0
 50
0.0
 51
0.0
 71
     0
 72
 20000
 73
     1
 74
     0
 75
     0
 76
     0
 77
     0
 78
     0
281
     0
 65
     1
110
0.0
120
0.0
130
0.0
111
1.0
121
0.0
131
0.0
112
0.0
122
1.0
132
0.0
 79
     0
146
0.0
348
2F
 60
     3
 61
     5
292
     1
282
     1
141
0.0
142
0.0
 63
   250
421
  3355443
  0
ENDTAB
  0
TABLE
  2
LTYPE
  5
5
330
0
100
AcDbSymbolTable
 70
    10
  0
LTYPE
  5
5B
330
5
100
AcDbSymbolTableRecord
100
AcDbLinetypeTableRecord
  2
ByBlock
 70
     0
  3

 72
    65
 73
     0
 40
0.0
  0
LTYPE
  5
5C
330
5
100
AcDbSymbolTableRecord
100
AcDbLinetypeTableRecord
  2
ByLayer
 70
     0
  3

 72
    65
 73
     0
 40
0.0
  0
LTYPE
  5
5D
330
5
100
AcDbSymbolTableRecord
100
AcDbLinetypeTableRecord
  2
Continuous
 70
     0
  3
Solid line
 72
    65
 73
     0
 40
0.0
  0
LTYPE
  5
81
330
5
100
AcDbSymbolTableRecord
100
AcDbLinetypeTableRecord
  2
HIDDEN
 70
     0
  3
Hidden __ __ __ __ __ __ __ __ __ __ __ __ __ _
 72
    65
 73
     2
 40
0.375
 49
0.25
 74
     0
 49
-0.125
 74
     0
  0
LTYPE
  5
82
330
5
100
AcDbSymbolTableRecord
100
AcDbLinetypeTableRecord
  2
PHANTOM2
 70
     0
  3
Phantom (.5x) ___ _ _ ___ _ _ ___ _ _ ___ _ _
 72
    65
 73
     6
 40
1.25
 49
0.625
 74
     0
 49
-0.125
 74
     0
 49
0.125
 74
     0
 49
-0.125
 74
     0
 49
0.125
 74
     0
 49
-0.125
 74
     0
  0
LTYPE
  5
83
330
5
100
AcDbSymbolTableRecord
100
AcDbLinetypeTableRecord
  2
CENTER
 70
     0
  3
Center ____ _ ____ _ ____ _ ____ _ ____ _ ____
 72
    65
 73
     4
 40
2.0
 49
1.25
 74
     0
 49
-0.25
 74
     0
 49
0.25
 74
     0
 49
-0.25
 74
     0
  0
LTYPE
  5
9A
330
5
100
AcDbSymbolTableRecord
100
AcDbLinetypeTableRecord
  2
CENTER2
 70
     0
  3
Center (.5x) ___ _ ___ _ ___ _ ___ _ ___ _ ___
 72
    65
 73
     4
 40
1.125
 49
0.75
 74
     0
 49
-0.125
 74
     0
 49
0.125
 74
     0
 49
-0.125
 74
     0
  0
LTYPE
  5
9B
330
5
100
AcDbSymbolTableRecord
100
AcDbLinetypeTableRecord
  2
HIDDEN2
 70
     0
  3
Hidden (.5x) _ _ _ _ _ _ _ _ _ _ _ _ _ _ _ _ _
 72
    65
 73
     2
 40
0.1875
 49
0.125
 74
     0
 49
-0.0625
 74
     0
  0
LTYPE
  5
9C
330
5
100
AcDbSymbolTableRecord
100
AcDbLinetypeTableRecord
  2
Amconstr
 70
     0
  3
_______________________
 72
    65
 73
     2
 40
9999.0
 49
9999.0
 74
     0
 49
0.0
 74
     0
  0
LTYPE
  5
9D
330
5
100
AcDbSymbolTableRecord
100
AcDbLinetypeTableRecord
  2
Amzigzag2
 70
     0
  3
/\/-/\/-/\/-/\/-/\/-/\/
 72
    65
 73
     2
 40
0.4401
 49
0.0001
 74
     4
 75
   136
340
97
 46
0.0016
 50
0.0
 44
0.0
 45
0.0
 49
-0.44
 74
     0
  0
LTYPE
  5
9E
330
5
100
AcDbSymbolTableRecord
100
AcDbLinetypeTableRecord
  2
ACANSTGB
 70
     0
  3
__ . . __ . .
 72
    65
 73
     6
 40
0.354331
 49
0.15748
 74
     0
 49
-0.03937
 74
     0
 49
0.03937
 74
     0
 49
-0.03937
 74
     0
 49
0.03937
 74
     0
 49
-0.03937
 74
     0
  0
LTYPE
  5
9F
330
5
100
AcDbSymbolTableRecord
100
AcDbLinetypeTableRecord
  2
ACANSTGL
 70
     0
  3
_ _ _ _ _
 72
    65
 73
     2
 40
0.11811
 49
0.07874
 74
     0
 49
-0.03937
 74
     0
  0
ENDTAB
  0
TABLE
  2
LAYER
  5
2
330
0
100
AcDbSymbolTable
 70
    11
  0
LAYER
  5
54
330
2
100
AcDbSymbolTableRecord
100
AcDbLayerTableRecord
  2
0
 70
     0
 62
     7
  6
Continuous
370
    -3
390
F
347
21
348
0
1001
AcAecLayerStandard
1000

1000

  0
LAYER
  5
79
330
2
100
AcDbSymbolTableRecord
100
AcDbLayerTableRecord
  2
Defpoints
 70
     0
 62
     7
  6
Continuous
290
     0
370
    -3
390
F
347
21
348
0
1001
AcAecLayerStandard
1000

1000

  0
LAYER
  5
B9
330
2
100
AcDbSymbolTableRecord
100
AcDbLayerTableRecord
  2
Visible
 70
     0
 62
     7
  6
Continuous
370
    50
390
F
347
21
348
0
  0
LAYER
  5
107
330
2
100
AcDbSymbolTableRecord
100
AcDbLayerTableRecord
  2
Visible Narrow
 70
     0
 62
     7
  6
Continuous
370
    35
390
F
347
21
348
0
  0
LAYER
  5
121
330
2
100
AcDbSymbolTableRecord
100
AcDbLayerTableRecord
  2
Titleblock
 70
     0
 62
     7
  6
Continuous
370
    -3
390
F
347
21
348
0
1001
AcAecLayerStandard
1000

1000

1001
AcCmTransparency
1071
        0
  0
LAYER
  5
146
330
2
100
AcDbSymbolTableRecord
100
AcDbLayerTableRecord
  2
Border
 70
     0
 62
     7
  6
Continuous
370
    -3
390
F
347
21
348
0
1001
AcAecLayerStandard
1000

1000

1001
AcCmTransparency
1071
        0
  0
LAYER
  5
167
330
2
100
AcDbSymbolTableRecord
100
AcDbLayerTableRecord
  2
Dimensions
 70
     0
 62
     7
  6
Continuous
370
    25
390
F
347
21
348
0
  0
LAYER
  5
1BE
330
2
100
AcDbSymbolTableRecord
100
AcDbLayerTableRecord
  2
Center Lines
 70
     0
 62
     7
  6
CENTER2
370
    25
390
F
347
21
348
0
  0
ENDTAB
  0
TABLE
  2
STYLE
  5
3
330
0
100
AcDbSymbolTable
 70
     4
  0
STYLE
  5
55
330
3
100
AcDbSymbolTableRecord
100
AcDbTextStyleTableRecord
  2
Standard
 70
     0
 40
0.0
 41
1.0
 50
0.0
 71
     0
 42
0.12
  3
arial.ttf
  4

1001
ACAD
1000
Arial
1071
       34
  0
STYLE
  5
5A
330
3
100
AcDbSymbolTableRecord
100
AcDbTextStyleTableRecord
  2
Annotative
 70
     0
 40
0.0
 41
1.0
 50
0.0
 71
     0
 42
0.2
  3
txt
  4

1001
AcadAnnotative
1000
AnnotativeData
1002
{
1070
     1
1070
     1
1002
}
  0
STYLE
  5
97
330
3
100
AcDbSymbolTableRecord
100
AcDbTextStyleTableRecord
  2

 70
     1
 40
0.0
 41
1.0
 50
0.0
 71
     0
 42
0.12
  3
genltshp.shx
  4

  0
STYLE
  5
98
330
3
100
AcDbSymbolTableRecord
100
AcDbTextStyleTableRecord
  2
ACANSGDT
 70
     0
 40
0.0
 41
1.0
 50
0.0
 71
     0
 42
0.12
  3
amgdt.shx
  4

  0
ENDTAB
  0
TABLE
  2
VIEW
  5
6
330
0
100
AcDbSymbolTable
 70
     0
  0
ENDTAB
  0
TABLE
  2
UCS
  5
7
330
0
100
AcDbSymbolTable
 70
     0
  0
ENDTAB
  0
TABLE
  2
APPID
  5
9
330
0
100
AcDbSymbolTable
 70
    24
  0
APPID
  5
56
330
9
100
AcDbSymbolTableRecord
100
AcDbRegAppTableRecord
  2
ACAD
 70
     0
  0
APPID
  5
5E
330
9
100
AcDbSymbolTableRecord
100
AcDbRegAppTableRecord
  2
AcadAnnotative
 70
     0
  0
APPID
  5
78
330
9
100
AcDbSymbolTableRecord
100
AcDbRegAppTableRecord
  2
ACAD_PSEXT
 70
     0
  0
APPID
  5
7A
330
9
100
AcDbSymbolTableRecord
100
AcDbRegAppTableRecord
  2
MCAD_NO_VIS
 70
     0
  0
APPID
  5
7B
330
9
100
AcDbSymbolTableRecord
100
AcDbRegAppTableRecord
  2
ACAD_TEMP_GRAPHIC
 70
     0
  0
APPID
  5
84
330
9
100
AcDbSymbolTableRecord
100
AcDbRegAppTableRecord
  2
ACAD_DSTYLE_DIMJAG
 70
     0
  0
APPID
  5
85
330
9
100
AcDbSymbolTableRecord
100
AcDbRegAppTableRecord
  2
ACAD_DSTYLE_DIMTALN
 70
     0
  0
APPID
  5
86
330
9
100
AcDbSymbolTableRecord
100
AcDbRegAppTableRecord
  2
ACAD_NAV_VCDISPLAY
 70
     0
  0
APPID
  5
87
330
9
100
AcDbSymbolTableRecord
100
AcDbRegAppTableRecord
  2
AcAecLayerStandard
 70
     0
  0
APPID
  5
88
330
9
100
AcDbSymbolTableRecord
100
AcDbRegAppTableRecord
  2
AcCmTransparency
 70
     0
  0
APPID
  5
89
330
9
100
AcDbSymbolTableRecord
100
AcDbRegAppTableRecord
  2
ACAD_DSTYLE_DIMBREAK
 70
     0
  0
APPID
  5
8A
330
9
100
AcDbSymbolTableRecord
100
AcDbRegAppTableRecord
  2
ACAD_DSTYLE_DIMRADIAL_EXTENSION
 70
     0
  0
APPID
  5
8B
330
9
100
AcDbSymbolTableRecord
100
AcDbRegAppTableRecord
  2
FUSIONTITLEBLOCK
 70
     0
  0
APPID
  5
8C
330
9
100
AcDbSymbolTableRecord
100
AcDbRegAppTableRecord
  2
FUSIONCURRENTTITLEBLOCK
 70
     0
  0
APPID
  5
8D
330
9
100
AcDbSymbolTableRecord
100
AcDbRegAppTableRecord
  2
AcSynergy
 70
     0
  0
APPID
  5
8E
330
9
100
AcDbSymbolTableRecord
100
AcDbRegAppTableRecord
  2
ACAD_VIEW_EDGE_ID
 70
     0
  0
APPID
  5
8F
330
9
100
AcDbSymbolTableRecord
100
AcDbRegAppTableRecord
  2
GENIUS_GENSCREG_15
 70
     0
  0
APPID
  5
90
330
9
100
AcDbSymbolTableRecord
100
AcDbRegAppTableRecord
  2
GENIUS_GENOBJ-N-SDF_13
 70
     0
  0
APPID
  5
91
330
9
100
AcDbSymbolTableRecord
100
AcDbRegAppTableRecord
  2
GENIUS_GENODEF_13
 70
     0
  0
APPID
  5
92
330
9
100
AcDbSymbolTableRecord
100
AcDbRegAppTableRecord
  2
ACAD_DIMASSOC_CALC_DIMLFAC
 70
     0
  0
APPID
  5
93
330
9
100
AcDbSymbolTableRecord
100
AcDbRegAppTableRecord
  2
ACAD_DIMASSOC_DIMLFAC
 70
     0
  0
APPID
  5
94
330
9
100
AcDbSymbolTableRecord
100
AcDbRegAppTableRecord
  2
ACAD_DIMASSOC_OVERRIDDEN_DIMLFAC
 70
     0
  0
APPID
  5
95
330
9
100
AcDbSymbolTableRecord
100
AcDbRegAppTableRecord
  2
FD_ATT_APPNAME
 70
     0
  0
APPID
  5
96
330
9
100
AcDbSymbolTableRecord
100
AcDbRegAppTableRecord
  2
ACATTRIBSERVICES
 70
     0
  0
ENDTAB
  0
TABLE
  2
DIMSTYLE
  5
A
330
0
100
AcDbSymbolTable
 70
     2
100
AcDbDimStyleTable
 71
     1
340
58
  0
DIMSTYLE
105
58
102
{ACAD_REACTORS
330
166
330
175
330
183
330
191
330
19C
330
1A5
330
1AF
330
1C3
102
}
330
A
100
AcDbSymbolTableRecord
100
AcDbDimStyleTableRecord
  2
Standard
 70
     0
  3
in
  4
mm
 41
0.12
 42
0.05
 43
0.339411
 44
0.1
 47
0.01
 48
0.01
 78
    12
 79
     3
 90
     1
140
0.12
141
0.0
147
0.06
176
   256
177
   256
178
   256
179
     2
271
     2
272
     2
284
    12
285
    12
286
    12
340
55
  0
DIMSTYLE
105
59
330
A
100
AcDbSymbolTableRecord
100
AcDbDimStyleTableRecord
  2
Annotative
 70
     0
  3
in
 40
0.0
 43
0.339411
 78
    12
 79
     3
140
0.12
179
     2
271
     2
272
     2
284
    12
285
    12
286
    12
340
55
1001
AcadAnnotative
1000
AnnotativeData
1002
{
1070
     1
1070
     1
1002
}
  0
ENDTAB
  0
TABLE
  2
BLOCK_RECORD
  5
1
330
0
100
AcDbSymbolTable
 70
    23
  0
BLOCK_RECORD
  5
70
102
{ACAD_XDICTIONARY
360
B2
102
}
330
1
100
AcDbSymbolTableRecord
100
AcDbBlockTableRecord
  2
*Model_Space
340
73
 70
     0
280
     1
281
     0
  0
BLOCK_RECORD
  5
6C
330
1
100
AcDbSymbolTableRecord
100
AcDbBlockTableRecord
  2
*Paper_Space
340
6F
 70
     0
280
     1
281
     0
  0
BLOCK_RECORD
  5
74
330
1
100
AcDbSymbolTableRecord
100
AcDbBlockTableRecord
  2
*Paper_Space0
340
77
 70
     0
280
     1
281
     0
  0
BLOCK_RECORD
  5
122
102
{ACAD_XDICTIONARY
360
123
102
}
330
1
100
AcDbSymbolTableRecord
100
AcDbBlockTableRecord
  2
Shower
340
0
102
{BLKREFS
331
120
102
}
 70
     1
280
     1
281
     0
1001
FUSIONTITLEBLOCK
1000
TitleBlock
  0
BLOCK_RECORD
  5
147
330
1
100
AcDbSymbolTableRecord
100
AcDbBlockTableRecord
  2
ANSI_B_SHEET
340
0
310
2800000020000000200000000100080000000000000400000000000000000000000000000000000000000000000080000080000000808000800000008000800080800000C0C0C000C0DCC000F0CAA6000020400000206000002080000020A0000020C0000020E00000400000004020000040400000406000004080000040A0
310
000040C0000040E00000600000006020000060400000606000006080000060A0000060C0000060E00000800000008020000080400000806000008080000080A0000080C0000080E00000A0000000A0200000A0400000A0600000A0800000A0A00000A0C00000A0E00000C0000000C0200000C0400000C0600000C0800000C0
310
A00000C0C00000C0E00000E0000000E0200000E0400000E0600000E0800000E0A00000E0C00000E0E00040000000400020004000400040006000400080004000A0004000C0004000E00040200000402020004020400040206000402080004020A0004020C0004020E000404000004040200040404000404060004040800040
310
40A0004040C0004040E00040600000406020004060400040606000406080004060A0004060C0004060E00040800000408020004080400040806000408080004080A0004080C0004080E00040A0000040A0200040A0400040A0600040A0800040A0A00040A0C00040A0E00040C0000040C0200040C0400040C0600040C08000
310
40C0A00040C0C00040C0E00040E0000040E0200040E0400040E0600040E0800040E0A00040E0C00040E0E00080000000800020008000400080006000800080008000A0008000C0008000E00080200000802020008020400080206000802080008020A0008020C0008020E00080400000804020008040400080406000804080
310
008040A0008040C0008040E00080600000806020008060400080606000806080008060A0008060C0008060E00080800000808020008080400080806000808080008080A0008080C0008080E00080A0000080A0200080A0400080A0600080A0800080A0A00080A0C00080A0E00080C0000080C0200080C0400080C0600080C0
310
800080C0A00080C0C00080C0E00080E0000080E0200080E0400080E0600080E0800080E0A00080E0C00080E0E000C0000000C0002000C0004000C0006000C0008000C000A000C000C000C000E000C0200000C0202000C0204000C0206000C0208000C020A000C020C000C020E000C0400000C0402000C0404000C0406000C0
310
408000C040A000C040C000C040E000C0600000C0602000C0604000C0606000C0608000C060A000C060C000C060E000C0800000C0802000C0804000C0806000C0808000C080A000C080C000C080E000C0A00000C0A02000C0A04000C0A06000C0A08000C0A0A000C0A0C000C0A0E000C0C00000C0C02000C0C04000C0C06000
310
C0C08000C0C0A000F0FBFF00A4A0A000808080000000FF0000FF000000FFFF00FF000000FF00FF00FFFF0000FFFFFF0049494949494949494949494949494949494949494949494949494949494949494949494949494949494949494949494949494949494949494949494949494949494949494949494949494949494949
310
494949494949494949494949494949494949494949494949494949494949494949494949494949494949494949494949494949494949494949494949494949494949494949494949494949494949494949494949494949494949494949494949494949494949494949494949494949494949FFFF4949494949494949494949
310
494949494949494949494949494949FFFF4949FFFFFFFFFFFFFFFFFFFFFFFFFFFFFFFFFFFFFFFFFFFFFFFFFFFFFFFFFFFF494949FF4949494949494949494949494949494949494949494949494949FF49494949FF4949494949494949494949494949494949494949494949494949FF49494949FF49494949494949494949
310
49494949494949494949494949494949FF49494949FF4949494949494949494949494949494949494949494949494949FF49494949FF4949494949494949494949494949494949494949494949494949FF49494949FF4949494949494949494949494949494949494949494949494949FF49494949FF494949494949494949
310
4949494949494949494949494949494949FF49494949FF4949494949494949494949494949494949494949494949494949FF49494949FF4949494949494949494949494949494949494949494949494949FF49494949FF4949494949494949494949494949494949494949494949494949FF49494949FF4949494949494949
310
494949494949494949494949494949494949FF49494949FF4949494949494949494949494949494949494949494949494949FF49494949FF4949494949494949494949494949494949494949494949494949FF49494949FF4949494949494949494949494949494949494949494949494949FF49494949FF49494949494949
310
49494949494949494949494949494949494949FF49494949FF4949494949494949494949494949494949494949494949494949FF494949FFFFFFFFFFFFFFFFFFFFFFFFFFFFFFFFFFFFFFFFFFFFFFFFFFFFFFFFFFFF4949FFFF4949494949494949494949494949494949494949494949494949FFFF49494949494949494949
310
49494949494949494949494949494949494949494949494949494949494949494949494949494949494949494949494949494949494949494949494949494949494949494949494949494949494949494949494949494949494949494949494949494949494949494949494949494949494949494949494949494949494949
310
4949494949494949494949494949494949494949494949494949494949494949494949494949494949494949494949494949494949494949
102
{BLKREFS
331
145
102
}
 70
     1
280
     1
281
     0
  0
BLOCK_RECORD
  5
168
330
1
100
AcDbSymbolTableRecord
100
AcDbBlockTableRecord
  2
*D6
340
0
 70
     0
280
     1
281
     0
  0
BLOCK_RECORD
  5
176
330
1
100
AcDbSymbolTableRecord
100
AcDbBlockTableRecord
  2
*D7
340
0
 70
     0
280
     1
281
     0
  0
BLOCK_RECORD
  5
184
330
1
100
AcDbSymbolTableRecord
100
AcDbBlockTableRecord
  2
*D8
340
0
 70
     0
280
     1
281
     0
  0
BLOCK_RECORD
  5
192
330
1
100
AcDbSymbolTableRecord
100
AcDbBlockTableRecord
  2
*D9
340
0
 70
     0
280
     1
281
     0
  0
BLOCK_RECORD
  5
19D
330
1
100
AcDbSymbolTableRecord
100
AcDbBlockTableRecord
  2
*D10
340
0
 70
     0
280
     1
281
     0
  0
BLOCK_RECORD
  5
1A6
330
1
100
AcDbSymbolTableRecord
100
AcDbBlockTableRecord
  2
*D11
340
0
 70
     0
280
     1
281
     0
  0
BLOCK_RECORD
  5
1B0
330
1
100
AcDbSymbolTableRecord
100
AcDbBlockTableRecord
  2
*D12
340
0
 70
     0
280
     1
281
     0
  0
BLOCK_RECORD
  5
1BF
330
1
100
AcDbSymbolTableRecord
100
AcDbBlockTableRecord
  2
*U13
340
0
102
{BLKREFS
331
1BD
102
}
 70
     0
280
     1
281
     0
  0
BLOCK_RECORD
  5
1C4
330
1
100
AcDbSymbolTableRecord
100
AcDbBlockTableRecord
  2
*D14
340
0
 70
     0
280
     1
281
     0
  0
BLOCK_RECORD
  5
1D2
330
1
100
AcDbSymbolTableRecord
100
AcDbBlockTableRecord
  2
*D15
340
0
 70
     0
280
     1
281
     0
  0
BLOCK_RECORD
  5
1DF
330
1
100
AcDbSymbolTableRecord
100
AcDbBlockTableRecord
  2
*D16
340
0
 70
     0
280
     1
281
     0
  0
BLOCK_RECORD
  5
1EC
330
1
100
AcDbSymbolTableRecord
100
AcDbBlockTableRecord
  2
*D17
340
0
 70
     0
280
     1
281
     0
  0
BLOCK_RECORD
  5
1F9
330
1
100
AcDbSymbolTableRecord
100
AcDbBlockTableRecord
  2
*D18
340
0
 70
     0
280
     1
281
     0
  0
BLOCK_RECORD
  5
203
330
1
100
AcDbSymbolTableRecord
100
AcDbBlockTableRecord
  2
*D19
340
0
 70
     0
280
     1
281
     0
  0
BLOCK_RECORD
  5
20B
330
1
100
AcDbSymbolTableRecord
100
AcDbBlockTableRecord
  2
*D20
340
0
 70
     0
280
     1
281
     0
  0
BLOCK_RECORD
  5
214
330
1
100
AcDbSymbolTableRecord
100
AcDbBlockTableRecord
  2
*D21
340
0
 70
     0
280
     1
281
     0
  0
BLOCK_RECORD
  5
221
330
1
100
AcDbSymbolTableRecord
100
AcDbBlockTableRecord
  2
*D22
340
0
 70
     0
280
     1
281
     0
  0
ENDTAB
  0
ENDSEC
  0
SECTION
  2
BLOCKS
  0
BLOCK
  5
71
330
70
100
AcDbEntity
  8
0
100
AcDbBlockBegin
  2
*Model_Space
 70
     0
 10
0.0
 20
0.0
 30
0.0
  3
*Model_Space
  1

  0
ENDBLK
  5
72
330
70
100
AcDbEntity
  8
0
100
AcDbBlockEnd
  0
BLOCK
  5
6D
330
6C
100
AcDbEntity
 67
     1
  8
0
100
AcDbBlockBegin
  2
*Paper_Space
 70
     0
 10
0.0
 20
0.0
 30
0.0
  3
*Paper_Space
  1

  0
ENDBLK
  5
6E
330
6C
100
AcDbEntity
 67
     1
  8
0
100
AcDbBlockEnd
  0
BLOCK
  5
75
330
74
100
AcDbEntity
 67
     1
  8
0
100
AcDbBlockBegin
  2
*Paper_Space0
 70
     0
 10
0.0
 20
0.0
 30
0.0
  3
*Paper_Space0
  1

  0
ENDBLK
  5
76
330
74
100
AcDbEntity
 67
     1
  8
0
100
AcDbBlockEnd
  0
BLOCK
  5
125
330
122
100
AcDbEntity
  8
0
100
AcDbBlockBegin
  2
Shower
 70
     2
 10
0.0
 20
0.0
 30
0.0
  3
Shower
  1

  0
LWPOLYLINE
  5
126
330
122
100
AcDbEntity
  8
Titleblock
100
AcDbPolyline
 90
        4
 70
     1
 43
0.0
 10
0.0
 20
0.0
 10
-4.9375
 20
0.0
 10
-4.9375
 20
2.5
 10
0.0
 20
2.5
  0
IMAGE
  5
127
330
122
100
AcDbEntity
  8
Titleblock
  6
Continuous
160
               140
310
8C0000000100000084000000060000000500000000000000008013C000B87FA8928AB03F000000000000000000000000008013C035B4911D6523F03F000000000000000001000000008001C035B4911D6523F03F000000000000000001000000008001C000B87FA8928AB03F000000000000000000000000008013C000B87F
310
A8928AB03F0000000000000000
370
     0
100
AcDbRasterImage
 90
        0
 10
-4.875
 20
0.064614
 30
0.0
 11
0.0028349156118143
 21
0.0
 31
0.0
 12
0.0
 22
0.0028349156118143
 32
0.0
 13
948.0
 23
333.0
340
128
 70
    15
280
     0
281
    50
282
    50
283
     0
290
     0
360
12A
 71
     1
 91
        2
 14
-0.5
 24
-0.5
 14
947.5
 24
332.5
  0
LWPOLYLINE
  5
12C
330
122
100
AcDbEntity
  8
Titleblock
  6
Continuous
370
    25
100
AcDbPolyline
 90
        4
 70
     1
 43
0.0
 10
0.0
 20
1.0625
 10
-4.9375
 20
1.061638
 10
-4.9375
 20
0.0
 10
0.0
 20
0.0
  0
LWPOLYLINE
  5
12D
330
122
100
AcDbEntity
  8
Titleblock
  6
Continuous
370
    25
100
AcDbPolyline
 90
        4
 70
     1
 43
0.0
 10
-1.75
 20
2.5
 10
0.0
 20
2.5
 10
0.0
 20
2.5
 10
-1.75
 20
2.5
  0
ATTDEF
  5
12E
330
122
100
AcDbEntity
  8
Titleblock
  6
Continuous
370
    25
100
AcDbText
 10
-3.6875
 20
2.3125
 30
0.0
 40
0.12
  1

100
AcDbAttributeDefinition
280
     0
  3

  2
PROJECT
 70
     0
280
     1
  0
MTEXT
  5
12F
330
122
100
AcDbEntity
  8
Titleblock
  6
Continuous
370
    25
100
AcDbMText
 10
-4.875
 20
1.653875
 30
0.0
 40
0.12
 41
0.6875
 46
0.0
 71
     1
 72
     5
  1
Description:
 73
     1
 44
1.0
1001
ACAD
1000
ACAD_MTEXT_COLUMN_INFO_BEGIN
1070
    75
1070
     2
1070
    79
1070
     0
1070
    76
1070
     1
1070
    78
1070
     0
1070
    48
1040
0.6875
1070
    49
1040
0.6
1070
    50
1070
     1
1040
0.0
1000
ACAD_MTEXT_COLUMN_INFO_END
  0
ATTDEF
  5
130
330
122
100
AcDbEntity
  8
Titleblock
  6
Continuous
370
    25
100
AcDbText
 10
-1.6875
 20
0.6875
 30
0.0
 40
0.12
  1

100
AcDbAttributeDefinition
280
     0
  3

  2
DRAWN_DATE
 70
     0
280
     1
  0
ATTDEF
  5
131
330
122
100
AcDbEntity
  8
Titleblock
  6
Continuous
370
    25
100
AcDbText
 10
-4.3125
 20
1.8125
 30
0.0
 40
0.3048
  1

100
AcDbAttributeDefinition
280
     0
  3

  2
TITLE_1
 70
     0
280
     1
  0
ATTDEF
  5
132
330
122
100
AcDbEntity
  8
Titleblock
  6
Continuous
370
    25
100
AcDbText
 10
-1.6875
 20
0.91994
 30
0.0
 40
0.12
  1

100
AcDbAttributeDefinition
280
     0
  3

  2
SCALE
 70
     0
280
     1
  0
LWPOLYLINE
  5
133
330
122
100
AcDbEntity
  8
Titleblock
  6
Continuous
370
    25
100
AcDbPolyline
 90
        4
 70
     1
 43
0.0
 10
0.0
 20
1.0625
 10
0.0
 20
1.0625
 10
0.0
 20
0.0
 10
0.0
 20
0.0
  0
LWPOLYLINE
  5
134
330
122
100
AcDbEntity
  8
Titleblock
  6
Continuous
370
    25
100
AcDbPolyline
 90
        4
 70
     1
 43
0.0
 10
0.0
 20
1.0625
 10
0.0
 20
1.0625
 10
0.0
 20
0.0
 10
0.0
 20
0.0
  0
LINE
  5
135
330
122
100
AcDbEntity
  8
Titleblock
  6
Continuous
370
    25
100
AcDbLine
 10
-2.125
 20
1.062165
 30
0.0
 11
-2.125
 21
0.0
 31
0.0
  0
LWPOLYLINE
  5
136
330
122
100
AcDbEntity
  8
Titleblock
  6
Continuous
370
    25
100
AcDbPolyline
 90
        4
 70
     1
 43
0.0
 10
-4.9375
 20
2.5
 10
0.0
 20
2.5
 10
0.0
 20
2.5
 10
-4.9375
 20
2.5
  0
LINE
  5
137
330
122
100
AcDbEntity
  8
Titleblock
  6
Continuous
370
    25
100
AcDbLine
 10
-4.9375
 20
2.25
 30
0.0
 11
0.0
 21
2.25
 31
0.0
  0
LINE
  5
138
330
122
100
AcDbEntity
  8
Titleblock
  6
Continuous
370
    25
100
AcDbLine
 10
-4.9375
 20
1.6875
 30
0.0
 11
0.0
 21
1.6875
 31
0.0
  0
MTEXT
  5
139
330
122
100
AcDbEntity
  8
Titleblock
100
AcDbMText
 10
-4.875
 20
2.467284
 30
0.0
 40
0.12
 41
0.375
 46
0.0
 71
     1
 72
     5
  1
Project:
 73
     1
 44
1.0
1001
ACAD
1000
ACAD_MTEXT_COLUMN_INFO_BEGIN
1070
    75
1070
     2
1070
    79
1070
     0
1070
    76
1070
     1
1070
    78
1070
     0
1070
    48
1040
0.375
1070
    49
1040
0.6
1070
    50
1070
     1
1040
0.0
1000
ACAD_MTEXT_COLUMN_INFO_END
  0
MTEXT
  5
13A
330
122
100
AcDbEntity
  8
Titleblock
100
AcDbMText
 10
-2.0625
 20
1.045477
 30
0.0
 40
0.075
 41
0.375
 46
0.0
 71
     1
 72
     5
  1
Scale:
 73
     1
 44
1.0
1001
ACAD
1000
ACAD_MTEXT_COLUMN_INFO_BEGIN
1070
    75
1070
     2
1070
    79
1070
     0
1070
    76
1070
     1
1070
    78
1070
     0
1070
    48
1040
0.375
1070
    49
1040
0.6
1070
    50
1070
     1
1040
0.0
1000
ACAD_MTEXT_COLUMN_INFO_END
  0
MTEXT
  5
13B
330
122
100
AcDbEntity
  8
Titleblock
100
AcDbMText
 10
-2.0625
 20
0.857735
 30
0.0
 40
0.075
 41
0.375
 46
0.0
 71
     1
 72
     5
  1
Date Drawn:
 73
     1
 44
1.0
1001
ACAD
1000
ACAD_MTEXT_COLUMN_INFO_BEGIN
1070
    75
1070
     2
1070
    79
1070
     0
1070
    76
1070
     1
1070
    78
1070
     0
1070
    48
1040
0.375
1070
    49
1040
0.6
1070
    50
1070
     1
1040
0.0
1000
ACAD_MTEXT_COLUMN_INFO_END
  0
LINE
  5
13C
330
122
100
AcDbEntity
  8
Titleblock
100
AcDbLine
 10
-2.125
 20
0.875
 30
0.0
 11
0.0
 21
0.875
 31
0.0
  0
LINE
  5
13D
330
122
100
AcDbEntity
  8
Titleblock
100
AcDbLine
 10
-2.125
 20
0.625
 30
0.0
 11
0.0
 21
0.625
 31
0.0
  0
MTEXT
  5
13E
330
122
100
AcDbEntity
  8
Titleblock
100
AcDbMText
 10
-4.875
 20
2.220603
 30
0.0
 40
0.12
 41
0.625
 46
0.0
 71
     1
 72
     5
  1
Title:
 73
     1
 44
1.0
1001
ACAD
1000
ACAD_MTEXT_COLUMN_INFO_BEGIN
1070
    75
1070
     2
1070
    79
1070
     0
1070
    76
1070
     1
1070
    78
1070
     0
1070
    48
1040
0.625
1070
    49
1040
0.6
1070
    50
1070
     1
1040
0.0
1000
ACAD_MTEXT_COLUMN_INFO_END
  0
ENDBLK
  5
13F
330
122
100
AcDbEntity
  8
0
100
AcDbBlockEnd
  0
BLOCK
  5
148
330
147
100
AcDbEntity
  8
0
100
AcDbBlockBegin
  2
ANSI_B_SHEET
 70
     0
 10
0.0
 20
0.0
 30
0.0
  3
ANSI_B_SHEET
  1

  0
LINE
  5
149
330
147
100
AcDbEntity
  8
Border
100
AcDbLine
 10
0.0
 20
0.0
 30
0.0
 11
0.5
 21
0.0
 31
0.0
  0
LINE
  5
14A
330
147
100
AcDbEntity
  8
Border
100
AcDbLine
 10
16.5
 20
0.0
 30
0.0
 11
17.0
 21
0.0
 31
0.0
  0
LINE
  5
14B
330
147
100
AcDbEntity
  8
Border
100
AcDbLine
 10
0.62
 20
0.38
 30
0.0
 11
16.38
 21
0.38
 31
0.0
  0
LINE
  5
14C
330
147
100
AcDbEntity
  8
Border
100
AcDbLine
 10
17.0
 20
0.0
 30
0.0
 11
17.0
 21
0.5
 31
0.0
  0
LINE
  5
14D
330
147
100
AcDbEntity
  8
Border
100
AcDbLine
 10
17.0
 20
10.5
 30
0.0
 11
17.0
 21
11.0
 31
0.0
  0
LINE
  5
14E
330
147
100
AcDbEntity
  8
Border
100
AcDbLine
 10
16.38
 20
0.38
 30
0.0
 11
16.38
 21
10.62
 31
0.0
  0
LINE
  5
14F
330
147
100
AcDbEntity
  8
Border
100
AcDbLine
 10
17.0
 20
11.0
 30
0.0
 11
16.5
 21
11.0
 31
0.0
  0
LINE
  5
150
330
147
100
AcDbEntity
  8
Border
100
AcDbLine
 10
0.5
 20
11.0
 30
0.0
 11
0.0
 21
11.0
 31
0.0
  0
LINE
  5
151
330
147
100
AcDbEntity
  8
Border
100
AcDbLine
 10
16.38
 20
10.62
 30
0.0
 11
0.62
 21
10.62
 31
0.0
  0
LINE
  5
152
330
147
100
AcDbEntity
  8
Border
100
AcDbLine
 10
0.0
 20
11.0
 30
0.0
 11
0.0
 21
10.5
 31
0.0
  0
LINE
  5
153
330
147
100
AcDbEntity
  8
Border
100
AcDbLine
 10
0.0
 20
0.5
 30
0.0
 11
0.0
 21
0.0
 31
0.0
  0
LINE
  5
154
330
147
100
AcDbEntity
  8
Border
100
AcDbLine
 10
0.62
 20
10.62
 30
0.0
 11
0.62
 21
0.38
 31
0.0
  0
LINE
  5
155
330
147
100
AcDbEntity
  8
Border
100
AcDbLine
 10
8.413397
 20
0.23
 30
0.0
 11
8.586603
 21
0.23
 31
0.0
  0
LINE
  5
156
330
147
100
AcDbEntity
  8
Border
100
AcDbLine
 10
8.5
 20
0.38
 30
0.0
 11
8.5
 21
0.13
 31
0.0
  0
LINE
  5
157
330
147
100
AcDbEntity
  8
Border
100
AcDbLine
 10
8.5
 20
0.38
 30
0.0
 11
8.413397
 21
0.23
 31
0.0
  0
LINE
  5
158
330
147
100
AcDbEntity
  8
Border
100
AcDbLine
 10
8.5
 20
0.38
 30
0.0
 11
8.586603
 21
0.23
 31
0.0
  0
LINE
  5
159
330
147
100
AcDbEntity
  8
Border
100
AcDbLine
 10
0.47
 20
5.586603
 30
0.0
 11
0.47
 21
5.413397
 31
0.0
  0
LINE
  5
15A
330
147
100
AcDbEntity
  8
Border
100
AcDbLine
 10
0.62
 20
5.5
 30
0.0
 11
0.37
 21
5.5
 31
0.0
  0
LINE
  5
15B
330
147
100
AcDbEntity
  8
Border
100
AcDbLine
 10
0.62
 20
5.5
 30
0.0
 11
0.47
 21
5.586603
 31
0.0
  0
LINE
  5
15C
330
147
100
AcDbEntity
  8
Border
100
AcDbLine
 10
0.62
 20
5.5
 30
0.0
 11
0.47
 21
5.413397
 31
0.0
  0
LINE
  5
15D
330
147
100
AcDbEntity
  8
Border
100
AcDbLine
 10
16.53
 20
5.586603
 30
0.0
 11
16.53
 21
5.413397
 31
0.0
  0
LINE
  5
15E
330
147
100
AcDbEntity
  8
Border
100
AcDbLine
 10
16.38
 20
5.5
 30
0.0
 11
16.63
 21
5.5
 31
0.0
  0
LINE
  5
15F
330
147
100
AcDbEntity
  8
Border
100
AcDbLine
 10
16.38
 20
5.5
 30
0.0
 11
16.53
 21
5.586603
 31
0.0
  0
LINE
  5
160
330
147
100
AcDbEntity
  8
Border
100
AcDbLine
 10
16.38
 20
5.5
 30
0.0
 11
16.53
 21
5.413397
 31
0.0
  0
LINE
  5
161
330
147
100
AcDbEntity
  8
Border
100
AcDbLine
 10
8.413397
 20
10.77
 30
0.0
 11
8.586603
 21
10.77
 31
0.0
  0
LINE
  5
162
330
147
100
AcDbEntity
  8
Border
100
AcDbLine
 10
8.5
 20
10.62
 30
0.0
 11
8.5
 21
10.87
 31
0.0
  0
LINE
  5
163
330
147
100
AcDbEntity
  8
Border
100
AcDbLine
 10
8.5
 20
10.62
 30
0.0
 11
8.413397
 21
10.77
 31
0.0
  0
LINE
  5
164
330
147
100
AcDbEntity
  8
Border
100
AcDbLine
 10
8.5
 20
10.62
 30
0.0
 11
8.586603
 21
10.77
 31
0.0
  0
ENDBLK
  5
165
330
147
100
AcDbEntity
  8
0
100
AcDbBlockEnd
  0
BLOCK
  5
169
330
168
100
AcDbEntity
  8
0
100
AcDbBlockBegin
  2
*D6
 70
     1
 10
0.0
 20
0.0
 30
0.0
  3
*D6
  1

  0
LINE
  5
16A
330
168
100
AcDbEntity
  8
Dimensions
440
 16777216
370
    -2
100
AcDbLine
 10
9.77059
 20
7.440066
 30
0.0
 11
9.77059
 21
8.168888
 31
0.0
  0
LINE
  5
16B
330
168
100
AcDbEntity
  8
Dimensions
440
 16777216
370
    -2
100
AcDbLine
 10
7.22941
 20
7.440066
 30
0.0
 11
7.22941
 21
8.168888
 31
0.0
  0
LINE
  5
16C
330
168
100
AcDbEntity
  8
Dimensions
440
 16777216
370
    -2
100
AcDbLine
 10
9.65059
 20
8.068888
 30
0.0
 11
8.78015
 21
8.068888
 31
0.0
  0
LINE
  5
16D
330
168
100
AcDbEntity
  8
Dimensions
440
 16777216
370
    -2
100
AcDbLine
 10
7.34941
 20
8.068888
 30
0.0
 11
8.21985
 21
8.068888
 31
0.0
  0
SOLID
  5
16E
330
168
100
AcDbEntity
  8
Dimensions
440
 16777216
100
AcDbTrace
 10
9.65059
 20
8.088888
 30
0.0
 11
9.65059
 21
8.048888
 31
0.0
 12
9.77059
 22
8.068888
 32
0.0
 13
9.77059
 23
8.068888
 33
0.0
  0
SOLID
  5
16F
330
168
100
AcDbEntity
  8
Dimensions
440
 16777216
100
AcDbTrace
 10
7.34941
 20
8.088888
 30
0.0
 11
7.34941
 21
8.048888
 31
0.0
 12
7.22941
 22
8.068888
 32
0.0
 13
7.22941
 23
8.068888
 33
0.0
  0
MTEXT
  5
170
330
168
100
AcDbEntity
  8
Dimensions
440
 16777216
100
AcDbMText
 10
8.5
 20
8.068888
 30
0.0
 40
0.12
 41
0.0
 46
0.0
 71
     5
 72
     1
  1
\A1;2.54in
 73
     1
 44
1.0
  0
POINT
  5
171
330
168
100
AcDbEntity
  8
Defpoints
 62
     0
440
 16777216
100
AcDbPoint
 10
9.77059
 20
7.390066
 30
0.0
  0
POINT
  5
172
330
168
100
AcDbEntity
  8
Defpoints
 62
     0
440
 16777216
100
AcDbPoint
 10
7.22941
 20
7.390066
 30
0.0
  0
POINT
  5
173
330
168
100
AcDbEntity
  8
Defpoints
 62
     0
440
 16777216
100
AcDbPoint
 10
7.22941
 20
8.068888
 30
0.0
  0
ENDBLK
  5
174
330
168
100
AcDbEntity
  8
0
100
AcDbBlockEnd
  0
BLOCK
  5
177
330
176
100
AcDbEntity
  8
0
100
AcDbBlockBegin
  2
*D7
 70
     1
 10
0.0
 20
0.0
 30
0.0
  3
*D7
  1

  0
LINE
  5
178
330
176
100
AcDbEntity
  8
Dimensions
440
 16777216
370
    -2
100
AcDbLine
 10
14.934637
 20
5.444003
 30
0.0
 11
14.934637
 21
6.172825
 31
0.0
  0
LINE
  5
179
330
176
100
AcDbEntity
  8
Dimensions
440
 16777216
370
    -2
100
AcDbLine
 10
14.737786
 20
5.404633
 30
0.0
 11
14.737786
 21
6.172825
 31
0.0
  0
LINE
  5
17A
330
176
100
AcDbEntity
  8
Dimensions
440
 16777216
370
    -2
100
AcDbLine
 10
15.054637
 20
6.072825
 30
0.0
 11
15.174637
 21
6.072825
 31
0.0
  0
LINE
  5
17B
330
176
100
AcDbEntity
  8
Dimensions
440
 16777216
370
    -2
100
AcDbLine
 10
14.617786
 20
6.072825
 30
0.0
 11
14.497786
 21
6.072825
 31
0.0
  0
SOLID
  5
17C
330
176
100
AcDbEntity
  8
Dimensions
440
 16777216
100
AcDbTrace
 10
15.054637
 20
6.092825
 30
0.0
 11
15.054637
 21
6.052825
 31
0.0
 12
14.934637
 22
6.072825
 32
0.0
 13
14.934637
 23
6.072825
 33
0.0
  0
SOLID
  5
17D
330
176
100
AcDbEntity
  8
Dimensions
440
 16777216
100
AcDbTrace
 10
14.617786
 20
6.092825
 30
0.0
 11
14.617786
 21
6.052825
 31
0.0
 12
14.737786
 22
6.072825
 32
0.0
 13
14.737786
 23
6.072825
 33
0.0
  0
MTEXT
  5
17E
330
176
100
AcDbEntity
  8
Dimensions
440
 16777216
100
AcDbMText
 10
14.316026
 20
6.072825
 30
0.0
 40
0.12
 41
0.0
 46
0.0
 71
     5
 72
     1
  1
\A1;.2in
 73
     1
 44
1.0
  0
POINT
  5
17F
330
176
100
AcDbEntity
  8
Defpoints
 62
     0
440
 16777216
100
AcDbPoint
 10
14.934637
 20
5.394003
 30
0.0
  0
POINT
  5
180
330
176
100
AcDbEntity
  8
Defpoints
 62
     0
440
 16777216
100
AcDbPoint
 10
14.737786
 20
5.354633
 30
0.0
  0
POINT
  5
181
330
176
100
AcDbEntity
  8
Defpoints
 62
     0
440
 16777216
100
AcDbPoint
 10
14.737786
 20
6.072825
 30
0.0
  0
ENDBLK
  5
182
330
176
100
AcDbEntity
  8
0
100
AcDbBlockEnd
  0
BLOCK
  5
185
330
184
100
AcDbEntity
  8
0
100
AcDbBlockBegin
  2
*D8
 70
     1
 10
0.0
 20
0.0
 30
0.0
  3
*D8
  1

  0
LINE
  5
186
330
184
100
AcDbEntity
  8
Dimensions
440
 16777216
370
    -2
100
AcDbLine
 10
14.934637
 20
5.344003
 30
0.0
 11
14.934637
 21
2.952106
 31
0.0
  0
LINE
  5
187
330
184
100
AcDbEntity
  8
Dimensions
440
 16777216
370
    -2
100
AcDbLine
 10
12.212196
 20
4.359751
 30
0.0
 11
12.212196
 21
2.952106
 31
0.0
  0
LINE
  5
188
330
184
100
AcDbEntity
  8
Dimensions
440
 16777216
370
    -2
100
AcDbLine
 10
14.814637
 20
3.052106
 30
0.0
 11
13.853566
 21
3.052106
 31
0.0
  0
LINE
  5
189
330
184
100
AcDbEntity
  8
Dimensions
440
 16777216
370
    -2
100
AcDbLine
 10
12.332196
 20
3.052106
 30
0.0
 11
13.293266
 21
3.052106
 31
0.0
  0
SOLID
  5
18A
330
184
100
AcDbEntity
  8
Dimensions
440
 16777216
100
AcDbTrace
 10
14.814637
 20
3.072106
 30
0.0
 11
14.814637
 21
3.032106
 31
0.0
 12
14.934637
 22
3.052106
 32
0.0
 13
14.934637
 23
3.052106
 33
0.0
  0
SOLID
  5
18B
330
184
100
AcDbEntity
  8
Dimensions
440
 16777216
100
AcDbTrace
 10
12.332196
 20
3.072106
 30
0.0
 11
12.332196
 21
3.032106
 31
0.0
 12
12.212196
 22
3.052106
 32
0.0
 13
12.212196
 23
3.052106
 33
0.0
  0
MTEXT
  5
18C
330
184
100
AcDbEntity
  8
Dimensions
440
 16777216
100
AcDbMText
 10
13.573416
 20
3.052106
 30
0.0
 40
0.12
 41
0.0
 46
0.0
 71
     5
 72
     1
  1
\A1;2.72in
 73
     1
 44
1.0
  0
POINT
  5
18D
330
184
100
AcDbEntity
  8
Defpoints
 62
     0
440
 16777216
100
AcDbPoint
 10
14.934637
 20
5.394003
 30
0.0
  0
POINT
  5
18E
330
184
100
AcDbEntity
  8
Defpoints
 62
     0
440
 16777216
100
AcDbPoint
 10
12.212196
 20
4.409751
 30
0.0
  0
POINT
  5
18F
330
184
100
AcDbEntity
  8
Defpoints
 62
     0
440
 16777216
100
AcDbPoint
 10
12.212196
 20
3.052106
 30
0.0
  0
ENDBLK
  5
190
330
184
100
AcDbEntity
  8
0
100
AcDbBlockEnd
  0
BLOCK
  5
193
330
192
100
AcDbEntity
  8
0
100
AcDbBlockBegin
  2
*D9
 70
     1
 10
0.0
 20
0.0
 30
0.0
  3
*D9
  1

  0
LINE
  5
194
330
192
100
AcDbEntity
  8
Dimensions
440
 16777216
370
    -2
100
AcDbLine
 10
11.635007
 20
8.556854
 30
0.0
 11
11.755007
 21
8.556854
 31
0.0
  0
LINE
  5
195
330
192
100
AcDbEntity
  8
Dimensions
440
 16777216
370
    -2
100
AcDbLine
 10
11.755007
 20
8.556854
 30
0.0
 11
11.887653
 21
8.498788
 31
0.0
  0
MTEXT
  5
196
330
192
100
AcDbEntity
  8
Dimensions
440
 16777216
100
AcDbMText
 10
11.337217
 20
8.556854
 30
0.0
 40
0.12
 41
0.0
 46
0.0
 71
     5
 72
     1
  1
\A1;∅1.5in
 73
     1
 44
1.0
  0
SOLID
  5
197
330
192
100
AcDbEntity
  8
Dimensions
440
 16777216
100
AcDbTrace
 10
11.895673
 20
8.51711
 30
0.0
 11
11.879633
 21
8.480467
 31
0.0
 12
11.997582
 22
8.450667
 32
0.0
 13
11.997582
 23
8.450667
 33
0.0
  0
ARC
  5
198
330
192
100
AcDbEntity
  8
Dimensions
440
 16777216
370
    -2
100
AcDbCircle
 10
12.684637
 20
8.149908
 30
0.0
 40
0.750000000000016
100
AcDbArc
 50
148.719149
 51
226.79221
  0
POINT
  5
199
330
192
100
AcDbEntity
  8
Defpoints
 62
     0
440
 16777216
100
AcDbPoint
 10
11.997582
 20
8.450667
 30
0.0
  0
POINT
  5
19A
330
192
100
AcDbEntity
  8
Defpoints
 62
     0
440
 16777216
100
AcDbPoint
 10
13.371691
 20
7.84915
 30
0.0
  0
ENDBLK
  5
19B
330
192
100
AcDbEntity
  8
0
100
AcDbBlockEnd
  0
BLOCK
  5
19E
330
19D
100
AcDbEntity
  8
0
100
AcDbBlockBegin
  2
*D10
 70
     1
 10
0.0
 20
0.0
 30
0.0
  3
*D10
  1

  0
LINE
  5
19F
330
19D
100
AcDbEntity
  8
Dimensions
440
 16777216
370
    -2
100
AcDbLine
 10
9.784558
 20
4.586036
 30
0.0
 11
9.106442
 21
4.492975
 31
0.0
  0
MTEXT
  5
1A0
330
19D
100
AcDbEntity
  8
Dimensions
440
 16777216
100
AcDbMText
 10
10.082348
 20
4.586036
 30
0.0
 40
0.12
 41
0.0
 46
0.0
 71
     5
 72
     1
  1
\A1;∅.98in
 73
     1
 44
1.0
  0
SOLID
  5
1A1
330
19D
100
AcDbEntity
  8
Dimensions
440
 16777216
100
AcDbTrace
 10
9.103723
 20
4.51279
 30
0.0
 11
9.109161
 21
4.473161
 31
0.0
 12
8.987556
 22
4.47666
 32
0.0
 13
8.987556
 23
4.47666
 33
0.0
  0
POINT
  5
1A2
330
19D
100
AcDbEntity
  8
Defpoints
 62
     0
440
 16777216
100
AcDbPoint
 10
8.987556
 20
4.47666
 30
0.0
  0
POINT
  5
1A3
330
19D
100
AcDbEntity
  8
Defpoints
 62
     0
440
 16777216
100
AcDbPoint
 10
8.012444
 20
4.342841
 30
0.0
  0
ENDBLK
  5
1A4
330
19D
100
AcDbEntity
  8
0
100
AcDbBlockEnd
  0
BLOCK
  5
1A7
330
1A6
100
AcDbEntity
  8
0
100
AcDbBlockBegin
  2
*D11
 70
     1
 10
0.0
 20
0.0
 30
0.0
  3
*D11
  1

  0
LINE
  5
1A8
330
1A6
100
AcDbEntity
  8
Dimensions
440
 16777216
370
    -2
100
AcDbLine
 10
9.45933
 20
5.476035
 30
0.0
 11
9.33933
 21
5.476035
 31
0.0
  0
LINE
  5
1A9
330
1A6
100
AcDbEntity
  8
Dimensions
440
 16777216
370
    -2
100
AcDbLine
 10
9.33933
 20
5.476035
 30
0.0
 11
9.183003
 21
5.277437
 31
0.0
  0
MTEXT
  5
1AA
330
1A6
100
AcDbEntity
  8
Dimensions
440
 16777216
100
AcDbMText
 10
9.803737
 20
5.476035
 30
0.0
 40
0.12
 41
0.0
 46
0.0
 71
     5
 72
     1
  1
\A1;∅1.97in
 73
     1
 44
1.0
  0
SOLID
  5
1AB
330
1A6
100
AcDbEntity
  8
Dimensions
440
 16777216
100
AcDbTrace
 10
9.167288
 20
5.289807
 30
0.0
 11
9.198718
 21
5.265067
 31
0.0
 12
9.10878
 22
5.183145
 32
0.0
 13
9.10878
 23
5.183145
 33
0.0
  0
POINT
  5
1AC
330
1A6
100
AcDbEntity
  8
Defpoints
 62
     0
440
 16777216
100
AcDbPoint
 10
9.10878
 20
5.183145
 30
0.0
  0
POINT
  5
1AD
330
1A6
100
AcDbEntity
  8
Defpoints
 62
     0
440
 16777216
100
AcDbPoint
 10
7.89122
 20
3.636357
 30
0.0
  0
ENDBLK
  5
1AE
330
1A6
100
AcDbEntity
  8
0
100
AcDbBlockEnd
  0
BLOCK
  5
1B1
330
1B0
100
AcDbEntity
  8
0
100
AcDbBlockBegin
  2
*D12
 70
     1
 10
0.0
 20
0.0
 30
0.0
  3
*D12
  1

  0
LINE
  5
1B2
330
1B0
100
AcDbEntity
  8
Dimensions
440
 16777216
370
    -2
100
AcDbLine
 10
8.775591
 20
3.497304
 30
0.0
 11
8.775591
 21
2.790115
 31
0.0
  0
LINE
  5
1B3
330
1B0
100
AcDbEntity
  8
Dimensions
440
 16777216
370
    -2
100
AcDbLine
 10
8.224409
 20
3.497304
 30
0.0
 11
8.224409
 21
2.790115
 31
0.0
  0
LINE
  5
1B4
330
1B0
100
AcDbEntity
  8
Dimensions
440
 16777216
370
    -2
100
AcDbLine
 10
8.895591
 20
2.890115
 30
0.0
 11
9.015591
 21
2.890115
 31
0.0
  0
LINE
  5
1B5
330
1B0
100
AcDbEntity
  8
Dimensions
440
 16777216
370
    -2
100
AcDbLine
 10
8.104409
 20
2.890115
 30
0.0
 11
7.984409
 21
2.890115
 31
0.0
  0
SOLID
  5
1B6
330
1B0
100
AcDbEntity
  8
Dimensions
440
 16777216
100
AcDbTrace
 10
8.895591
 20
2.910115
 30
0.0
 11
8.895591
 21
2.870115
 31
0.0
 12
8.775591
 22
2.890115
 32
0.0
 13
8.775591
 23
2.890115
 33
0.0
  0
SOLID
  5
1B7
330
1B0
100
AcDbEntity
  8
Dimensions
440
 16777216
100
AcDbTrace
 10
8.104409
 20
2.910115
 30
0.0
 11
8.104409
 21
2.870115
 31
0.0
 12
8.224409
 22
2.890115
 32
0.0
 13
8.224409
 23
2.890115
 33
0.0
  0
MTEXT
  5
1B8
330
1B0
100
AcDbEntity
  8
Dimensions
440
 16777216
100
AcDbMText
 10
8.5
 20
2.890115
 30
0.0
 40
0.12
 41
0.0
 46
0.0
 71
     5
 72
     1
  1
\A1;.55in
 73
     1
 44
1.0
  0
POINT
  5
1B9
330
1B0
100
AcDbEntity
  8
Defpoints
 62
     0
440
 16777216
100
AcDbPoint
 10
8.775591
 20
3.547304
 30
0.0
  0
POINT
  5
1BA
330
1B0
100
AcDbEntity
  8
Defpoints
 62
     0
440
 16777216
100
AcDbPoint
 10
8.224409
 20
3.547304
 30
0.0
  0
POINT
  5
1BB
330
1B0
100
AcDbEntity
  8
Defpoints
 62
     0
440
 16777216
100
AcDbPoint
 10
8.224409
 20
2.890115
 30
0.0
  0
ENDBLK
  5
1BC
330
1B0
100
AcDbEntity
  8
0
100
AcDbBlockEnd
  0
BLOCK
  5
1C0
330
1BF
100
AcDbEntity
  8
0
100
AcDbBlockBegin
  2
*U13
 70
     1
 10
0.0
 20
0.0
 30
0.0
  3
*U13
  1

  0
LINE
  5
1C1
330
1BF
100
AcDbEntity
  8
Center Lines
 62
     0
440
 16777216
 48
0.75
100
AcDbLine
 10
0.0
 20
2.004936
 30
0.0
 11
0.0
 21
-1.992908
 31
0.0
  0
ENDBLK
  5
1C2
330
1BF
100
AcDbEntity
  8
0
100
AcDbBlockEnd
  0
BLOCK
  5
1C5
330
1C4
100
AcDbEntity
  8
0
100
AcDbBlockBegin
  2
*D14
 70
     1
 10
0.0
 20
0.0
 30
0.0
  3
*D14
  1

  0
LINE
  5
1C6
330
1C4
100
AcDbEntity
  8
Dimensions
440
 16777216
370
    -2
100
AcDbLine
 10
14.934637
 20
5.444003
 30
0.0
 11
14.934637
 21
8.113064
 31
0.0
  0
LINE
  5
1C7
330
1C4
100
AcDbEntity
  8
Dimensions
440
 16777216
370
    -2
100
AcDbLine
 10
12.684637
 20
7.475148
 30
0.0
 11
12.684637
 21
8.113064
 31
0.0
  0
LINE
  5
1C8
330
1C4
100
AcDbEntity
  8
Dimensions
440
 16777216
370
    -2
100
AcDbLine
 10
14.814637
 20
8.013064
 30
0.0
 11
14.089787
 21
8.013064
 31
0.0
  0
LINE
  5
1C9
330
1C4
100
AcDbEntity
  8
Dimensions
440
 16777216
370
    -2
100
AcDbLine
 10
12.804637
 20
8.013064
 30
0.0
 11
13.529487
 21
8.013064
 31
0.0
  0
SOLID
  5
1CA
330
1C4
100
AcDbEntity
  8
Dimensions
440
 16777216
100
AcDbTrace
 10
14.814637
 20
8.033064
 30
0.0
 11
14.814637
 21
7.993064
 31
0.0
 12
14.934637
 22
8.013064
 32
0.0
 13
14.934637
 23
8.013064
 33
0.0
  0
SOLID
  5
1CB
330
1C4
100
AcDbEntity
  8
Dimensions
440
 16777216
100
AcDbTrace
 10
12.804637
 20
8.033064
 30
0.0
 11
12.804637
 21
7.993064
 31
0.0
 12
12.684637
 22
8.013064
 32
0.0
 13
12.684637
 23
8.013064
 33
0.0
  0
MTEXT
  5
1CC
330
1C4
100
AcDbEntity
  8
Dimensions
440
 16777216
100
AcDbMText
 10
13.809637
 20
8.013064
 30
0.0
 40
0.12
 41
0.0
 46
0.0
 71
     5
 72
     1
  1
\A1;2.25in
 73
     1
 44
1.0
  0
POINT
  5
1CD
330
1C4
100
AcDbEntity
  8
Defpoints
 62
     0
440
 16777216
100
AcDbPoint
 10
14.934637
 20
5.394003
 30
0.0
  0
POINT
  5
1CE
330
1C4
100
AcDbEntity
  8
Defpoints
 62
     0
440
 16777216
100
AcDbPoint
 10
12.684637
 20
7.425148
 30
0.0
  0
POINT
  5
1CF
330
1C4
100
AcDbEntity
  8
Defpoints
 62
     0
440
 16777216
100
AcDbPoint
 10
12.684637
 20
8.013064
 30
0.0
  0
ENDBLK
  5
1D0
330
1C4
100
AcDbEntity
  8
0
100
AcDbBlockEnd
  0
BLOCK
  5
1D3
330
1D2
100
AcDbEntity
  8
0
100
AcDbBlockBegin
  2
*D15
 70
     1
 10
0.0
 20
0.0
 30
0.0
  3
*D15
  1

  0
LINE
  5
3A6
330
1D2
100
AcDbEntity
  8
Dimensions
440
 16777216
370
    -2
100
AcDbLine
 10
9.77059
 20
7.440066
 30
0.0
 11
9.77059
 21
8.168888
 31
0.0
  0
LINE
  5
3A7
330
1D2
100
AcDbEntity
  8
Dimensions
440
 16777216
370
    -2
100
AcDbLine
 10
7.22941
 20
7.440066
 30
0.0
 11
7.22941
 21
8.168888
 31
0.0
  0
LINE
  5
3A8
330
1D2
100
AcDbEntity
  8
Dimensions
440
 16777216
370
    -2
100
AcDbLine
 10
9.65059
 20
8.068888
 30
0.0
 11
8.78015
 21
8.068888
 31
0.0
  0
LINE
  5
3A9
330
1D2
100
AcDbEntity
  8
Dimensions
440
 16777216
370
    -2
100
AcDbLine
 10
7.34941
 20
8.068888
 30
0.0
 11
8.21985
 21
8.068888
 31
0.0
  0
SOLID
  5
3AA
330
1D2
100
AcDbEntity
  8
Dimensions
440
 16777216
100
AcDbTrace
 10
9.65059
 20
8.088888
 30
0.0
 11
9.65059
 21
8.048888
 31
0.0
 12
9.77059
 22
8.068888
 32
0.0
 13
9.77059
 23
8.068888
 33
0.0
  0
SOLID
  5
3AB
330
1D2
100
AcDbEntity
  8
Dimensions
440
 16777216
100
AcDbTrace
 10
7.34941
 20
8.088888
 30
0.0
 11
7.34941
 21
8.048888
 31
0.0
 12
7.22941
 22
8.068888
 32
0.0
 13
7.22941
 23
8.068888
 33
0.0
  0
MTEXT
  5
3AC
330
1D2
100
AcDbEntity
  8
Dimensions
440
 16777216
100
AcDbMText
 10
8.5
 20
8.068888
 30
0.0
 40
0.12
 41
0.0
 46
0.0
 71
     5
 72
     1
  1
\A1;2.54in
 73
     1
 44
1.0
  0
POINT
  5
3AD
330
1D2
100
AcDbEntity
  8
Defpoints
 62
     0
440
 16777216
100
AcDbPoint
 10
9.77059
 20
7.390066
 30
0.0
  0
POINT
  5
3AE
330
1D2
100
AcDbEntity
  8
Defpoints
 62
     0
440
 16777216
100
AcDbPoint
 10
7.22941
 20
7.390066
 30
0.0
  0
POINT
  5
3AF
330
1D2
100
AcDbEntity
  8
Defpoints
 62
     0
440
 16777216
100
AcDbPoint
 10
7.22941
 20
8.068888
 30
0.0
  0
ENDBLK
  5
1D4
330
1D2
100
AcDbEntity
  8
0
100
AcDbBlockEnd
  0
BLOCK
  5
1E0
330
1DF
100
AcDbEntity
  8
0
100
AcDbBlockBegin
  2
*D16
 70
     1
 10
0.0
 20
0.0
 30
0.0
  3
*D16
  1

  0
LINE
  5
3B0
330
1DF
100
AcDbEntity
  8
Dimensions
440
 16777216
370
    -2
100
AcDbLine
 10
14.934637
 20
5.444003
 30
0.0
 11
14.934637
 21
6.172825
 31
0.0
  0
LINE
  5
3B1
330
1DF
100
AcDbEntity
  8
Dimensions
440
 16777216
370
    -2
100
AcDbLine
 10
14.737786
 20
5.404633
 30
0.0
 11
14.737786
 21
6.172825
 31
0.0
  0
LINE
  5
3B2
330
1DF
100
AcDbEntity
  8
Dimensions
440
 16777216
370
    -2
100
AcDbLine
 10
15.054637
 20
6.072825
 30
0.0
 11
15.174637
 21
6.072825
 31
0.0
  0
LINE
  5
3B3
330
1DF
100
AcDbEntity
  8
Dimensions
440
 16777216
370
    -2
100
AcDbLine
 10
14.617786
 20
6.072825
 30
0.0
 11
14.497786
 21
6.072825
 31
0.0
  0
SOLID
  5
3B4
330
1DF
100
AcDbEntity
  8
Dimensions
440
 16777216
100
AcDbTrace
 10
15.054637
 20
6.092825
 30
0.0
 11
15.054637
 21
6.052825
 31
0.0
 12
14.934637
 22
6.072825
 32
0.0
 13
14.934637
 23
6.072825
 33
0.0
  0
SOLID
  5
3B5
330
1DF
100
AcDbEntity
  8
Dimensions
440
 16777216
100
AcDbTrace
 10
14.617786
 20
6.092825
 30
0.0
 11
14.617786
 21
6.052825
 31
0.0
 12
14.737786
 22
6.072825
 32
0.0
 13
14.737786
 23
6.072825
 33
0.0
  0
MTEXT
  5
3B6
330
1DF
100
AcDbEntity
  8
Dimensions
440
 16777216
100
AcDbMText
 10
14.316026
 20
6.072825
 30
0.0
 40
0.12
 41
0.0
 46
0.0
 71
     5
 72
     1
  1
\A1;.2in
 73
     1
 44
1.0
  0
POINT
  5
3B7
330
1DF
100
AcDbEntity
  8
Defpoints
 62
     0
440
 16777216
100
AcDbPoint
 10
14.934637
 20
5.394003
 30
0.0
  0
POINT
  5
3B8
330
1DF
100
AcDbEntity
  8
Defpoints
 62
     0
440
 16777216
100
AcDbPoint
 10
14.737786
 20
5.354633
 30
0.0
  0
POINT
  5
3B9
330
1DF
100
AcDbEntity
  8
Defpoints
 62
     0
440
 16777216
100
AcDbPoint
 10
14.737786
 20
6.072825
 30
0.0
  0
ENDBLK
  5
1E1
330
1DF
100
AcDbEntity
  8
0
100
AcDbBlockEnd
  0
BLOCK
  5
1ED
330
1EC
100
AcDbEntity
  8
0
100
AcDbBlockBegin
  2
*D17
 70
     1
 10
0.0
 20
0.0
 30
0.0
  3
*D17
  1

  0
LINE
  5
3BA
330
1EC
100
AcDbEntity
  8
Dimensions
440
 16777216
370
    -2
100
AcDbLine
 10
14.934637
 20
5.344003
 30
0.0
 11
14.934637
 21
2.952106
 31
0.0
  0
LINE
  5
3BB
330
1EC
100
AcDbEntity
  8
Dimensions
440
 16777216
370
    -2
100
AcDbLine
 10
12.212196
 20
4.359751
 30
0.0
 11
12.212196
 21
2.952106
 31
0.0
  0
LINE
  5
3BC
330
1EC
100
AcDbEntity
  8
Dimensions
440
 16777216
370
    -2
100
AcDbLine
 10
14.814637
 20
3.052106
 30
0.0
 11
13.853566
 21
3.052106
 31
0.0
  0
LINE
  5
3BD
330
1EC
100
AcDbEntity
  8
Dimensions
440
 16777216
370
    -2
100
AcDbLine
 10
12.332196
 20
3.052106
 30
0.0
 11
13.293266
 21
3.052106
 31
0.0
  0
SOLID
  5
3BE
330
1EC
100
AcDbEntity
  8
Dimensions
440
 16777216
100
AcDbTrace
 10
14.814637
 20
3.072106
 30
0.0
 11
14.814637
 21
3.032106
 31
0.0
 12
14.934637
 22
3.052106
 32
0.0
 13
14.934637
 23
3.052106
 33
0.0
  0
SOLID
  5
3BF
330
1EC
100
AcDbEntity
  8
Dimensions
440
 16777216
100
AcDbTrace
 10
12.332196
 20
3.072106
 30
0.0
 11
12.332196
 21
3.032106
 31
0.0
 12
12.212196
 22
3.052106
 32
0.0
 13
12.212196
 23
3.052106
 33
0.0
  0
MTEXT
  5
3C0
330
1EC
100
AcDbEntity
  8
Dimensions
440
 16777216
100
AcDbMText
 10
13.573416
 20
3.052106
 30
0.0
 40
0.12
 41
0.0
 46
0.0
 71
     5
 72
     1
  1
\A1;2.72in
 73
     1
 44
1.0
  0
POINT
  5
3C1
330
1EC
100
AcDbEntity
  8
Defpoints
 62
     0
440
 16777216
100
AcDbPoint
 10
14.934637
 20
5.394003
 30
0.0
  0
POINT
  5
3C2
330
1EC
100
AcDbEntity
  8
Defpoints
 62
     0
440
 16777216
100
AcDbPoint
 10
12.212196
 20
4.409751
 30
0.0
  0
POINT
  5
3C3
330
1EC
100
AcDbEntity
  8
Defpoints
 62
     0
440
 16777216
100
AcDbPoint
 10
12.212196
 20
3.052106
 30
0.0
  0
ENDBLK
  5
1EE
330
1EC
100
AcDbEntity
  8
0
100
AcDbBlockEnd
  0
BLOCK
  5
1FA
330
1F9
100
AcDbEntity
  8
0
100
AcDbBlockBegin
  2
*D18
 70
     1
 10
0.0
 20
0.0
 30
0.0
  3
*D18
  1

  0
LINE
  5
3C4
330
1F9
100
AcDbEntity
  8
Dimensions
440
 16777216
370
    -2
100
AcDbLine
 10
11.635007
 20
8.556854
 30
0.0
 11
11.755007
 21
8.556854
 31
0.0
  0
LINE
  5
3C5
330
1F9
100
AcDbEntity
  8
Dimensions
440
 16777216
370
    -2
100
AcDbLine
 10
11.755007
 20
8.556854
 30
0.0
 11
11.887653
 21
8.498788
 31
0.0
  0
MTEXT
  5
3C6
330
1F9
100
AcDbEntity
  8
Dimensions
440
 16777216
100
AcDbMText
 10
11.337217
 20
8.556854
 30
0.0
 40
0.12
 41
0.0
 46
0.0
 71
     5
 72
     1
  1
\A1;∅1.5in
 73
     1
 44
1.0
  0
SOLID
  5
3C7
330
1F9
100
AcDbEntity
  8
Dimensions
440
 16777216
100
AcDbTrace
 10
11.895673
 20
8.51711
 30
0.0
 11
11.879633
 21
8.480467
 31
0.0
 12
11.997582
 22
8.450667
 32
0.0
 13
11.997582
 23
8.450667
 33
0.0
  0
ARC
  5
3C8
330
1F9
100
AcDbEntity
  8
Dimensions
440
 16777216
370
    -2
100
AcDbCircle
 10
12.684637
 20
8.149908
 30
0.0
 40
0.7500000000000178
100
AcDbArc
 50
148.719149
 51
226.79221
  0
POINT
  5
3C9
330
1F9
100
AcDbEntity
  8
Defpoints
 62
     0
440
 16777216
100
AcDbPoint
 10
11.997582
 20
8.450667
 30
0.0
  0
POINT
  5
3CA
330
1F9
100
AcDbEntity
  8
Defpoints
 62
     0
440
 16777216
100
AcDbPoint
 10
13.371691
 20
7.84915
 30
0.0
  0
ENDBLK
  5
1FB
330
1F9
100
AcDbEntity
  8
0
100
AcDbBlockEnd
  0
BLOCK
  5
204
330
203
100
AcDbEntity
  8
0
100
AcDbBlockBegin
  2
*D19
 70
     1
 10
0.0
 20
0.0
 30
0.0
  3
*D19
  1

  0
LINE
  5
3CB
330
203
100
AcDbEntity
  8
Dimensions
440
 16777216
370
    -2
100
AcDbLine
 10
9.784558
 20
4.586036
 30
0.0
 11
9.106442
 21
4.492975
 31
0.0
  0
MTEXT
  5
3CC
330
203
100
AcDbEntity
  8
Dimensions
440
 16777216
100
AcDbMText
 10
10.082348
 20
4.586036
 30
0.0
 40
0.12
 41
0.0
 46
0.0
 71
     5
 72
     1
  1
\A1;∅.98in
 73
     1
 44
1.0
  0
SOLID
  5
3CD
330
203
100
AcDbEntity
  8
Dimensions
440
 16777216
100
AcDbTrace
 10
9.103723
 20
4.51279
 30
0.0
 11
9.109161
 21
4.473161
 31
0.0
 12
8.987556
 22
4.47666
 32
0.0
 13
8.987556
 23
4.47666
 33
0.0
  0
POINT
  5
3CE
330
203
100
AcDbEntity
  8
Defpoints
 62
     0
440
 16777216
100
AcDbPoint
 10
8.987556
 20
4.47666
 30
0.0
  0
POINT
  5
3CF
330
203
100
AcDbEntity
  8
Defpoints
 62
     0
440
 16777216
100
AcDbPoint
 10
8.012444
 20
4.342841
 30
0.0
  0
ENDBLK
  5
205
330
203
100
AcDbEntity
  8
0
100
AcDbBlockEnd
  0
BLOCK
  5
20C
330
20B
100
AcDbEntity
  8
0
100
AcDbBlockBegin
  2
*D20
 70
     1
 10
0.0
 20
0.0
 30
0.0
  3
*D20
  1

  0
LINE
  5
3D0
330
20B
100
AcDbEntity
  8
Dimensions
440
 16777216
370
    -2
100
AcDbLine
 10
9.45933
 20
5.476035
 30
0.0
 11
9.33933
 21
5.476035
 31
0.0
  0
LINE
  5
3D1
330
20B
100
AcDbEntity
  8
Dimensions
440
 16777216
370
    -2
100
AcDbLine
 10
9.33933
 20
5.476035
 30
0.0
 11
9.183003
 21
5.277437
 31
0.0
  0
MTEXT
  5
3D2
330
20B
100
AcDbEntity
  8
Dimensions
440
 16777216
100
AcDbMText
 10
9.803737
 20
5.476035
 30
0.0
 40
0.12
 41
0.0
 46
0.0
 71
     5
 72
     1
  1
\A1;∅1.97in
 73
     1
 44
1.0
  0
SOLID
  5
3D3
330
20B
100
AcDbEntity
  8
Dimensions
440
 16777216
100
AcDbTrace
 10
9.167288
 20
5.289807
 30
0.0
 11
9.198718
 21
5.265067
 31
0.0
 12
9.10878
 22
5.183145
 32
0.0
 13
9.10878
 23
5.183145
 33
0.0
  0
POINT
  5
3D4
330
20B
100
AcDbEntity
  8
Defpoints
 62
     0
440
 16777216
100
AcDbPoint
 10
9.10878
 20
5.183145
 30
0.0
  0
POINT
  5
3D5
330
20B
100
AcDbEntity
  8
Defpoints
 62
     0
440
 16777216
100
AcDbPoint
 10
7.89122
 20
3.636357
 30
0.0
  0
ENDBLK
  5
20D
330
20B
100
AcDbEntity
  8
0
100
AcDbBlockEnd
  0
BLOCK
  5
215
330
214
100
AcDbEntity
  8
0
100
AcDbBlockBegin
  2
*D21
 70
     1
 10
0.0
 20
0.0
 30
0.0
  3
*D21
  1

  0
LINE
  5
3D6
330
214
100
AcDbEntity
  8
Dimensions
440
 16777216
370
    -2
100
AcDbLine
 10
8.775591
 20
3.497304
 30
0.0
 11
8.775591
 21
2.790115
 31
0.0
  0
LINE
  5
3D7
330
214
100
AcDbEntity
  8
Dimensions
440
 16777216
370
    -2
100
AcDbLine
 10
8.224409
 20
3.497304
 30
0.0
 11
8.224409
 21
2.790115
 31
0.0
  0
LINE
  5
3D8
330
214
100
AcDbEntity
  8
Dimensions
440
 16777216
370
    -2
100
AcDbLine
 10
8.895591
 20
2.890115
 30
0.0
 11
9.015591
 21
2.890115
 31
0.0
  0
LINE
  5
3D9
330
214
100
AcDbEntity
  8
Dimensions
440
 16777216
370
    -2
100
AcDbLine
 10
8.104409
 20
2.890115
 30
0.0
 11
7.984409
 21
2.890115
 31
0.0
  0
SOLID
  5
3DA
330
214
100
AcDbEntity
  8
Dimensions
440
 16777216
100
AcDbTrace
 10
8.895591
 20
2.910115
 30
0.0
 11
8.895591
 21
2.870115
 31
0.0
 12
8.775591
 22
2.890115
 32
0.0
 13
8.775591
 23
2.890115
 33
0.0
  0
SOLID
  5
3DB
330
214
100
AcDbEntity
  8
Dimensions
440
 16777216
100
AcDbTrace
 10
8.104409
 20
2.910115
 30
0.0
 11
8.104409
 21
2.870115
 31
0.0
 12
8.224409
 22
2.890115
 32
0.0
 13
8.224409
 23
2.890115
 33
0.0
  0
MTEXT
  5
3DC
330
214
100
AcDbEntity
  8
Dimensions
440
 16777216
100
AcDbMText
 10
8.5
 20
2.890115
 30
0.0
 40
0.12
 41
0.0
 46
0.0
 71
     5
 72
     1
  1
\A1;.55in
 73
     1
 44
1.0
  0
POINT
  5
3DD
330
214
100
AcDbEntity
  8
Defpoints
 62
     0
440
 16777216
100
AcDbPoint
 10
8.775591
 20
3.547304
 30
0.0
  0
POINT
  5
3DE
330
214
100
AcDbEntity
  8
Defpoints
 62
     0
440
 16777216
100
AcDbPoint
 10
8.224409
 20
3.547304
 30
0.0
  0
POINT
  5
3DF
330
214
100
AcDbEntity
  8
Defpoints
 62
     0
440
 16777216
100
AcDbPoint
 10
8.224409
 20
2.890115
 30
0.0
  0
ENDBLK
  5
216
330
214
100
AcDbEntity
  8
0
100
AcDbBlockEnd
  0
BLOCK
  5
222
330
221
100
AcDbEntity
  8
0
100
AcDbBlockBegin
  2
*D22
 70
     1
 10
0.0
 20
0.0
 30
0.0
  3
*D22
  1

  0
LINE
  5
3E0
330
221
100
AcDbEntity
  8
Dimensions
440
 16777216
370
    -2
100
AcDbLine
 10
14.934637
 20
5.444003
 30
0.0
 11
14.934637
 21
8.113064
 31
0.0
  0
LINE
  5
3E1
330
221
100
AcDbEntity
  8
Dimensions
440
 16777216
370
    -2
100
AcDbLine
 10
12.684637
 20
7.475148
 30
0.0
 11
12.684637
 21
8.113064
 31
0.0
  0
LINE
  5
3E2
330
221
100
AcDbEntity
  8
Dimensions
440
 16777216
370
    -2
100
AcDbLine
 10
14.814637
 20
8.013064
 30
0.0
 11
14.089787
 21
8.013064
 31
0.0
  0
LINE
  5
3E3
330
221
100
AcDbEntity
  8
Dimensions
440
 16777216
370
    -2
100
AcDbLine
 10
12.804637
 20
8.013064
 30
0.0
 11
13.529487
 21
8.013064
 31
0.0
  0
SOLID
  5
3E4
330
221
100
AcDbEntity
  8
Dimensions
440
 16777216
100
AcDbTrace
 10
14.814637
 20
8.033064
 30
0.0
 11
14.814637
 21
7.993064
 31
0.0
 12
14.934637
 22
8.013064
 32
0.0
 13
14.934637
 23
8.013064
 33
0.0
  0
SOLID
  5
3E5
330
221
100
AcDbEntity
  8
Dimensions
440
 16777216
100
AcDbTrace
 10
12.804637
 20
8.033064
 30
0.0
 11
12.804637
 21
7.993064
 31
0.0
 12
12.684637
 22
8.013064
 32
0.0
 13
12.684637
 23
8.013064
 33
0.0
  0
MTEXT
  5
3E6
330
221
100
AcDbEntity
  8
Dimensions
440
 16777216
100
AcDbMText
 10
13.809637
 20
8.013064
 30
0.0
 40
0.12
 41
0.0
 46
0.0
 71
     5
 72
     1
  1
\A1;2.25in
 73
     1
 44
1.0
  0
POINT
  5
3E7
330
221
100
AcDbEntity
  8
Defpoints
 62
     0
440
 16777216
100
AcDbPoint
 10
14.934637
 20
5.394003
 30
0.0
  0
POINT
  5
3E8
330
221
100
AcDbEntity
  8
Defpoints
 62
     0
440
 16777216
100
AcDbPoint
 10
12.684637
 20
7.425148
 30
0.0
  0
POINT
  5
3E9
330
221
100
AcDbEntity
  8
Defpoints
 62
     0
440
 16777216
100
AcDbPoint
 10
12.684637
 20
8.013064
 30
0.0
  0
ENDBLK
  5
223
330
221
100
AcDbEntity
  8
0
100
AcDbBlockEnd
  0
ENDSEC
  0
SECTION
  2
ENTITIES
  0
INSERT
  5
120
330
70
100
AcDbEntity
  8
Titleblock
100
AcDbBlockReference
 66
     1
  2
Shower
 10
16.38
 20
0.38
 30
0.0
  0
ATTRIB
  5
140
330
120
100
AcDbEntity
  8
Titleblock
  6
Continuous
370
    25
100
AcDbText
 10
12.6925
 20
2.6925
 30
0.0
 40
0.12
  1
Railing Products and Mock Ups
100
AcDbAttribute
280
     0
  2
PROJECT
 70
     0
280
     1
1001
FD_ATT_APPNAME
1005
12E
  0
ATTRIB
  5
141
330
120
100
AcDbEntity
  8
Titleblock
  6
Continuous
370
    25
100
AcDbText
 10
14.6925
 20
1.0675
 30
0.0
 40
0.12
  1
2/10/2020
100
AcDbAttribute
280
     0
  2
DRAWN_DATE
 70
     0
280
     1
1001
FD_ATT_APPNAME
1005
130
  0
ATTRIB
  5
142
330
120
100
AcDbEntity
  8
Titleblock
  6
Continuous
370
    25
100
AcDbText
 10
12.0675
 20
2.1925
 30
0.0
 40
0.3048
  1
R13-0141-038-12
100
AcDbAttribute
280
     0
  2
TITLE_1
 70
     0
280
     1
1001
FD_ATT_APPNAME
1005
131
  0
ATTRIB
  5
143
330
120
100
AcDbEntity
  8
Titleblock
  6
Continuous
370
    25
100
AcDbText
 10
14.6925
 20
1.29994
 30
0.0
 40
0.12
  1
1:1
100
AcDbAttribute
280
     0
  2
SCALE
 70
     0
280
     1
1001
FD_ATT_APPNAME
1005
132
  0
SEQEND
  5
144
330
120
100
AcDbEntity
  8
Titleblock
  0
INSERT
  5
145
330
70
100
AcDbEntity
  8
Border
100
AcDbBlockReference
  2
ANSI_B_SHEET
 10
0.0
 20
0.0
 30
0.0
  0
DIMENSION
  5
166
330
70
100
AcDbEntity
  8
Dimensions
100
AcDbDimension
280
     0
  2
*D15
 10
7.22941
 20
8.068888
 30
0.0
 11
8.5
 21
8.068888
 31
0.0
 70
    33
 71
     5
 42
2.54118
 73
     0
 74
     0
 75
     0
  3
Standard
100
AcDbAlignedDimension
 13
9.77059
 23
7.390066
 33
0.0
 14
7.22941
 24
7.390066
 34
0.0
1001
ACAD_DIMASSOC_CALC_DIMLFAC
1040
-1.0
1001
ACAD_DIMASSOC_DIMLFAC
1040
-1.0
1001
ACAD_DIMASSOC_OVERRIDDEN_DIMLFAC
1040
0.0
1001
ACAD
1000
DSTYLE
1002
{
1070
   144
1040
1.0
1070
   176
1070
   256
1070
   177
1070
   256
1002
}
  0
DIMENSION
  5
175
330
70
100
AcDbEntity
  8
Dimensions
100
AcDbDimension
280
     0
  2
*D16
 10
14.737786
 20
6.072825
 30
0.0
 11
14.316026
 21
6.072825
 31
0.0
 70
    32
 71
     5
 42
0.19685
 73
     0
 74
     0
 75
     0
  3
Standard
100
AcDbAlignedDimension
 13
14.934637
 23
5.394003
 33
0.0
 14
14.737786
 24
5.354633
 34
0.0
100
AcDbRotatedDimension
1001
ACAD_DIMASSOC_CALC_DIMLFAC
1040
-1.0
1001
ACAD_DIMASSOC_DIMLFAC
1040
-1.0
1001
ACAD_DIMASSOC_OVERRIDDEN_DIMLFAC
1040
0.0
1001
ACAD
1000
DSTYLE
1002
{
1070
   144
1040
1.0
1070
   176
1070
   256
1070
   177
1070
   256
1002
}
  0
DIMENSION
  5
183
330
70
100
AcDbEntity
  8
Dimensions
100
AcDbDimension
280
     0
  2
*D17
 10
12.212196
 20
3.052106
 30
0.0
 11
13.573416
 21
3.052106
 31
0.0
 70
    32
 71
     5
 42
2.722441
 73
     0
 74
     0
 75
     0
  3
Standard
100
AcDbAlignedDimension
 13
14.934637
 23
5.394003
 33
0.0
 14
12.212196
 24
4.409751
 34
0.0
100
AcDbRotatedDimension
1001
ACAD_DIMASSOC_CALC_DIMLFAC
1040
-1.0
1001
ACAD_DIMASSOC_DIMLFAC
1040
-1.0
1001
ACAD_DIMASSOC_OVERRIDDEN_DIMLFAC
1040
0.0
1001
ACAD
1000
DSTYLE
1002
{
1070
   177
1070
   256
1070
   176
1070
   256
1070
   144
1040
1.0
1002
}
  0
DIMENSION
  5
191
330
70
100
AcDbEntity
  8
Dimensions
100
AcDbDimension
280
     0
  2
*D18
 10
13.371691
 20
7.84915
 30
0.0
 11
11.337217
 21
8.556854
 31
0.0
 70
   163
 71
     5
 42
1.5
 73
     0
 74
     0
 75
     0
  3
Standard
100
AcDbDiametricDimension
 15
11.997582
 25
8.450667
 35
0.0
 40
0.0
1001
ACAD_DIMASSOC_CALC_DIMLFAC
1040
-1.0
1001
ACAD_DIMASSOC_DIMLFAC
1040
-1.0
1001
ACAD_DIMASSOC_OVERRIDDEN_DIMLFAC
1040
0.0
1001
ACAD_DSTYLE_DIMRADIAL_EXTENSION
1070
   387
1070
     1
1070
   388
1040
4.024937
1070
   390
1040
5.399841
1001
ACAD
1000
DSTYLE
1002
{
1070
   144
1040
1.0
1070
   288
1070
     1
1002
}
  0
DIMENSION
  5
19C
330
70
100
AcDbEntity
  8
Dimensions
100
AcDbDimension
280
     0
  2
*D19
 10
8.012444
 20
4.342841
 30
0.0
 11
9.784558
 21
4.586036
 31
0.0
 70
   163
 71
     5
 42
0.984252
 73
     0
 74
     0
 75
     0
  3
Standard
100
AcDbDiametricDimension
 15
8.987556
 25
4.47666
 35
0.0
 40
0.0
1001
ACAD_DIMASSOC_CALC_DIMLFAC
1040
-1.0
1001
ACAD_DIMASSOC_DIMLFAC
1040
-1.0
1001
ACAD_DIMASSOC_OVERRIDDEN_DIMLFAC
1040
0.0
1001
ACAD_DSTYLE_DIMRADIAL_EXTENSION
1070
   387
1070
     1
1070
   388
1040
0.0
1070
   390
1040
0.0
1001
ACAD
1000
DSTYLE
1002
{
1070
   144
1040
1.0
1070
   176
1070
   256
1070
   177
1070
   256
1002
}
  0
DIMENSION
  5
1A5
330
70
100
AcDbEntity
  8
Dimensions
100
AcDbDimension
280
     0
  2
*D20
 10
7.89122
 20
3.636357
 30
0.0
 11
9.803737
 21
5.476035
 31
0.0
 70
   163
 71
     5
 42
1.968504
 73
     0
 74
     0
 75
     0
  3
Standard
100
AcDbDiametricDimension
 15
9.10878
 25
5.183145
 35
0.0
 40
0.0
1001
ACAD_DIMASSOC_CALC_DIMLFAC
1040
-1.0
1001
ACAD_DIMASSOC_DIMLFAC
1040
-1.0
1001
ACAD_DIMASSOC_OVERRIDDEN_DIMLFAC
1040
0.0
1001
ACAD_DSTYLE_DIMRADIAL_EXTENSION
1070
   387
1070
     1
1070
   388
1040
0.0
1070
   390
1040
0.0
1001
ACAD
1000
DSTYLE
1002
{
1070
   144
1040
1.0
1070
   176
1070
   256
1070
   177
1070
   256
1002
}
  0
DIMENSION
  5
1AF
330
70
100
AcDbEntity
  8
Dimensions
100
AcDbDimension
280
     0
  2
*D21
 10
8.224409
 20
2.890115
 30
0.0
 11
8.5
 21
2.890115
 31
0.0
 70
   161
 71
     5
 42
0.551181
 73
     0
 74
     0
 75
     0
  3
Standard
100
AcDbAlignedDimension
 13
8.775591
 23
3.547304
 33
0.0
 14
8.224409
 24
3.547304
 34
0.0
1001
ACAD_DIMASSOC_CALC_DIMLFAC
1040
-1.0
1001
ACAD_DIMASSOC_DIMLFAC
1040
-1.0
1001
ACAD_DIMASSOC_OVERRIDDEN_DIMLFAC
1040
0.0
1001
ACAD
1000
DSTYLE
1002
{
1070
   144
1040
1.0
1002
}
  0
INSERT
  5
1BD
330
70
100
AcDbEntity
  8
Center Lines
 48
0.75
100
AcDbBlockReference
  2
*U13
 10
12.684637
 20
5.420212
 30
0.0
  0
DIMENSION
  5
1C3
330
70
100
AcDbEntity
  8
Dimensions
100
AcDbDimension
280
     0
  2
*D22
 10
12.684637
 20
8.013064
 30
0.0
 11
13.809637
 21
8.013064
 31
0.0
 70
   160
 71
     5
 42
2.25
 73
     0
 74
     0
 75
     0
  3
Standard
100
AcDbAlignedDimension
 13
14.934637
 23
5.394003
 33
0.0
 14
12.684637
 24
7.425148
 34
0.0
100
AcDbRotatedDimension
1001
ACAD_DIMASSOC_CALC_DIMLFAC
1040
-1.0
1001
ACAD_DIMASSOC_DIMLFAC
1040
-1.0
1001
ACAD_DIMASSOC_OVERRIDDEN_DIMLFAC
1040
0.0
1001
ACAD
1000
DSTYLE
1002
{
1070
   144
1040
1.0
1002
}
  0
CIRCLE
  5
2FB
330
70
100
AcDbEntity
  8
Visible
100
AcDbCircle
 10
8.5
 20
4.409751
 30
1.271575
 40
0.4921259842519686
  0
ARC
  5
2FC
330
70
100
AcDbEntity
  8
Visible
100
AcDbCircle
 10
-8.5
 20
4.409751
 30
1.175146
 40
0.9448818897637798
210
0.0000000000000001
220
-0.0000000000000001
230
-1.0
100
AcDbArc
 50
273.844393
 51
73.042237
  0
ARC
  5
2FD
330
70
100
AcDbEntity
  8
Visible
100
AcDbCircle
 10
-8.5
 20
4.409751
 30
1.175146
 40
0.9448818897637792
210
0.0000000000000001
220
-0.0000000000000001
230
-1.0
100
AcDbArc
 50
106.957763
 51
266.155607
  0
ARC
  5
2FE
330
70
100
AcDbEntity
  8
Visible
100
AcDbCircle
 10
8.5
 20
4.409751
 30
-1.214516
 40
0.9842519685039372
100
AcDbArc
 50
106.260205
 51
73.739795
  0
ARC
  5
2FF
330
70
100
AcDbEntity
  8
Visible
100
AcDbCircle
 10
8.5
 20
0.878004
 30
-3.547304
 40
0.2755905511811024
210
0.0
220
-1.0
230
0.0
100
AcDbArc
 50
0.0
 51
180.0
  0
ARC
  5
300
330
70
100
AcDbEntity
  8
Visible
100
AcDbCircle
 10
8.145669
 20
7.222743
 30
0.878004
 40
0.078740157480315
100
AcDbArc
 50
0.0
 51
90.0
  0
ARC
  5
301
330
70
100
AcDbEntity
  8
Visible
100
AcDbCircle
 10
-8.854331
 20
7.222743
 30
-0.878004
 40
0.078740157480315
210
0.0000000000000001
220
-0.0000000000000003
230
-1.0
100
AcDbArc
 50
0.0
 51
90.0
  0
LINE
  5
302
330
70
100
AcDbEntity
  8
Visible
100
AcDbLine
 10
8.775591
 20
7.222743
 30
0.878004
 11
8.775591
 21
4.817474
 31
0.878004
210
0.0
220
1.0
230
0.0
  0
LINE
  5
303
330
70
100
AcDbEntity
  8
Visible
100
AcDbLine
 10
8.775591
 20
4.002028
 30
0.878004
 11
8.775591
 21
3.547304
 31
0.878004
210
0.0
220
1.0
230
0.0
  0
LINE
  5
304
330
70
100
AcDbEntity
  8
Visible
100
AcDbLine
 10
8.224409
 20
7.222743
 30
0.878004
 11
8.224409
 21
4.817474
 31
0.878004
210
0.0
220
1.0
230
0.0
  0
LINE
  5
305
330
70
100
AcDbEntity
  8
Visible
100
AcDbLine
 10
8.224409
 20
4.002028
 30
0.878004
 11
8.224409
 21
3.547304
 31
0.878004
210
0.0
220
1.0
230
0.0
  0
LINE
  5
306
330
70
100
AcDbEntity
  8
Visible
100
AcDbLine
 10
7.38189
 20
7.301483
 30
0.878004
 11
8.145669
 21
7.301483
 31
0.878004
210
0.0
220
1.0
230
0.0
  0
LINE
  5
307
330
70
100
AcDbEntity
  8
Visible
100
AcDbLine
 10
8.854331
 20
7.301483
 30
0.878004
 11
9.61811
 21
7.301483
 31
0.878004
210
0.0
220
1.0
230
0.0
  0
ARC
  5
308
330
70
100
AcDbEntity
  8
Visible
100
AcDbCircle
 10
-8.5
 20
3.955026
 30
-0.878004
 40
0.4921259842519685
210
0.0000000000000001
220
0.0
230
-1.0
100
AcDbArc
 50
235.944202
 51
304.055798
  0
SPLINE
  5
309
330
70
100
AcDbEntity
  8
Visible
100
AcDbSpline
 70
     0
 71
     3
 72
    46
 73
    42
 74
     0
 42
0.000000001
 43
0.0000000001
 40
1.922421715438132
 40
1.922421715438132
 40
1.922421715438132
 40
1.922421715438132
 40
2.016034089244243
 40
2.016034089244243
 40
2.10862659128904
 40
2.10862659128904
 40
2.201470064021354
 40
2.201470064021354
 40
2.295084349900251
 40
2.295084349900251
 40
2.389676973916477
 40
2.389676973916477
 40
2.484638049861317
 40
2.484638049861317
 40
2.580254739334481
 40
2.580254739334481
 40
2.676424896875438
 40
2.676424896875438
 40
2.772595054416394
 40
2.772595054416394
 40
2.868765211957351
 40
2.868765211957351
 40
2.964935369498308
 40
2.964935369498308
 40
3.061105527039264
 40
3.061105527039264
 40
3.155315733614767
 40
3.155315733614767
 40
3.246719250452442
 40
3.246719250452442
 40
3.335275984138628
 40
3.335275984138628
 40
3.421100088345108
 40
3.421100088345108
 40
3.504431755559782
 40
3.504431755559782
 40
3.584786976505785
 40
3.584786976505785
 40
3.715305921381525
 40
3.715305921381525
 40
3.845824866257265
 40
3.845824866257265
 40
3.845824866257265
 40
3.845824866257265
 10
9.776557784789474
 20
7.397892646797822
 30
0.878003606254424
 10
9.776557784789474
 20
7.397892646797822
 30
0.8902895009669009
 10
9.776163372987866
 20
7.398193761769196
 30
0.9026109211208677
 10
9.774586538707808
 20
7.399393073930193
 30
0.927076481115364
 10
9.773412718741383
 20
7.40028473973369
 30
0.9392208011431648
 10
9.770286080540245
 20
7.402645113928327
 30
0.963384526916343
 10
9.768331184932321
 20
7.404115335018047
 30
0.9754032426772027
 10
9.763640262646731
 20
7.407612400903907
 30
0.9992688215752423
 10
9.760904290202233
 20
7.409639048780254
 30
1.011090584594057
 10
9.754622669628588
 20
7.41423873268413
 30
1.034591434125104
 10
9.75106140423486
 20
7.416822693777702
 30
1.046288685856779
 10
9.743121273288124
 20
7.422499653072921
 30
1.069396143609992
 10
9.738739267157143
 20
7.425594552937611
 30
1.080804762848856
 10
9.729152839623566
 20
7.432244176455927
 30
1.103259603822152
 10
9.723942993899981
 20
7.43580182496932
 30
1.114302545751343
 10
9.712722519163435
 20
7.4432993311734
 30
1.135905975645073
 10
9.706707532588552
 20
7.447241126141771
 30
1.146463122146087
 10
9.693943231246521
 20
7.455393283623831
 30
1.166940012262784
 10
9.687204331312386
 20
7.459597289852538
 30
1.176846075621142
 10
9.672993864627642
 20
7.46819944224105
 30
1.196016714033248
 10
9.665503848811567
 20
7.472608461193965
 30
1.205303533541155
 10
9.649790187189864
 20
7.481535641869736
 30
1.223199503348951
 10
9.641566642378165
 20
7.486053626705326
 30
1.231808524227744
 10
9.624432263650305
 20
7.495083431070683
 30
1.248280564403103
 10
9.615503339180577
 20
7.499605587255129
 30
1.256163549121993
 10
9.597051913444374
 20
7.508499141600206
 30
1.271076721850477
 10
9.587559900901396
 20
7.512863683938214
 30
1.278106481724535
 10
9.568207118501959
 20
7.521263033491429
 30
1.291189759152985
 10
9.558365923649034
 20
7.525303529093369
 30
1.297266046803997
 10
9.538447203918622
 20
7.532953431408645
 30
1.30845164832317
 10
9.528386792990204
 20
7.536572142664244
 30
1.313585187132048
 10
9.508139369765558
 20
7.543311075503942
 30
1.322926933295093
 10
9.497966093364084
 20
7.546443108931234
 30
1.327158865398814
 10
9.477572219619105
 20
7.552172162602728
 30
1.334758282964685
 10
9.467313271421517
 20
7.55479581699631
 30
1.338165515153377
 10
9.446791687931181
 20
7.559485018951617
 30
1.344168066681959
 10
9.436549292162453
 20
7.561565059064591
 30
1.346785457193618
 10
9.409356624530119
 20
7.566356104987735
 30
1.352752227438031
 10
9.392221773521669
 20
7.568645164641887
 30
1.355534929363784
 10
9.357719853393064
 20
7.57171116788607
 30
1.35924288915703
 10
9.340255349523431
 20
7.572494614935145
 30
1.360176582091298
 10
9.322834645667171
 20
7.572494614935145
 30
1.360176582091298
1001
ACAD_VIEW_EDGE_ID
1071
    -8193
1071
       -1
1071
        4
1071
        0
  0
ARC
  5
30A
330
70
100
AcDbEntity
  8
Visible
100
AcDbCircle
 10
9.77059
 20
7.390066
 30
0.878004
 40
0.0098425196850394
100
AcDbArc
 50
324.62346
 51
52.674847
  0
SPLINE
  5
30B
330
70
100
AcDbEntity
  8
Visible
100
AcDbSpline
 70
     0
 71
     3
 72
    48
 73
    44
 74
     0
 42
0.000000001
 43
0.0000000001
 40
0.0
 40
0.0
 40
0.0
 40
0.0
 40
0.075137481013762
 40
0.075137481013762
 40
0.1505417382221934
 40
0.1505417382221934
 40
0.2266719155021009
 40
0.2266719155021009
 40
0.3043213432935228
 40
0.3043213432935228
 40
0.3836013506912312
 40
0.3836013506912312
 40
0.4649385379247187
 40
0.4649385379247187
 40
0.5488830716927494
 40
0.5488830716927494
 40
0.6359325162995498
 40
0.6359325162995498
 40
0.7264812357950011
 40
0.7264812357950011
 40
0.8193285669381234
 40
0.8193285669381234
 40
0.9140915206038366
 40
0.9140915206038366
 40
1.010212606375743
 40
1.010212606375743
 40
1.10633369214765
 40
1.10633369214765
 40
1.202454777919557
 40
1.202454777919557
 40
1.298575863691463
 40
1.298575863691463
 40
1.39469694946337
 40
1.39469694946337
 40
1.49006049503404
 40
1.49006049503404
 40
1.584881847964782
 40
1.584881847964782
 40
1.669266814833121
 40
1.669266814833121
 40
1.795844265135629
 40
1.795844265135629
 40
1.922421715438136
 40
1.922421715438136
 40
1.922421715438136
 40
1.922421715438136
 10
7.67716535432919
 20
7.572494614935145
 30
1.360176582091298
 10
7.667136558842685
 20
7.572494614935145
 30
1.360176582091298
 10
7.657104260486448
 20
7.572236854976141
 30
1.359868413788717
 10
7.637071759874743
 20
7.571210523952098
 30
1.358635349084579
 10
7.627054942327958
 20
7.570439108585965
 30
1.357707003535324
 10
7.607055134143593
 20
7.568391587652391
 30
1.355222728387161
 10
7.59707368884483
 20
7.567110757402662
 30
1.353660843637044
 10
7.577141176121585
 20
7.564054086916739
 30
1.349890500594483
 10
7.567177531331253
 20
7.562267173052921
 30
1.3476677171966
 10
7.547234160312655
 20
7.558192134802605
 30
1.342522069166079
 10
7.53727141301897
 20
7.555896160870471
 30
1.339587691036285
 10
7.517395165748894
 20
7.550823319431314
 30
1.332982120868109
 10
7.507489899633583
 20
7.548035632696352
 30
1.329293757362393
 10
7.487768862292796
 20
7.542005270134773
 30
1.32113350277541
 10
7.477966350923452
 20
7.538751062987533
 30
1.316640308636124
 10
7.458511318656746
 20
7.531829884530188
 30
1.306826957114026
 10
7.448877943694242
 20
7.528152361072717
 30
1.30148245907003
 10
7.429843470055857
 20
7.520448139287959
 30
1.28993543242359
 10
7.420410776294374
 20
7.516391016047561
 30
1.283674255404548
 10
7.401856932036025
 20
7.507993224506504
 30
1.270236742289853
 10
7.392759230056981
 20
7.503651880494508
 30
1.263046779087744
 10
7.375028876382202
 20
7.494812803923627
 30
1.247788783661235
 10
7.366409836908133
 20
7.490313897735388
 30
1.239705740825229
 10
7.349776111723258
 20
7.481301932249524
 30
1.222736580755736
 10
7.341771964240251
 20
7.476789804602035
 30
1.2138407461116
 10
7.326545816045836
 20
7.467932335030022
 30
1.195432892902317
 10
7.319340105636001
 20
7.463597302287643
 30
1.18594521167688
 10
7.305648727904554
 20
7.455141962498442
 30
1.166321313747175
 10
7.29915506706493
 20
7.451015867155357
 30
1.156168673538559
 10
7.286918891826644
 20
7.443067706364212
 30
1.135256773031869
 10
7.281176520451481
 20
7.43924582381625
 30
1.124497649963814
 10
7.270482195073782
 20
7.431998252610203
 30
1.102464947010957
 10
7.265530327071246
 20
7.428572709526778
 30
1.091191564413747
 10
7.256480440704763
 20
7.422220993763755
 30
1.068325213578646
 10
7.25237602175548
 20
7.419291176072415
 30
1.056735727097475
 10
7.245007333049215
 20
7.413972444493385
 30
1.03332703700471
 10
7.241743558317466
 20
7.411584390579501
 30
1.021532435321205
 10
7.236317083401445
 20
7.407581559268278
 30
0.9989551734361157
 10
7.234069936794185
 20
7.405908358605011
 30
0.9881859308479761
 10
7.22924523079564
 20
7.402297067584401
 30
0.9610161783130024
 10
7.227065360961205
 20
7.400646401931567
 30
0.9444923597384331
 10
7.224163895860328
 20
7.398444193969597
 30
0.9112904890062054
 10
7.223442215206887
 20
7.397892646797823
 30
0.8946159104216349
 10
7.223442215206887
 20
7.397892646797823
 30
0.878003606254424
1001
ACAD_VIEW_EDGE_ID
1071
   -10241
1071
       -1
1071
        4
1071
        0
  0
ARC
  5
30C
330
70
100
AcDbEntity
  8
Visible
100
AcDbCircle
 10
-7.22941
 20
7.390066
 30
-0.878004
 40
0.0098425196850394
210
-0.0000000000000003
220
0.0000000000000006
230
-1.0
100
AcDbArc
 50
324.62346
 51
52.674847
  0
LINE
  5
30D
330
70
100
AcDbEntity
  8
Visible
100
AcDbLine
 10
9.322835
 20
7.572495
 30
1.360177
 11
7.677165
 21
7.572495
 31
1.360177
210
0.0
220
1.0
230
0.0
  0
ARC
  5
30E
330
70
100
AcDbEntity
  8
Visible
100
AcDbCircle
 10
7.38189
 20
7.498334
 30
0.878004
 40
0.1968503937007874
100
AcDbArc
 50
215.37654
 51
270.0
  0
ARC
  5
30F
330
70
100
AcDbEntity
  8
Visible
100
AcDbCircle
 10
-9.61811
 20
7.498334
 30
-0.878004
 40
0.1968503937007874
210
0.0
220
-0.0000000000000001
230
-1.0
100
AcDbArc
 50
215.37654
 51
270.0
  0
SPLINE
  5
310
330
70
100
AcDbEntity
  8
Visible
100
AcDbSpline
 70
     0
 71
     3
 72
    23
 73
    19
 74
     0
 42
0.000000001
 43
0.0000000001
 40
3.248695321190721
 40
3.248695321190721
 40
3.248695321190721
 40
3.248695321190721
 40
3.518792781857075
 40
3.518792781857075
 40
3.788890242523429
 40
3.788890242523429
 40
4.060242002055528
 40
4.060242002055528
 40
4.331593761587628
 40
4.331593761587628
 40
4.331593761587628
 40
4.602945521119727
 40
4.602945521119727
 40
4.874297280651828
 40
4.874297280651828
 40
5.144394741318182
 40
5.144394741318182
 40
5.414492201984535
 40
5.414492201984535
 40
5.414492201984535
 40
5.414492201984535
 10
12.40904610595135
 20
3.917624884070672
 30
0.000000000003638
 10
12.40904610595135
 20
3.917624884070672
 30
0.0354458609836002
 10
12.41629401557293
 20
3.921795470015416
 30
0.0727307919878513
 10
12.44468584723836
 20
3.936814200530536
 30
0.1404319974808459
 10
12.46579048340209
 20
3.947513268453561
 30
0.1708977214166225
 10
12.51385026903153
 20
3.968238030818988
 30
0.2189575070424325
 10
12.5442822445857
 20
3.979786028971114
 30
0.2399827445606206
 10
12.61182000854205
 20
3.996867422863016
 30
0.2683072379295481
 10
12.64902619000167
 20
4.002028128613822
 30
0.2755905511821766
 10
12.6846366571317
 20
4.002028128613822
 30
0.2755905511821766
 10
12.72024712426173
 20
4.002028128613822
 30
0.2755905511821766
 10
12.75745330572135
 20
3.996867422863016
 30
0.2683072379295481
 10
12.82499106967771
 20
3.979786028971114
 30
0.2399827445606206
 10
12.85542304523369
 20
3.968238030818988
 30
0.2189575070424325
 10
12.90348283086132
 20
3.947513268453561
 30
0.1708977214148035
 10
12.92458746702505
 20
3.936814200530536
 30
0.1404319974790269
 10
12.9529792986923
 20
3.921795470015416
 30
0.0727307919860323
 10
12.96022720831388
 20
3.917624884070672
 30
0.0354458609817812
 10
12.96022720831388
 20
3.917624884070672
 30
0.000000000001819
1001
ACAD_VIEW_EDGE_ID
1071
        1
1071
       -1
1071
        2
1071
        0
  0
SPLINE
  5
311
330
70
100
AcDbEntity
  8
Visible
100
AcDbSpline
 70
     0
 71
     3
 72
    14
 73
    10
 74
     0
 42
0.000000001
 43
0.0000000001
 40
0.0
 40
0.0
 40
0.0
 40
0.0
 40
0.2713517595320995
 40
0.2713517595320995
 40
0.5427035190641991
 40
0.5427035190641991
 40
0.812800979730553
 40
0.812800979730553
 40
1.08289844038899
 40
1.08289844038899
 40
1.082898440396907
 40
1.082898440396907
 10
12.6846366571317
 20
4.817473608031459
 30
0.2755905511821766
 10
12.64902619000167
 20
4.817473608031459
 30
0.2755905511821766
 10
12.61182000854205
 20
4.822634313782264
 30
0.2683072379295481
 10
12.5442822445857
 20
4.839715707674168
 30
0.2399827445606206
 10
12.51385026903153
 20
4.851263705826294
 30
0.2189575070424325
 10
12.46579048340209
 20
4.87198846819172
 30
0.1708977214166225
 10
12.44468584723836
 20
4.882687536114746
 30
0.1404319974808459
 10
12.41629401557293
 20
4.897706266629645
 30
0.0727307919896703
 10
12.40904610595135
 20
4.901876852574366
 30
0.0354458609854191
 10
12.40904610595135
 20
4.901876852574609
 30
0.000000000005457
1001
ACAD_VIEW_EDGE_ID
1071
        2
1071
       -1
1071
        2
1071
        0
  0
SPLINE
  5
312
330
70
100
AcDbEntity
  8
Visible
100
AcDbSpline
 70
     0
 71
     3
 72
    14
 73
    10
 74
     0
 42
0.000000001
 43
0.0000000001
 40
3.248695321190721
 40
3.248695321190721
 40
3.248695321196101
 40
3.248695321196101
 40
3.518792781857075
 40
3.518792781857075
 40
3.788890242523429
 40
3.788890242523429
 40
4.060242002055529
 40
4.060242002055529
 40
4.331593761587629
 40
4.331593761587629
 40
4.331593761587629
 40
4.331593761587629
 10
12.96022720831388
 20
4.901876852574609
 30
0.000000000003638
 10
12.96022720831206
 20
4.901876852574444
 30
0.0354458609836002
 10
12.9529792986923
 20
4.897706266629716
 30
0.0727307919860323
 10
12.92458746702505
 20
4.882687536114746
 30
0.1404319974790269
 10
12.90348283086132
 20
4.87198846819172
 30
0.1708977214148035
 10
12.85542304523369
 20
4.851263705826294
 30
0.2189575070424325
 10
12.82499106967771
 20
4.839715707674168
 30
0.2399827445606206
 10
12.75745330572135
 20
4.822634313782264
 30
0.2683072379295481
 10
12.72024712426173
 20
4.817473608031459
 30
0.2755905511821766
 10
12.6846366571317
 20
4.817473608031459
 30
0.2755905511821766
1001
ACAD_VIEW_EDGE_ID
1071
        2
1071
       -1
1071
        2
1071
        0
  0
ARC
  5
313
330
70
100
AcDbEntity
  8
Visible
100
AcDbCircle
 10
-4.409751
 20
0.0
 30
-12.291065
 40
0.4921259842519685
210
-1.0
220
0.0
230
0.0000000000002969
100
AcDbArc
 50
0.0
 51
180.0
  0
ARC
  5
314
330
70
100
AcDbEntity
  8
Visible
100
AcDbCircle
 10
-13.786999
 20
4.409751
 30
0.0
 40
1.574803149606299
210
-0.0000000000002969
220
0.0
230
-1.0
100
AcDbArc
 50
341.790043
 51
18.209957
  0
LINE
  5
315
330
70
100
AcDbEntity
  8
Visible
100
AcDbLine
 10
14.737786
 20
3.917625
 30
0.0
 11
12.960227
 21
3.917625
 31
0.0
210
0.0
220
1.0
230
0.0
  0
LINE
  5
316
330
70
100
AcDbEntity
  8
Visible
100
AcDbLine
 10
12.409046
 20
3.917625
 30
0.0
 11
12.291065
 21
3.917625
 31
0.0
210
0.0
220
1.0
230
0.0
  0
LINE
  5
317
330
70
100
AcDbEntity
  8
Visible
100
AcDbLine
 10
14.737786
 20
4.901877
 30
0.0
 11
12.960227
 21
4.901877
 31
0.0
210
0.0
220
1.0
230
0.0
  0
LINE
  5
318
330
70
100
AcDbEntity
  8
Visible
100
AcDbLine
 10
12.409046
 20
4.901877
 30
0.0
 11
12.291065
 21
4.901877
 31
0.0
210
0.0
220
1.0
230
0.0
  0
ARC
  5
319
330
70
100
AcDbEntity
  8
Visible
100
AcDbCircle
 10
4.409751
 20
0.0
 30
14.737786
 40
0.9448818897637796
210
1.0
220
-0.0000000000000001
230
-0.0000000000002969
100
AcDbArc
 50
0.0
 51
180.0
  0
ARC
  5
31A
330
70
100
AcDbEntity
  8
Visible
100
AcDbCircle
 10
-4.409751
 20
0.0
 30
-14.777156
 40
0.9842519685039368
210
-1.0
220
0.0000000000000002
230
0.0000000000002969
100
AcDbArc
 50
0.0
 51
180.0
  0
ARC
  5
31B
330
70
100
AcDbEntity
  8
Visible
100
AcDbCircle
 10
4.409751
 20
0.0
 30
14.934637
 40
0.9842519685039368
210
1.0
220
-0.0000000000000002
230
-0.0000000000002969
100
AcDbArc
 50
0.0
 51
180.0
  0
LINE
  5
31C
330
70
100
AcDbEntity
  8
Visible
100
AcDbLine
 10
14.737786
 20
5.354633
 30
0.0
 11
14.777156
 21
5.394003
 31
0.0
210
0.0
220
1.0
230
0.0
  0
LINE
  5
31D
330
70
100
AcDbEntity
  8
Visible
100
AcDbLine
 10
14.737786
 20
3.464869
 30
0.0
 11
14.777156
 21
3.425499
 31
0.0
210
0.0
220
1.0
230
0.0
  0
LINE
  5
31E
330
70
100
AcDbEntity
  8
Visible
100
AcDbLine
 10
14.934637
 20
3.425499
 30
0.0
 11
14.777156
 21
3.425499
 31
0.0
210
0.0
220
1.0
230
0.0
  0
LINE
  5
31F
330
70
100
AcDbEntity
  8
Visible
100
AcDbLine
 10
14.934637
 20
5.394003
 30
0.0
 11
14.777156
 21
5.394003
 31
0.0
210
0.0
220
1.0
230
0.0
  0
ARC
  5
320
330
70
100
AcDbEntity
  8
Visible
100
AcDbCircle
 10
12.684637
 20
0.0
 30
-3.547304
 40
0.2755905511811024
210
0.0
220
-1.0
230
0.0
100
AcDbArc
 50
0.0
 51
180.0
  0
SPLINE
  5
321
330
70
100
AcDbEntity
  8
Visible
100
AcDbSpline
 70
     0
 71
     3
 72
    18
 73
    14
 74
     0
 42
0.000000001
 43
0.0000000001
 40
0.0
 40
0.0
 40
0.0
 40
0.0
 40
0.1540341702877924
 40
0.1540341702877924
 40
0.4004888427482602
 40
0.4004888427482602
 40
0.7948163186850086
 40
0.7948163186850086
 40
1.425740280183806
 40
1.425740280183806
 40
2.183022512476127
 40
2.183022512476127
 40
2.376089566950245
 40
2.376089566950245
 40
2.376089566950245
 40
2.376089566950245
 10
12.30015393952635
 20
7.393602620434386
 30
0.8228346456726285
 10
12.30015393952635
 20
7.393602620434386
 30
0.8430491037161118
 10
12.30289592824192
 20
7.392190848965292
 30
0.8634659742529038
 10
12.3169700040471
 20
7.385225451964021
 30
0.9151057082453917
 10
12.33225491206394
 20
7.377783834461593
 30
0.9451788164187746
 10
12.38703803681164
 20
7.35454590356628
 30
1.016628561563265
 10
12.43518572715948
 20
7.33683511002243
 30
1.05324141523306
 10
12.58477136688998
 20
7.302097692322945
 30
1.119418204987596
 10
12.7032188043031
 20
7.295473069516758
 30
1.129041950045575
 10
12.92724284110227
 20
7.327588945708784
 30
1.072313527642108
 10
13.02363692581275
 20
7.371298058823272
 30
0.9935958876849326
 10
13.06477344330415
 20
7.391351972182379
 30
0.8737632680167735
 10
13.06911937473887
 20
7.393602620434386
 30
0.8481715294601599
 10
13.06911937473887
 20
7.393602620434386
 30
0.8228346456708095
1001
ACAD_VIEW_EDGE_ID
1071
        7
1071
       -1
1071
        4
1071
        0
  0
ARC
  5
322
330
70
100
AcDbEntity
  8
Visible
100
AcDbCircle
 10
12.202464
 20
7.562652
 30
0.822835
 40
0.0098425196850394
100
AcDbArc
 50
50.611929
 51
181.969645
  0
ARC
  5
323
330
70
100
AcDbEntity
  8
Visible
100
AcDbCircle
 10
13.16681
 20
7.562652
 30
0.822835
 40
0.0098425196850393
100
AcDbArc
 50
358.030355
 51
129.388071
  0
SPLINE
  5
324
330
70
100
AcDbEntity
  8
Visible
100
AcDbSpline
 70
     0
 71
     3
 72
    24
 73
    20
 74
     0
 42
0.000000001
 43
0.0000000001
 40
0.0
 40
0.0
 40
0.0
 40
0.0
 40
0.4103432264792675
 40
0.4103432264792675
 40
1.051386380364542
 40
1.051386380364542
 40
1.574772520254023
 40
1.574772520254023
 40
1.922912433128632
 40
1.922912433128632
 40
2.163276487269711
 40
2.163276487269711
 40
2.547858973895438
 40
2.547858973895438
 40
3.037180727130222
 40
3.037180727130222
 40
3.692908147187768
 40
3.692908147187768
 40
3.845824866257265
 40
3.845824866257265
 40
3.845824866257265
 40
3.845824866257265
 10
13.16056386903255
 20
7.570259067630594
 30
0.8228346456708095
 10
13.16056386903255
 20
7.570259067630594
 30
0.87668546279383
 10
13.15142985730017
 20
7.562459263239525
 30
0.9303603434927936
 10
13.10589342991079
 20
7.52842283731311
 30
1.057112629923722
 10
13.05746807119612
 20
7.495556498593242
 30
1.122335203313923
 10
12.94436211134416
 20
7.44410232186328
 30
1.209569208293032
 10
12.88315986537782
 20
7.423660517531373
 30
1.238191488830125
 10
12.77512473106253
 20
7.404096441568776
 30
1.265116634742298
 10
12.72954609797307
 20
7.399896904891779
 30
1.2706051008754
 10
12.65330773524329
 20
7.399916290658132
 30
1.270579342926794
 10
12.62193574295997
 20
7.401896744592106
 30
1.267969262980841
 10
12.54230562322482
 20
7.411883312670619
 30
1.254475980505958
 10
12.49513324851432
 20
7.422804608690729
 30
1.239633061399217
 10
12.39635573495798
 20
7.455084785277593
 30
1.191344974351522
 10
12.34828466255021
 20
7.478069370302472
 30
1.154623435602843
 10
12.25765428690465
 20
7.530410043236908
 30
1.047188374648612
 10
12.22324908351948
 20
7.558458017849158
 30
0.9678097309661097
 10
12.20997287341925
 20
7.569215027464316
 30
0.862999709237556
 10
12.20870944523085
 20
7.570259067630594
 30
0.8429024565739382
 10
12.20870944523085
 20
7.570259067630594
 30
0.8228346456726285
1001
ACAD_VIEW_EDGE_ID
1071
       11
1071
       -1
1071
        4
1071
        0
  0
ARC
  5
325
330
70
100
AcDbEntity
  8
Visible
100
AcDbCircle
 10
-12.389361
 20
7.56908
 30
-0.822835
 40
0.1968503937007871
210
-0.0000000000002969
220
0.0
230
-1.0
100
AcDbArc
 50
296.947392
 51
358.030355
  0
ARC
  5
326
330
70
100
AcDbEntity
  8
Visible
100
AcDbCircle
 10
12.979912
 20
7.56908
 30
0.822835
 40
0.1968503937007872
100
AcDbArc
 50
296.947392
 51
358.030355
  0
ARC
  5
327
330
70
100
AcDbEntity
  8
Visible
100
AcDbCircle
 10
12.330306
 20
7.293121
 30
0.0
 40
0.078740157480315
100
AcDbArc
 50
360.0
 51
67.53211
  0
ARC
  5
328
330
70
100
AcDbEntity
  8
Visible
100
AcDbCircle
 10
-13.038967
 20
7.293121
 30
0.0
 40
0.078740157480315
210
-0.000000000000297
220
-0.0000000000000001
230
-1.0
100
AcDbArc
 50
0.0
 51
67.53211
  0
LINE
  5
329
330
70
100
AcDbEntity
  8
Visible
100
AcDbLine
 10
12.960227
 20
7.293121
 30
0.0
 11
12.960227
 21
4.901877
 31
0.0
210
0.0
220
1.0
230
0.0
  0
LINE
  5
32A
330
70
100
AcDbEntity
  8
Visible
100
AcDbLine
 10
12.960227
 20
3.917625
 30
0.0
 11
12.960227
 21
3.547304
 31
0.0
210
0.0
220
1.0
230
0.0
  0
LINE
  5
32B
330
70
100
AcDbEntity
  8
Visible
100
AcDbLine
 10
12.409046
 20
7.293121
 30
0.0
 11
12.409046
 21
4.901877
 31
0.0
210
0.0
220
1.0
230
0.0
  0
LINE
  5
32C
330
70
100
AcDbEntity
  8
Visible
100
AcDbLine
 10
12.409046
 20
3.917625
 30
0.0
 11
12.409046
 21
3.547304
 31
0.0
210
0.0
220
1.0
230
0.0
  0
ARC
  5
32D
330
70
100
AcDbEntity
  8
Visible
100
AcDbCircle
 10
-12.684637
 20
3.955026
 30
0.0
 40
0.4921259842519685
210
-0.0000000000002969
220
0.0
230
-1.0
100
AcDbArc
 50
235.944202
 51
304.055798
  0
SPLINE
  5
32E
330
70
100
AcDbEntity
  8
Visible
100
AcDbSpline
 70
     0
 71
     3
 72
    22
 73
    18
 74
     0
 42
0.000000001
 43
0.0000000001
 40
0.5427035190640916
 40
0.5427035190640916
 40
0.5427035190641991
 40
0.5427035190641991
 40
0.812800979730553
 40
0.812800979730553
 40
1.082898440396907
 40
1.082898440396907
 40
1.352995901063261
 40
1.352995901063261
 40
1.623093361729615
 40
1.623093361729615
 40
1.894445121261714
 40
1.894445121261714
 40
2.165796880793814
 40
2.165796880793814
 40
2.437148640325914
 40
2.437148640325914
 40
2.708500399857905
 40
2.708500399857905
 40
2.708500399858013
 40
2.708500399858013
 10
4.755108286373408
 20
4.724091996484276
 30
0.1399665614953847
 10
4.755108286374317
 20
4.713019701890516
 30
0.173638706555721
 10
4.748488997730939
 20
4.700767464518321
 30
0.2096123601695581
 10
4.72069307293311
 20
4.673917311612058
 30
0.2738117951394088
 10
4.699453691426763
 20
4.659193380334727
 30
0.3019576044534915
 10
4.649325674099211
 20
4.630326575009348
 30
0.3429396208921389
 10
4.617836200507165
 20
4.614685978099259
 30
0.3579021354616998
 10
4.54988816230759
 20
4.586400849614619
 30
0.3719779021612339
 10
4.513422410972973
 20
4.573842062577568
 30
0.3712282991054963
 10
4.445455610332439
 20
4.556898592692959
 30
0.3592937021967373
 10
4.409069866028014
 20
4.551287943415445
 30
0.3472056818354758
 10
4.341285013813442
 20
4.553290574656784
 30
0.3147002395162417
 10
4.309826190410214
 20
4.561255918186361
 30
0.2944301826046285
 10
4.259465384832376
 20
4.590256777349168
 30
0.2532578507980361
 10
4.238306721811179
 20
4.612591829054508
 30
0.2305106329695263
 10
4.210578752266494
 20
4.665591373816823
 30
0.1849298424731387
 10
4.203927184011783
 20
4.695985563110298
 30
0.1618328316890256
 10
4.203927184010874
 20
4.724091996484276
 30
0.1399665614953847
1001
ACAD_VIEW_EDGE_ID
1071
        2
1071
       -1
1071
        2
1071
        0
  0
CIRCLE
  5
32F
330
70
100
AcDbEntity
  8
Visible
100
AcDbCircle
 10
6.009085
 20
-1.08596
 30
1.718352
 40
0.4921259842519686
210
0.7071067811864423
220
-0.4071957137923944
230
0.5780931159158112
  0
ARC
  5
330
330
70
100
AcDbEntity
  8
Visible
100
AcDbCircle
 10
6.009085
 20
-1.08596
 30
-0.728369
 40
0.4921259842519686
210
0.7071067811864423
220
-0.4071957137923944
230
0.5780931159158112
100
AcDbArc
 50
0.0
 51
180.0
  0
LINE
  5
331
330
70
100
AcDbEntity
  8
Visible
100
AcDbLine
 10
3.273308
 20
5.617145
 30
-1.307177
 11
4.203927
 21
5.081237
 31
-0.546352
210
-0.0000000000000001
220
0.8175471248425399
230
0.5758617009853117
  0
LINE
  5
332
330
70
100
AcDbEntity
  8
Visible
100
AcDbLine
 10
4.755108
 20
4.763833
 30
-0.095735
 11
5.003401
 21
4.620851
 31
0.107256
210
-0.0000000000000001
220
0.8175471248425399
230
0.5758617009853117
  0
LINE
  5
333
330
70
100
AcDbEntity
  8
Visible
100
AcDbLine
 10
2.782135
 20
4.764209
 30
-1.307177
 11
4.512228
 21
3.767914
 31
0.107256
210
-0.0000000000000001
220
0.8175471248425399
230
0.5758617009853117
  0
ARC
  5
334
330
70
100
AcDbEntity
  8
Visible
100
AcDbCircle
 10
-6.009085
 20
-1.08596
 30
0.728369
 40
0.9448818897637798
210
-0.7071067811864423
220
0.4071957137923944
230
-0.5780931159158112
100
AcDbArc
 50
301.388166
 51
238.611834
  0
ARC
  5
335
330
70
100
AcDbEntity
  8
Visible
100
AcDbCircle
 10
6.009085
 20
-1.08596
 30
-0.767739
 40
0.9842519685039372
210
0.7071067811864423
220
-0.4071957137923944
230
0.5780931159158112
100
AcDbArc
 50
314.889207
 51
225.110793
  0
ARC
  5
336
330
70
100
AcDbEntity
  8
Visible
100
AcDbCircle
 10
-6.009085
 20
-1.08596
 30
0.925219
 40
0.984251968503937
210
-0.7071067811864423
220
0.4071957137923944
230
-0.5780931159158112
100
AcDbArc
 50
360.0
 51
180.0
  0
LINE
  5
337
330
70
100
AcDbEntity
  8
Visible
100
AcDbLine
 10
3.030306
 20
4.419685
 30
-1.853406
 11
3.002574
 21
4.403592
 31
-1.898925
210
-0.0000000000000001
220
0.8175471248425399
230
0.5758617009853117
  0
LINE
  5
338
330
70
100
AcDbEntity
  8
Visible
100
AcDbLine
 10
3.695854
 20
5.575429
 30
-1.853406
 11
3.695854
 21
5.607491
 31
-1.898925
210
-0.0000000000000001
220
0.8175471248425399
230
0.5758617009853117
  0
LINE
  5
339
330
70
100
AcDbEntity
  8
Visible
100
AcDbLine
 10
3.379701
 20
6.12377
 30
-1.420974
 11
3.491056
 21
6.059645
 31
-1.329936
210
-0.0000000000000001
220
0.8175471248425399
230
0.5758617009853117
  0
LINE
  5
33A
330
70
100
AcDbEntity
  8
Visible
100
AcDbLine
 10
2.397354
 20
4.417897
 30
-1.420974
 11
2.508709
 21
4.353772
 31
-1.329936
210
-0.0000000000000001
220
0.8175471248425399
230
0.5758617009853117
  0
ARC
  5
33B
330
70
100
AcDbEntity
  8
Visible
100
AcDbCircle
 10
4.479518
 20
-2.605994
 30
-2.628423
 40
0.2755905511811025
210
0.0000000000000001
220
-0.8175471248425399
230
-0.5758617009853117
100
AcDbArc
 50
0.0
 51
180.0
  0
ARC
  5
33C
330
70
100
AcDbEntity
  8
Visible Narrow
100
AcDbCircle
 10
3.431695
 20
5.96894
 30
5.833048
 40
0.0098425196850394
210
0.7071067811866529
220
0.4071957137922733
230
-0.5780931159156389
100
AcDbArc
 50
5.501136
 51
136.858852
  0
SPLINE
  5
33D
330
70
100
AcDbEntity
  8
Visible Narrow
100
AcDbSpline
 70
     0
 71
     3
 72
    10
 73
     6
 74
     0
 42
0.000000001
 43
0.0000000001
 40
-3.845824866257265
 40
-3.845824866257265
 40
-3.845824866257265
 40
-3.845824866257265
 40
-3.692908147187768
 40
-3.692908147187768
 40
-3.048819572922409
 40
-3.048819572922409
 40
-3.048819572922409
 40
-3.048819572922409
 10
5.409253074307864
 20
7.066722381775434
 30
1.50392774267857
 10
5.423729527767656
 20
7.075058816887576
 30
1.492092559774391
 10
5.437303451212367
 20
7.083046269181068
 30
1.478855750114234
 10
5.502242493171772
 20
7.122391018800954
 30
1.403736908901919
 10
5.534070269140622
 20
7.145549615424897
 30
1.321445665687861
 10
5.541183316409453
 20
7.166938165843021
 30
1.237815577767833
1001
ACAD_VIEW_EDGE_ID
1071
        9
1071
       -1
1071
        4
1071
        0
  0
ARC
  5
33E
330
70
100
AcDbEntity
  8
Visible Narrow
100
AcDbCircle
 10
4.112271
 20
5.285728
 30
5.833048
 40
0.0098425196850393
210
0.7071067811866419
220
0.4071957137923079
230
-0.5780931159156281
100
AcDbArc
 50
0.0
 51
84.277278
  0
SPLINE
  5
33F
330
70
100
AcDbEntity
  8
Visible Narrow
100
AcDbSpline
 70
     0
 71
     3
 72
    24
 73
    20
 74
     0
 42
0.000000001
 43
0.0000000001
 40
0.0
 40
0.0
 40
0.0
 40
0.0
 40
0.4103432264792675
 40
0.4103432264792675
 40
1.051386380364542
 40
1.051386380364542
 40
1.574772520254023
 40
1.574772520254023
 40
1.922912433128632
 40
1.922912433128632
 40
2.163276487269711
 40
2.163276487269711
 40
2.547858973895438
 40
2.547858973895438
 40
3.037180727130222
 40
3.037180727130222
 40
3.692908147187768
 40
3.692908147187768
 40
3.845824866257265
 40
3.845824866257265
 40
3.845824866257265
 40
3.845824866257265
 10
4.724818334053972
 20
7.467357738414648
 30
0.9489454443901195
 10
4.762896612014239
 20
7.489285560331154
 30
0.9178146577251027
 10
4.807309205771682
 20
7.501045703607815
 30
0.8875742793734389
 10
4.929135723634837
 20
7.506290071145485
 30
0.8210236762297427
 10
5.009496947094314
 20
7.486260044241134
 30
0.7923868563393626
 10
5.151158694769558
 20
7.433658880862822
 30
0.7777127656136145
 10
5.2146742265764
 20
7.403680320226158
 30
0.7847753671285318
 10
5.3101055559169
 20
7.35465812655002
 30
0.8203982909963087
 10
5.346215448072664
 20
7.334900263263079
 30
0.841155788193646
 10
5.400105897725163
 20
7.303861688984397
 30
0.8852547148690064
 10
5.420443640978712
 20
7.291643449246294
 30
0.9060399844620405
 10
5.467209447092111
 20
7.261888489032571
 30
0.9656248642895661
 10
5.490069824380563
 20
7.245564801361069
 30
1.007764634830891
 10
5.525771240242258
 20
7.212070884706008
 30
1.1113711635262
 10
5.533796572456205
 20
7.196334678284074
 30
1.173625130546497
 10
5.52191386551801
 20
7.15847424812091
 30
1.318266384892922
 10
5.490112840910635
 20
7.135072494297673
 30
1.400195797954438
 10
5.425388662000452
 20
7.095782649123066
 30
1.474655185513256
 10
5.412071136998358
 20
7.08793822347161
 30
1.487604870810173
 10
5.397881051826127
 20
7.079766696887418
 30
1.499205934143901
1001
ACAD_VIEW_EDGE_ID
1071
       11
1071
       -1
1071
        4
1071
        0
  0
ARC
  5
340
330
70
100
AcDbEntity
  8
Visible Narrow
100
AcDbCircle
 10
-4.112271
 20
5.285728
 30
-4.187379
 40
0.0098425196850394
210
-0.7071067811866529
220
-0.4071957137922733
230
0.5780931159156389
100
AcDbArc
 50
95.722722
 51
180.0
  0
SPLINE
  5
341
330
70
100
AcDbEntity
  8
Visible Narrow
100
AcDbSpline
 70
     0
 71
     3
 72
    18
 73
    14
 74
     0
 42
0.000000001
 43
0.0000000001
 40
-2.214555214625004
 40
-2.214555214625004
 40
-2.214555214625004
 40
-2.214555214625004
 40
-2.163276487269711
 40
-2.163276487269711
 40
-1.922912433128632
 40
-1.922912433128632
 40
-1.574772520254022
 40
-1.574772520254022
 40
-1.051386380364531
 40
-1.051386380364531
 40
-0.4103432264792384
 40
-0.4103432264792384
 40
0.0
 40
0.0
 40
0.0
 40
0.0
 10
3.501102335315929
 20
6.325462131622771
 30
2.262767939382683
 10
3.504868636257535
 20
6.32134338702599
 30
2.266827675017339
 10
3.508745495529703
 20
6.317326356563171
 30
2.270890539790343
 10
3.531406320079051
 20
6.295086959258696
 30
2.294011419566231
 10
3.55248507523863
 20
6.279097292263031
 30
2.313119630156506
 10
3.608248799100303
 20
6.246947229742545
 30
2.35872770422975
 10
3.645541113814553
 20
6.233600431236482
 30
2.385293515537341
 10
3.743903935750106
 20
6.215939547239031
 30
2.445845767048012
 10
3.80919564636458
 20
6.219466041520718
 30
2.477901235832177
 10
3.95450588361343
 20
6.251897771134281
 30
2.525146848998701
 10
4.036751658586192
 20
6.286599339277017
 30
2.535492015751515
 10
4.161347804210501
 20
6.349120474455048
 30
2.508527439795216
 10
4.206742428012669
 20
6.374242555546516
 30
2.487036864151377
 10
4.245589158812046
 20
6.396612900022773
 30
2.455277831075363
1001
ACAD_VIEW_EDGE_ID
1071
       13
1071
       -1
1071
        4
1071
        0
  0
ARC
  5
342
330
70
100
AcDbEntity
  8
Visible Narrow
100
AcDbCircle
 10
-3.431695
 20
5.96894
 30
-4.187379
 40
0.0098425196850393
210
-0.7071067811866529
220
-0.4071957137922733
230
0.5780931159156389
100
AcDbArc
 50
43.141148
 51
174.498864
  0
SPLINE
  5
343
330
70
100
AcDbEntity
  8
Visible Narrow
100
AcDbSpline
 70
     0
 71
     3
 72
    24
 73
    20
 74
     0
 42
0.000000001
 43
0.0000000001
 40
0.0
 40
0.0
 40
0.0
 40
0.0
 40
0.4103432264792384
 40
0.4103432264792384
 40
1.051386380364531
 40
1.051386380364531
 40
1.574772520254022
 40
1.574772520254022
 40
1.922912433128632
 40
1.922912433128632
 40
2.163276487269711
 40
2.163276487269711
 40
2.547858973895438
 40
2.547858973895438
 40
3.037180727130239
 40
3.037180727130239
 40
3.692908147188161
 40
3.692908147188161
 40
3.845824866257265
 40
3.845824866257265
 40
3.845824866257265
 40
3.845824866257265
 10
4.234217136330309
 20
6.409657215134757
 30
2.450556022540695
 10
4.196138858370042
 20
6.38772939321916
 30
2.481686809205712
 10
4.1517262646126
 20
6.363215834633592
 30
2.50294397030666
 10
4.029899746748535
 20
6.30231870278294
 30
2.530294025193143
 10
3.949538523289058
 20
6.268609168238981
 30
2.521077913643239
 10
3.807876775614724
 20
6.237077903123463
 30
2.476491024901406
 10
3.744361243806972
 20
6.23363218704344
 30
2.445885118955629
 10
3.648929914466473
 20
6.250665272615151
 30
2.387729790965749
 10
3.612820022312527
 20
6.263556497628087
 30
2.362135589099125
 10
3.558929572660028
 20
6.294626769461501
 30
2.318058989463679
 10
3.53859182940557
 20
6.310083238039624
 30
2.299554655013707
 10
3.491826023292171
 20
6.356167178292707
 30
2.251471539344493
 10
3.468965646001899
 20
6.39034821428595
 30
2.221910081012538
 10
3.433264230142023
 20
6.476623262055909
 30
2.155481387111649
 10
3.425238897928986
 20
6.529941431282168
 30
2.119699304550522
 10
3.437121604866272
 20
6.65338379478635
 30
2.035340028098289
 10
3.468922629473647
 20
6.722646630612871
 30
1.985714123775323
 10
3.53364680838292
 20
6.779525200355237
 30
1.923643835925759
 10
3.546964333386833
 20
6.789076730077795
 30
1.911896596120641
 10
3.561154418558155
 20
6.797248256661987
 30
1.900295532785094
1001
ACAD_VIEW_EDGE_ID
1071
       15
1071
       -1
1071
        4
1071
        0
  0
LINE
  5
344
330
70
100
AcDbEntity
  8
Visible Narrow
100
AcDbLine
 10
3.561154
 20
6.797248
 30
1.900296
 11
4.724818
 21
7.467358
 31
0.948945
210
-0.0000000000000001
220
0.8175471248425399
230
0.5758617009853117
  0
LINE
  5
345
330
70
100
AcDbEntity
  8
Visible Narrow
100
AcDbLine
 10
4.245589
 20
6.396613
 30
2.455278
 11
5.409253
 21
7.066722
 31
1.503928
210
-0.0000000000000001
220
0.8175471248425399
230
0.5758617009853117
  0
LINE
  5
346
330
70
100
AcDbEntity
  8
Visible Narrow
100
AcDbLine
 10
5.397881
 20
7.079767
 30
1.499206
 11
4.234217
 21
6.409657
 31
2.450556
210
-0.0000000000000001
220
0.8175471248425399
230
0.5758617009853117
  0
ARC
  5
347
330
70
100
AcDbEntity
  8
Visible Narrow
100
AcDbCircle
 10
3.568149
 20
5.841065
 30
4.187379
 40
0.196850393700786
210
0.7071067811866529
220
0.4071957137922733
230
-0.5780931159156389
100
AcDbArc
 50
136.858852
 51
180.0
  0
ARC
  5
348
330
70
100
AcDbEntity
  8
Visible Narrow
100
AcDbCircle
 10
-3.568149
 20
5.841065
 30
-5.833048
 40
0.196850393700786
210
-0.7071067811866529
220
-0.4071957137922733
230
0.5780931159156389
100
AcDbArc
 50
360.0
 51
43.141148
  0
LINE
  5
349
330
70
100
AcDbEntity
  8
Visible
100
AcDbLine
 10
4.755108
 20
6.628618
 30
1.481472
 11
4.755108
 21
4.724092
 31
0.139967
210
-0.0000000000000001
220
0.8175471248425399
230
0.5758617009853117
  0
LINE
  5
34A
330
70
100
AcDbEntity
  8
Visible
100
AcDbLine
 10
4.755108
 20
3.7905
 30
-0.517634
 11
4.755108
 21
3.649552
 31
-0.616915
210
-0.0000000000000001
220
0.8175471248425399
230
0.5758617009853117
  0
LINE
  5
34B
330
70
100
AcDbEntity
  8
Visible
100
AcDbLine
 10
4.203927
 20
6.311215
 30
1.2579
 11
4.203927
 21
4.724092
 31
0.139967
210
-0.0000000000000001
220
0.8175471248425399
230
0.5758617009853117
  0
LINE
  5
34C
330
70
100
AcDbEntity
  8
Visible
100
AcDbLine
 10
4.203927
 20
3.945453
 30
-0.408489
 11
4.203927
 21
3.649552
 31
-0.616915
210
-0.0000000000000001
220
0.8175471248425399
230
0.5758617009853117
  0
SPLINE
  5
34D
330
70
100
AcDbEntity
  8
Visible
100
AcDbSpline
 70
     0
 71
     3
 72
    72
 73
    68
 74
     0
 42
0.000000001
 43
0.0000000001
 40
0.0
 40
0.0
 40
0.0
 40
0.0
 40
0.0735018341451118
 40
0.0735018341451118
 40
0.1473894442071922
 40
0.1473894442071922
 40
0.2222011685285313
 40
0.2222011685285313
 40
0.2987896478253727
 40
0.2987896478253727
 40
0.3773959044976697
 40
0.3773959044976697
 40
0.4584505726199719
 40
0.4584505726199719
 40
0.5425201408340291
 40
0.5425201408340291
 40
0.6300893320276942
 40
0.6300893320276942
 40
0.7215081542411335
 40
0.7215081542411335
 40
0.8155761315148241
 40
0.8155761315148241
 40
0.9117040416535488
 40
0.9117040416535488
 40
1.00941554332844
 40
1.00941554332844
 40
1.108258202652456
 40
1.108258202652456
 40
1.207454422024473
 40
1.207454422024473
 40
1.305604567973812
 40
1.305604567973812
 40
1.402707861087036
 40
1.402707861087036
 40
1.498949190520127
 40
1.498949190520127
 40
1.594627484982198
 40
1.594627484982198
 40
1.689695654079802
 40
1.689695654079802
 40
1.783762352615329
 40
1.783762352615329
 40
1.877409580416399
 40
1.877409580416399
 40
1.971244346921342
 40
1.971244346921342
 40
2.065299173220092
 40
2.065299173220092
 40
2.159718643618664
 40
2.159718643618664
 40
2.255247058521428
 40
2.255247058521428
 40
2.352732765066222
 40
2.352732765066222
 40
2.452063006649325
 40
2.452063006649325
 40
2.554031981614929
 40
2.554031981614929
 40
2.659630146317476
 40
2.659630146317476
 40
2.756927502968709
 40
2.756927502968709
 40
2.829900520457134
 40
2.829900520457134
 40
2.939360046689772
 40
2.939360046689772
 40
3.048819572922409
 40
3.048819572922409
 40
3.048819572922409
 40
3.048819572922409
 10
4.715490177654439
 20
7.472211314460764
 30
0.9409542624234745
 10
4.722584923131373
 20
7.476296906658717
 30
0.9353780282599473
 10
4.729897286958996
 20
7.480051658885713
 30
0.9298303050945833
 10
4.744936733962797
 20
7.486891669545002
 30
0.9188068741586903
 10
4.752679570746815
 20
7.489979358705568
 30
0.913321687712596
 10
4.768597274948271
 20
7.49548694681016
 30
0.9024229229034972
 10
4.776776111419687
 20
7.497897946593184
 30
0.8970112773913569
 10
4.793589971358935
 20
7.502051121259682
 30
0.8862666146105766
 10
4.802237663057505
 20
7.5037793416177
 30
0.8809335938731237
 10
4.820075048221562
 20
7.506556998603628
 30
0.8703366978734266
 10
4.829260677811882
 20
7.507584006892102
 30
0.8650864487935905
 10
4.848153719162448
 20
7.50892456206111
 30
0.8547267316662328
 10
4.857868315878997
 20
7.50921488179938
 30
0.849626958652152
 10
4.877827786597274
 20
7.509059285424882
 30
0.8396346476729377
 10
4.888078786634261
 20
7.508585670347201
 30
0.8347570939931756
 10
4.909098282826173
 20
7.506886312677124
 30
0.8252995319980982
 10
4.919870370419241
 20
7.505630268864479
 30
0.8207405762914277
 10
4.941889564390814
 20
7.502366232993153
 30
0.8120322669001325
 10
4.953182011270266
 20
7.500322408059219
 30
0.807890355676136
 10
4.976242370930387
 20
7.49547540237836
 30
0.8001334171676717
 10
4.98799552616999
 20
7.492654689185656
 30
0.7965449515395449
 10
5.011800885736713
 20
7.486316329363035
 30
0.7900586394516722
 10
5.023853871802723
 20
7.482784898249519
 30
0.7871778306453053
 10
5.048116017728327
 20
7.475114379289152
 30
0.7822299617855606
 10
5.060324305342485
 20
7.47096642476572
 30
0.7801772120619717
 10
5.084748701677719
 20
7.462176481131791
 30
0.7769774976623012
 10
5.096932230329523
 20
7.457542047663991
 30
0.7758424377661868
 10
5.121284509601148
 20
7.447856451854931
 30
0.7745286087647401
 10
5.133468491597861
 20
7.442796217717841
 30
0.7743553615964629
 10
5.157588004065084
 20
7.43241597614724
 30
0.7750207143781154
 10
5.169524568761127
 20
7.427099437180913
 30
0.7758487622522808
 10
5.193056263276568
 20
7.416318503411275
 30
0.7785074017901934
 10
5.204653460358324
 20
7.410856462631272
 30
0.7803272001929145
 10
5.227441326315394
 20
7.399876895508896
 30
0.7849405078923155
 10
5.238634477440948
 20
7.394360460199095
 30
0.7877251203644846
 10
5.260571356304874
 20
7.383344141378074
 30
0.7942300768736459
 10
5.271294556071163
 20
7.377856359858924
 30
0.7979349873621687
 10
5.292352438727514
 20
7.366904648065428
 30
0.8062790623062028
 10
5.302690551622228
 20
7.361439477143903
 30
0.8109159397590701
 10
5.322849174367158
 20
7.350626079860376
 30
0.8210666843096987
 10
5.332673750977457
 20
7.345277381617052
 30
0.8265707097270933
 10
5.351787251198922
 20
7.334726978041544
 30
0.8384162163201835
 10
5.361078170339689
 20
7.329524852026224
 30
0.8447536805269919
 10
5.37910989097015
 20
7.31928617792073
 30
0.8582331390043691
 10
5.387840039511113
 20
7.314255817744196
 30
0.8653660233849223
 10
5.404805143255154
 20
7.304328299775079
 30
0.8804813772803754
 10
5.413023515232064
 20
7.299440024188697
 30
0.8884559716498188
 10
5.428861278417182
 20
7.289845896635597
 30
0.9051804815590003
 10
5.436477997035192
 20
7.285140955721544
 30
0.9139331111873616
 10
5.451090461524083
 20
7.275906928344738
 30
0.9322005946778517
 10
5.458077682417362
 20
7.271380675919317
 30
0.9417229421469528
 10
5.471407605748547
 20
7.262485387852393
 30
0.9615300949772063
 10
5.477750981222536
 20
7.25811107046502
 30
0.9718474946494097
 10
5.489792316529539
 20
7.249459803025274
 30
0.9933458805717236
 10
5.495462410244337
 20
7.245195269545547
 30
1.004520391175901
 10
5.5060697603654
 20
7.236736837768148
 30
1.027704331543645
 10
5.510983497573372
 20
7.23254838523735
 30
1.03972780001095
 10
5.520005775618821
 20
7.224158618318142
 30
1.064623426773323
 10
5.524080451992242
 20
7.219962856275742
 30
1.077510205182989
 10
5.530879843637714
 20
7.211922241293905
 30
1.102531442747931
 10
5.533687711190006
 20
7.208074301980559
 30
1.114644716830298
 10
5.537744650133001
 20
7.201235854249716
 30
1.135929683969152
 10
5.539215109677181
 20
7.198257059192656
 30
1.145119403481658
 10
5.542111045967951
 20
7.190644190520288
 30
1.168193322260776
 10
5.543136151329756
 20
7.185910101689842
 30
1.182127269561533
 10
5.543442038227633
 20
7.176358041790081
 30
1.209979832690805
 10
5.542718116903026
 20
7.171574788720135
 30
1.223887700693012
 10
5.541184490588031
 20
7.166938533774555
 30
1.237816493590798
1001
ACAD_VIEW_EDGE_ID
1071
    -8193
1071
       -1
1071
        4
1071
        0
  0
SPLINE
  5
34E
330
70
100
AcDbEntity
  8
Visible
100
AcDbSpline
 70
     0
 71
     3
 72
    44
 73
    40
 74
     0
 42
0.000000001
 43
0.0000000001
 40
2.214555214625002
 40
2.214555214625002
 40
2.214555214625002
 40
2.214555214625002
 40
2.296118697206615
 40
2.296118697206615
 40
2.377682179788228
 40
2.377682179788228
 40
2.459245662369841
 40
2.459245662369841
 40
2.540809144951454
 40
2.540809144951454
 40
2.622372627533067
 40
2.622372627533067
 40
2.70393611011468
 40
2.70393611011468
 40
2.785499592696293
 40
2.785499592696293
 40
2.867063075277906
 40
2.867063075277906
 40
2.948626557859519
 40
2.948626557859519
 40
3.030190040441131
 40
3.030190040441131
 40
3.111753523022744
 40
3.111753523022744
 40
3.193317005604357
 40
3.193317005604357
 40
3.27488048818597
 40
3.27488048818597
 40
3.356443970767583
 40
3.356443970767583
 40
3.438007453349196
 40
3.438007453349196
 40
3.519380233625941
 40
3.519380233625941
 40
3.597778390179141
 40
3.597778390179141
 40
3.721801628218203
 40
3.721801628218203
 40
3.845824866257265
 40
3.845824866257265
 40
3.845824866257265
 40
3.845824866257265
 10
3.50110779046515
 20
6.32545390091036
 30
2.262770758379701
 10
3.495065721930197
 20
6.332058977911401
 30
2.256436817151552
 10
3.489326288066488
 20
6.338898507078738
 30
2.250128465153466
 10
3.478415888920219
 20
6.353076142638201
 30
2.237508262638584
 10
3.47324123085543
 20
6.360421723274157
 30
2.231190754038834
 10
3.463498449583832
 20
6.375571546725041
 30
2.218564657528986
 10
3.458930429185395
 20
6.383375712617635
 30
2.21225613685965
 10
3.450441401294094
 20
6.399376650272643
 30
2.199670562888059
 10
3.446520457733251
 20
6.407573327865065
 30
2.193393559298783
 10
3.439358313692148
 20
6.424284738784081
 30
2.18089045747547
 10
3.43611714312062
 20
6.432799365859864
 30
2.174664394671708
 10
3.430338137448936
 20
6.450066655396767
 30
2.162278241416061
 10
3.427800301053659
 20
6.458819202139238
 30
2.15611817719764
 10
3.423441997504207
 20
6.476480178684141
 30
2.143873813309255
 10
3.421623407440685
 20
6.485374033263724
 30
2.137799222162357
 10
3.418695614205327
 20
6.503327391590573
 30
2.125668804674205
 10
3.417588318336649
 20
6.51238544640455
 30
2.119614314429782
 10
3.416105609338567
 20
6.530581059520045
 30
2.107530783076072
 10
3.415730202216375
 20
6.539718514753985
 30
2.101501756120342
 10
3.415721814367836
 20
6.557986726955277
 30
2.089470092505507
 10
3.416086908349436
 20
6.56711004887984
 30
2.083472362341126
 10
3.417577407391556
 20
6.585387738410645
 30
2.071419055257138
 10
3.418703633888592
 20
6.594526404729549
 30
2.065373755665859
 10
3.421733066398312
 20
6.612699061974126
 30
2.053250491855578
 10
3.423636291424893
 20
6.621732892816908
 30
2.047172526856229
 10
3.428222298655393
 20
6.639588244255719
 30
2.034988623336175
 10
3.430905055902778
 20
6.648409602043102
 30
2.028882680198876
 10
3.437040206450157
 20
6.66573421204157
 30
2.016647684347844
 10
3.440492519756455
 20
6.674237301554057
 30
2.01051864117835
 10
3.448145886474387
 20
6.690826321975691
 30
1.998242478395695
 10
3.452340717754461
 20
6.698901884799852
 30
1.992103475469775
 10
3.461467507240351
 20
6.714576398269855
 30
1.97978963022615
 10
3.466412164128607
 20
6.722197783220508
 30
1.973597336784223
 10
3.47684785538747
 20
6.736635884070892
 30
1.961384697748144
 10
3.482312163366779
 20
6.743471573302485
 30
1.955366423000668
 10
3.497246798364878
 20
6.760350990902225
 30
1.939804840953001
 10
3.507186964665899
 20
6.769932956945012
 30
1.930258699145269
 10
3.528468670010235
 20
6.787345805765653
 30
1.911232011894753
 10
3.539854951276149
 20
6.795208013260889
 30
1.901713403331086
 10
3.551826262158622
 20
6.802101832708103
 30
1.892304350818449
1001
ACAD_VIEW_EDGE_ID
1071
   -10241
1071
       -1
1071
        4
1071
        0
  0
LINE
  5
34F
330
70
100
AcDbEntity
  8
Visible
100
AcDbLine
 10
3.551826
 20
6.802102
 30
1.892304
 11
4.71549
 21
7.472211
 31
0.940954
210
-0.0000000000000001
220
0.8175471248425399
230
0.5758617009853117
  0
LINE
  5
350
330
70
100
AcDbEntity
  8
Visible
100
AcDbLine
 10
5.368376
 20
6.981776
 30
1.394093
 11
4.204712
 21
6.311666
 31
2.345443
210
-0.0000000000000001
220
0.8175471248425399
230
0.5758617009853117
  0
SPLINE
  5
351
330
70
100
AcDbEntity
  8
Visible
100
AcDbSpline
 70
     0
 71
     3
 72
    18
 73
    14
 74
     0
 42
0.000000001
 43
0.0000000001
 40
1.013516680069333
 40
1.013516680069333
 40
1.013516680069333
 40
1.013516680069333
 40
1.200688818069562
 40
1.200688818069562
 40
1.401804695994061
 40
1.401804695994061
 40
1.644793776351977
 40
1.644793776351977
 40
1.917308353728159
 40
1.917308353728159
 40
2.189822931104342
 40
2.189822931104342
 40
2.376089566950245
 40
2.376089566950245
 40
2.376089566950245
 40
2.376089566950245
 10
3.50110779046515
 20
6.32545390091036
 30
2.262770758379701
 10
3.529173198989676
 20
6.294773318054467
 30
2.278481538112828
 10
3.56229474216486
 20
6.269234069054618
 30
2.293520277213247
 10
3.636650556265133
 20
6.228567109442337
 30
2.322911686904262
 10
3.677897728297987
 20
6.214604092953777
 30
2.336986169591909
 10
3.766931400327459
 20
6.196961326377277
 30
2.363761371561849
 10
3.815550700992
 20
6.195591029373645
 30
2.375920372580367
 10
3.912066731009483
 20
6.203240023754915
 30
2.393880129866374
 10
3.960604515087263
 20
6.213506129975939
 30
2.39900472264162
 10
4.05053268120225
 20
6.239931266838539
 30
2.398072244230206
 10
4.092175448194732
 20
6.256105686217779
 30
2.392008910072036
 10
4.156658127748025
 20
6.285578655280005
 30
2.371126428233765
 10
4.181446150722488
 20
6.298268392130921
 30
2.359574509160665
 10
4.204711837161605
 20
6.311666209897339
 30
2.345443346444881
1001
ACAD_VIEW_EDGE_ID
1071
   -18433
1071
       -1
1071
        4
1071
        0
  0
SPLINE
  5
352
330
70
100
AcDbEntity
  8
Visible
100
AcDbSpline
 70
     0
 71
     3
 72
    16
 73
    12
 74
     0
 42
0.000000001
 43
0.0000000001
 40
0.0
 40
0.0
 40
0.0
 40
0.0
 40
0.0995605492594066
 40
0.0995605492594066
 40
0.1991210985188132
 40
0.1991210985188132
 40
0.2986816477782198
 40
0.2986816477782198
 40
0.3982421970376264
 40
0.3982421970376264
 40
0.4978027462970331
 40
0.4978027462970331
 40
0.4978027462970331
 40
0.4978027462970331
 10
5.368375752657422
 20
6.98177569165
 30
1.394093258048087
 10
5.380811391012295
 20
6.98893689950637
 30
1.386540073253854
 10
5.392974159169691
 20
6.996395760271298
 30
1.378178006438247
 10
5.416932807443638
 20
7.012309404261031
 30
1.360079619855241
 10
5.428732367029235
 20
7.02075556897671
 30
1.350346069151783
 10
5.452234833115264
 20
7.039495096449172
 30
1.329897142501067
 10
5.463909601789575
 20
7.049724867547411
 30
1.319233821157467
 10
5.487537776448855
 20
7.073966870832009
 30
1.297035916602908
 10
5.499548511665645
 20
7.088015049487694
 30
1.285505916699548
 10
5.52241808711785
 20
7.122459449094094
 30
1.26194157401369
 10
5.533282467596629
 20
7.14305018962932
 30
1.24990897263342
 10
5.541184490588031
 20
7.166938533774555
 30
1.237816493590798
1001
ACAD_VIEW_EDGE_ID
1071
   -22529
1071
       -1
1071
        4
1071
        0
  0
ENDSEC
  0
SECTION
  2
OBJECTS
  0
DICTIONARY
  5
C
330
0
100
AcDbDictionary
281
     1
  3
ACAD_COLOR
350
63
  3
ACAD_DETAILVIEWSTYLE
350
6A
  3
ACAD_GROUP
350
D
  3
ACAD_IMAGE_DICT
350
129
  3
ACAD_IMAGE_VARS
350
12B
  3
ACAD_LAYOUT
350
62
  3
ACAD_MATERIAL
350
10
  3
ACAD_MLEADERSTYLE
350
66
  3
ACAD_MLINESTYLE
350
5F
  3
ACAD_PLOTSETTINGS
350
61
  3
ACAD_PLOTSTYLENAME
350
E
  3
ACAD_SCALELIST
350
42
  3
ACAD_SECTIONVIEWSTYLE
350
68
  3
ACAD_TABLESTYLE
350
64
  3
ACAD_VISUALSTYLE
350
29
  3
ACDB_RECOMPOSE_DATA
350
3A1
  3
AcDbVariableDictionary
350
398
  0
DICTIONARY
  5
B2
330
70
100
AcDbDictionary
280
     1
281
     1
  3
ACAD_SORTENTS
360
11F
  0
DICTIONARY
  5
123
330
122
100
AcDbDictionary
280
     1
281
     1
  3
ACAD_SORTENTS
360
2FA
  0
IMAGEDEF_REACTOR
  5
12A
330
127
100
AcDbRasterImageDefReactor
 90
        2
330
127
  0
DICTIONARY
  5
63
102
{ACAD_REACTORS
330
C
102
}
330
C
100
AcDbDictionary
281
     1
  0
DICTIONARY
  5
6A
102
{ACAD_REACTORS
330
C
102
}
330
C
100
AcDbDictionary
281
     1
  3
Imperial24
350
6B
  0
DICTIONARY
  5
D
102
{ACAD_REACTORS
330
C
102
}
330
C
100
AcDbDictionary
281
     1
  0
DICTIONARY
  5
129
102
{ACAD_REACTORS
330
C
102
}
330
C
100
AcDbDictionary
281
     1
  3
morse_logo-16 (1)_01-2018(B)_1_1
350
128
  0
RASTERVARIABLES
  5
12B
102
{ACAD_REACTORS
330
C
102
}
330
C
100
AcDbRasterVariables
 90
        0
 70
     0
 71
     1
 72
     5
  0
DICTIONARY
  5
62
102
{ACAD_REACTORS
330
C
102
}
330
C
100
AcDbDictionary
281
     1
  3
Model
350
73
  3
Sheet1
350
6F
  3
Sheet2
350
77
  0
DICTIONARY
  5
10
102
{ACAD_REACTORS
330
C
102
}
330
C
100
AcDbDictionary
281
     1
  3
ByBlock
350
19
  3
ByLayer
350
11
  3
Global
350
21
  0
DICTIONARY
  5
66
102
{ACAD_REACTORS
330
C
102
}
330
C
100
AcDbDictionary
281
     1
  3
Standard
350
67
  0
DICTIONARY
  5
5F
102
{ACAD_REACTORS
330
C
102
}
330
C
100
AcDbDictionary
281
     1
  3
Standard
350
60
  0
DICTIONARY
  5
61
102
{ACAD_REACTORS
330
C
102
}
330
C
100
AcDbDictionary
281
     1
  0
ACDBDICTIONARYWDFLT
  5
E
102
{ACAD_REACTORS
330
C
102
}
330
C
100
AcDbDictionary
281
     1
  3
Normal
350
F
100
AcDbDictionaryWithDefault
340
F
  0
DICTIONARY
  5
42
102
{ACAD_REACTORS
330
C
102
}
330
C
100
AcDbDictionary
281
     1
  3
*A1
350
A2
  3
*A10
350
AB
  3
*A11
350
AC
  3
*A12
350
AD
  3
*A13
350
AE
  3
*A14
350
AF
  3
*A15
350
B0
  3
*A16
350
B1
  3
*A2
350
A3
  3
*A3
350
A4
  3
*A4
350
A5
  3
*A5
350
A6
  3
*A6
350
A7
  3
*A7
350
A8
  3
*A8
350
A9
  3
*A9
350
AA
  3
A0
350
43
  3
A1
350
44
  3
A2
350
45
  3
A3
350
46
  3
A4
350
47
  3
A5
350
48
  3
A6
350
49
  3
A7
350
4A
  3
A8
350
4B
  3
A9
350
4C
  3
B0
350
4D
  3
B1
350
4E
  3
B2
350
4F
  3
B3
350
50
  3
B4
350
51
  3
B5
350
52
  3
B6
350
53
  0
DICTIONARY
  5
68
102
{ACAD_REACTORS
330
C
102
}
330
C
100
AcDbDictionary
281
     1
  3
Imperial24
350
69
  0
DICTIONARY
  5
64
102
{ACAD_REACTORS
330
C
102
}
330
C
100
AcDbDictionary
281
     1
  3
Standard
350
65
  0
DICTIONARY
  5
29
102
{ACAD_REACTORS
330
C
102
}
330
C
100
AcDbDictionary
281
     1
  3
2dWireframe
350
2F
  3
Basic
350
2E
  3
Brighten
350
35
  3
ColorChange
350
39
  3
Conceptual
350
32
  3
Dim
350
34
  3
EdgeColorOff
350
41
  3
Facepattern
350
38
  3
Flat
350
2A
  3
FlatWithEdges
350
2B
  3
Gouraud
350
2C
  3
GouraudWithEdges
350
2D
  3
Hidden
350
31
  3
JitterOff
350
3F
  3
Linepattern
350
37
  3
OverhangOff
350
40
  3
Realistic
350
33
  3
Shaded
350
3E
  3
Shaded with edges
350
3D
  3
Shades of Gray
350
3A
  3
Sketchy
350
3B
  3
Thicken
350
36
  3
Wireframe
350
30
  3
X-Ray
350
3C
  0
XRECORD
  5
3A1
102
{ACAD_REACTORS
330
C
102
}
330
C
100
AcDbXrecord
280
     1
 90
        1
330
65
330
12F
330
139
330
13A
330
13B
330
13E
  0
DICTIONARY
  5
398
102
{ACAD_REACTORS
330
C
102
}
330
C
100
AcDbDictionary
281
     1
  3
ANNOALLVISIBLE
350
39D
  3
CANNOSCALE
350
39E
  3
CMLEADERSTYLE
350
39A
  3
CTABLESTYLE
350
399
  3
CVIEWDETAILSTYLE
350
39B
  3
CVIEWSECTIONSTYLE
350
39C
  0
SORTENTSTABLE
  5
11F
102
{ACAD_REACTORS
330
B2
102
}
330
B2
100
AcDbSortentsTable
330
70
  0
SORTENTSTABLE
  5
2FA
102
{ACAD_REACTORS
330
123
102
}
330
123
100
AcDbSortentsTable
330
122
  0
ACDBDETAILVIEWSTYLE
  5
6B
102
{ACAD_XDICTIONARY
360
3A4
102
}
102
{ACAD_REACTORS
330
6A
102
}
330
6A
100
AcDbModelDocViewStyle
 70
     0
  3
Imperial24
290
     0
100
AcDbDetailViewStyle
 70
     0
 71
     0
 90
        3
 71
     1
340
55
 62
   256
 40
0.24
340
0
 62
   256
 40
0.24
300

 40
0.36
280
     3
 71
     2
340
5D
 90
       25
 62
   256
 71
     3
340
55
 62
   256
 40
0.24
 90
        1
 40
0.75
 90
        1
300
%<\AcVar ViewType \f "%tc1">% %<\AcVar ViewDetailId>%\PSCALE %<\AcVar ViewScale \f "%sn">%
 71
     4
340
5D
 90
       25
 62
   256
340
5D
 90
       25
 62
   256
280
     0
  0
IMAGEDEF
  5
128
102
{ACAD_REACTORS
330
129
330
12A
330
353
102
}
330
129
100
AcDbRasterImageDef
 90
        0
  1
morse_logo-16 (1)_01-2018(B)_1_1.jpg
 10
948.0
 20
333.0
 11
0.264583
 21
0.264583
280
     1
281
     5
  0
LAYOUT
  5
73
102
{ACAD_REACTORS
330
62
102
}
330
62
100
AcDbPlotSettings
  1

  2
AutoCAD PDF (High Quality Print).pc3
  4
ANSI_full_bleed_B_(17.00_x_11.00_Inches)
  6

 40
0.0
 41
0.0
 42
0.0
 43
0.0
 44
431.799988
 45
279.399994
 46
0.0
 47
0.0
 48
0.0
 49
0.0
140
0.0
141
0.0
142
1.0
143
1.33542
 70
 11952
 72
     0
 73
     0
 74
     0
  7

 75
     0
147
0.748828
 76
     0
 77
     2
 78
   300
148
28.083828
149
28.234157
100
AcDbLayout
  1
Model
 70
     1
 71
     0
 10
0.0
 20
0.0
 11
12.0
 21
9.0
 12
0.0
 22
0.0
 32
0.0
 14
0.0
 24
0.0
 34
0.0
 15
0.0
 25
0.0
 35
0.0
146
0.0
 13
0.0
 23
0.0
 33
0.0
 16
1.0
 26
0.0
 36
0.0
 17
0.0
 27
1.0
 37
0.0
 76
     0
330
70
1001
ACAD_PSEXT
1000
AutoCAD PDF (High Quality Print).pc3
1000
DWG To PDF
1000
File
1000

1070
     0
  0
LAYOUT
  5
6F
102
{ACAD_REACTORS
330
62
102
}
330
62
100
AcDbPlotSettings
  1

  2
None
  4

  6

 40
0.0
 41
0.0
 42
0.0
 43
0.0
 44
0.0
 45
0.0
 46
0.0
 47
0.0
 48
0.0
 49
0.0
140
0.0
141
0.0
142
1.0
143
1.0
 70
   688
 72
     0
 73
     0
 74
     5
  7

 75
    16
147
1.0
 76
     0
 77
     2
 78
   300
148
0.0
149
0.0
100
AcDbLayout
  1
Sheet1
 70
     1
 71
     1
 10
0.0
 20
0.0
 11
12.0
 21
9.0
 12
0.0
 22
0.0
 32
0.0
 14
0.0
 24
0.0
 34
0.0
 15
0.0
 25
0.0
 35
0.0
146
0.0
 13
0.0
 23
0.0
 33
0.0
 16
1.0
 26
0.0
 36
0.0
 17
0.0
 27
1.0
 37
0.0
 76
     0
330
6C
  0
LAYOUT
  5
77
102
{ACAD_REACTORS
330
62
102
}
330
62
100
AcDbPlotSettings
  1

  2
None
  4

  6

 40
0.0
 41
0.0
 42
0.0
 43
0.0
 44
0.0
 45
0.0
 46
0.0
 47
0.0
 48
0.0
 49
0.0
140
0.0
141
0.0
142
1.0
143
1.0
 70
   688
 72
     0
 73
     0
 74
     5
  7

 75
    16
147
1.0
 76
     0
 77
     2
 78
   300
148
0.0
149
0.0
100
AcDbLayout
  1
Sheet2
 70
     1
 71
     2
 10
0.0
 20
0.0
 11
12.0
 21
9.0
 12
0.0
 22
0.0
 32
0.0
 14
0.0
 24
0.0
 34
0.0
 15
0.0
 25
0.0
 35
0.0
146
0.0
 13
0.0
 23
0.0
 33
0.0
 16
1.0
 26
0.0
 36
0.0
 17
0.0
 27
1.0
 37
0.0
 76
     0
330
74
  0
MATERIAL
  5
19
102
{ACAD_XDICTIONARY
360
1A
102
}
102
{ACAD_REACTORS
330
10
102
}
330
10
100
AcDbMaterial
  1
ByBlock
 72
     0
 43
0.020833
 43
0.0
 43
0.0
 43
0.0
 43
0.0
 43
0.020833
 43
0.0
 43
0.0
 43
0.0
 43
0.0
 43
1.0
 43
0.0
 43
0.0
 43
0.0
 43
0.0
 43
1.0
 77
     0
 47
0.020833
 47
0.0
 47
0.0
 47
0.0
 47
0.0
 47
0.020833
 47
0.0
 47
0.0
 47
0.0
 47
0.0
 47
1.0
 47
0.0
 47
0.0
 47
0.0
 47
0.0
 47
1.0
171
     0
 49
0.020833
 49
0.0
 49
0.0
 49
0.0
 49
0.0
 49
0.020833
 49
0.0
 49
0.0
 49
0.0
 49
0.0
 49
1.0
 49
0.0
 49
0.0
 49
0.0
 49
0.0
 49
1.0
175
     0
142
0.020833
142
0.0
142
0.0
142
0.0
142
0.0
142
0.020833
142
0.0
142
0.0
142
0.0
142
0.0
142
1.0
142
0.0
142
0.0
142
0.0
142
0.0
142
1.0
179
     0
144
0.020833
144
0.0
144
0.0
144
0.0
144
0.0
144
0.020833
144
0.0
144
0.0
144
0.0
144
0.0
144
1.0
144
0.0
144
0.0
144
0.0
144
0.0
144
1.0
147
0.020833
147
0.0
147
0.0
147
0.0
147
0.0
147
0.020833
147
0.0
147
0.0
147
0.0
147
0.0
147
1.0
147
0.0
147
0.0
147
0.0
147
0.0
147
1.0
  0
MATERIAL
  5
11
102
{ACAD_XDICTIONARY
360
12
102
}
102
{ACAD_REACTORS
330
10
102
}
330
10
100
AcDbMaterial
  1
ByLayer
 72
     0
 43
0.020833
 43
0.0
 43
0.0
 43
0.0
 43
0.0
 43
0.020833
 43
0.0
 43
0.0
 43
0.0
 43
0.0
 43
1.0
 43
0.0
 43
0.0
 43
0.0
 43
0.0
 43
1.0
 77
     0
 47
0.020833
 47
0.0
 47
0.0
 47
0.0
 47
0.0
 47
0.020833
 47
0.0
 47
0.0
 47
0.0
 47
0.0
 47
1.0
 47
0.0
 47
0.0
 47
0.0
 47
0.0
 47
1.0
171
     0
 49
0.020833
 49
0.0
 49
0.0
 49
0.0
 49
0.0
 49
0.020833
 49
0.0
 49
0.0
 49
0.0
 49
0.0
 49
1.0
 49
0.0
 49
0.0
 49
0.0
 49
0.0
 49
1.0
175
     0
142
0.020833
142
0.0
142
0.0
142
0.0
142
0.0
142
0.020833
142
0.0
142
0.0
142
0.0
142
0.0
142
1.0
142
0.0
142
0.0
142
0.0
142
0.0
142
1.0
179
     0
144
0.020833
144
0.0
144
0.0
144
0.0
144
0.0
144
0.020833
144
0.0
144
0.0
144
0.0
144
0.0
144
1.0
144
0.0
144
0.0
144
0.0
144
0.0
144
1.0
147
0.020833
147
0.0
147
0.0
147
0.0
147
0.0
147
0.020833
147
0.0
147
0.0
147
0.0
147
0.0
147
1.0
147
0.0
147
0.0
147
0.0
147
0.0
147
1.0
  0
MATERIAL
  5
21
102
{ACAD_XDICTIONARY
360
22
102
}
102
{ACAD_REACTORS
330
10
102
}
330
10
100
AcDbMaterial
  1
Global
 72
     0
 43
0.020833
 43
0.0
 43
0.0
 43
0.0
 43
0.0
 43
0.020833
 43
0.0
 43
0.0
 43
0.0
 43
0.0
 43
1.0
 43
0.0
 43
0.0
 43
0.0
 43
0.0
 43
1.0
 77
     0
 47
0.020833
 47
0.0
 47
0.0
 47
0.0
 47
0.0
 47
0.020833
 47
0.0
 47
0.0
 47
0.0
 47
0.0
 47
1.0
 47
0.0
 47
0.0
 47
0.0
 47
0.0
 47
1.0
171
     0
 49
0.020833
 49
0.0
 49
0.0
 49
0.0
 49
0.0
 49
0.020833
 49
0.0
 49
0.0
 49
0.0
 49
0.0
 49
1.0
 49
0.0
 49
0.0
 49
0.0
 49
0.0
 49
1.0
175
     0
142
0.020833
142
0.0
142
0.0
142
0.0
142
0.0
142
0.020833
142
0.0
142
0.0
142
0.0
142
0.0
142
1.0
142
0.0
142
0.0
142
0.0
142
0.0
142
1.0
179
     0
144
0.020833
144
0.0
144
0.0
144
0.0
144
0.0
144
0.020833
144
0.0
144
0.0
144
0.0
144
0.0
144
1.0
144
0.0
144
0.0
144
0.0
144
0.0
144
1.0
147
0.020833
147
0.0
147
0.0
147
0.0
147
0.0
147
0.020833
147
0.0
147
0.0
147
0.0
147
0.0
147
1.0
147
0.0
147
0.0
147
0.0
147
0.0
147
1.0
  0
MLEADERSTYLE
  5
67
102
{ACAD_REACTORS
330
66
102
}
330
66
100
AcDbMLeaderStyle
179
     2
170
     2
171
     1
172
     0
 90
        2
 40
0.0
 41
0.0
173
     1
 91
-1056964608
340
5B
 92
       -2
290
     1
 42
0.09
291
     1
 43
0.36
  3
Standard
 44
0.18
300

342
55
174
     1
178
     6
175
     1
176
     0
 93
-1056964608
 45
0.18
292
     0
297
     0
 46
0.18
 94
-1056964608
 47
1.0
 49
1.0
140
1.0
293
     1
141
0.0
294
     1
177
     0
142
1.0
295
     0
296
     0
143
0.125
271
     0
272
     9
273
     9
298
     1
  0
MLINESTYLE
  5
60
102
{ACAD_REACTORS
330
5F
102
}
330
5F
100
AcDbMlineStyle
  2
STANDARD
 70
     0
  3

 62
   256
 51
90.0
 52
90.0
 71
     0
  0
ACDBPLACEHOLDER
  5
F
102
{ACAD_REACTORS
330
E
102
}
330
E
  0
SCALE
  5
A2
102
{ACAD_REACTORS
330
42
102
}
330
42
100
AcDbScale
 70
     0
300
1:2
140
1.0
141
2.0
290
     0
  0
SCALE
  5
AB
102
{ACAD_REACTORS
330
42
102
}
330
42
100
AcDbScale
 70
     0
300
1:50
140
1.0
141
50.0
290
     0
  0
SCALE
  5
AC
102
{ACAD_REACTORS
330
42
102
}
330
42
100
AcDbScale
 70
     0
300
1:100
140
1.0
141
100.0
290
     0
  0
SCALE
  5
AD
102
{ACAD_REACTORS
330
42
102
}
330
42
100
AcDbScale
 70
     0
300
2:1
140
2.0
141
1.0
290
     0
  0
SCALE
  5
AE
102
{ACAD_REACTORS
330
42
102
}
330
42
100
AcDbScale
 70
     0
300
4:1
140
4.0
141
1.0
290
     0
  0
SCALE
  5
AF
102
{ACAD_REACTORS
330
42
102
}
330
42
100
AcDbScale
 70
     0
300
8:1
140
8.0
141
1.0
290
     0
  0
SCALE
  5
B0
102
{ACAD_REACTORS
330
42
102
}
330
42
100
AcDbScale
 70
     0
300
10:1
140
10.0
141
1.0
290
     0
  0
SCALE
  5
B1
102
{ACAD_REACTORS
330
42
102
}
330
42
100
AcDbScale
 70
     0
300
100:1
140
100.0
141
1.0
290
     0
  0
SCALE
  5
A3
102
{ACAD_REACTORS
330
42
102
}
330
42
100
AcDbScale
 70
     0
300
1:4
140
1.0
141
4.0
290
     0
  0
SCALE
  5
A4
102
{ACAD_REACTORS
330
42
102
}
330
42
100
AcDbScale
 70
     0
300
1:5
140
1.0
141
5.0
290
     0
  0
SCALE
  5
A5
102
{ACAD_REACTORS
330
42
102
}
330
42
100
AcDbScale
 70
     0
300
1:8
140
1.0
141
8.0
290
     0
  0
SCALE
  5
A6
102
{ACAD_REACTORS
330
42
102
}
330
42
100
AcDbScale
 70
     0
300
1:10
140
1.0
141
10.0
290
     0
  0
SCALE
  5
A7
102
{ACAD_REACTORS
330
42
102
}
330
42
100
AcDbScale
 70
     0
300
1:16
140
1.0
141
16.0
290
     0
  0
SCALE
  5
A8
102
{ACAD_REACTORS
330
42
102
}
330
42
100
AcDbScale
 70
     0
300
1:20
140
1.0
141
20.0
290
     0
  0
SCALE
  5
A9
102
{ACAD_REACTORS
330
42
102
}
330
42
100
AcDbScale
 70
     0
300
1:30
140
1.0
141
30.0
290
     0
  0
SCALE
  5
AA
102
{ACAD_REACTORS
330
42
102
}
330
42
100
AcDbScale
 70
     0
300
1:40
140
1.0
141
40.0
290
     0
  0
SCALE
  5
43
102
{ACAD_REACTORS
330
42
102
}
330
42
100
AcDbScale
 70
     0
300
1:1
140
1.0
141
1.0
290
     1
  0
SCALE
  5
44
102
{ACAD_REACTORS
330
42
102
}
330
42
100
AcDbScale
 70
     0
300
1/128" = 1'-0"
140
0.007813
141
12.0
290
     0
  0
SCALE
  5
45
102
{ACAD_REACTORS
330
42
102
}
330
42
100
AcDbScale
 70
     0
300
1/64" = 1'-0"
140
0.015625
141
12.0
290
     0
  0
SCALE
  5
46
102
{ACAD_REACTORS
330
42
102
}
330
42
100
AcDbScale
 70
     0
300
1/32" = 1'-0"
140
0.03125
141
12.0
290
     0
  0
SCALE
  5
47
102
{ACAD_REACTORS
330
42
102
}
330
42
100
AcDbScale
 70
     0
300
1/16" = 1'-0"
140
0.0625
141
12.0
290
     0
  0
SCALE
  5
48
102
{ACAD_REACTORS
330
42
102
}
330
42
100
AcDbScale
 70
     0
300
3/32" = 1'-0"
140
0.09375
141
12.0
290
     0
  0
SCALE
  5
49
102
{ACAD_REACTORS
330
42
102
}
330
42
100
AcDbScale
 70
     0
300
1/8" = 1'-0"
140
0.125
141
12.0
290
     0
  0
SCALE
  5
4A
102
{ACAD_REACTORS
330
42
102
}
330
42
100
AcDbScale
 70
     0
300
3/16" = 1'-0"
140
0.1875
141
12.0
290
     0
  0
SCALE
  5
4B
102
{ACAD_REACTORS
330
42
102
}
330
42
100
AcDbScale
 70
     0
300
1/4" = 1'-0"
140
0.25
141
12.0
290
     0
  0
SCALE
  5
4C
102
{ACAD_REACTORS
330
42
102
}
330
42
100
AcDbScale
 70
     0
300
3/8" = 1'-0"
140
0.375
141
12.0
290
     0
  0
SCALE
  5
4D
102
{ACAD_REACTORS
330
42
102
}
330
42
100
AcDbScale
 70
     0
300
1/2" = 1'-0"
140
0.5
141
12.0
290
     0
  0
SCALE
  5
4E
102
{ACAD_REACTORS
330
42
102
}
330
42
100
AcDbScale
 70
     0
300
3/4" = 1'-0"
140
0.75
141
12.0
290
     0
  0
SCALE
  5
4F
102
{ACAD_REACTORS
330
42
102
}
330
42
100
AcDbScale
 70
     0
300
1" = 1'-0"
140
1.0
141
12.0
290
     0
  0
SCALE
  5
50
102
{ACAD_REACTORS
330
42
102
}
330
42
100
AcDbScale
 70
     0
300
1-1/2" = 1'-0"
140
1.5
141
12.0
290
     0
  0
SCALE
  5
51
102
{ACAD_REACTORS
330
42
102
}
330
42
100
AcDbScale
 70
     0
300
3" = 1'-0"
140
3.0
141
12.0
290
     0
  0
SCALE
  5
52
102
{ACAD_REACTORS
330
42
102
}
330
42
100
AcDbScale
 70
     0
300
6" = 1'-0"
140
6.0
141
12.0
290
     0
  0
SCALE
  5
53
102
{ACAD_REACTORS
330
42
102
}
330
42
100
AcDbScale
 70
     0
300
1'-0" = 1'-0"
140
12.0
141
12.0
290
     0
  0
ACDBSECTIONVIEWSTYLE
  5
69
102
{ACAD_XDICTIONARY
360
3A2
102
}
102
{ACAD_REACTORS
330
68
102
}
330
68
100
AcDbModelDocViewStyle
 70
     0
  3
Imperial24
290
     0
100
AcDbSectionViewStyle
 70
     0
 71
     0
 90
       78
 71
     1
340
55
 62
   256
 40
0.24
340
0
340
0
 62
   256
 40
0.24
300
I, O, Q, S, X, Z
 40
0.48
 90
        3
 40
0.18
 90
        1
 71
     2
340
5D
 90
       25
 62
   256
340
5D
 90
       50
 62
   256
 40
0.24
 40
0.0
 40
0.24
 71
     3
340
55
 62
   256
 40
0.24
 90
        1
 40
0.75
 90
        1
300
%<\AcVar ViewType \f "%tc1">% %<\AcVar ViewSectionStartId>%-%<\AcVar ViewSectionEndId>%\PSCALE %<\AcVar ViewScale \f "%sn">%
 71
     4
 62
   256
 62
   257
300
ANSI31
 40
1.0
 90
        0
290
     0
290
     0
 90
        6
 40
0.0
 40
1.570796
 40
0.261799
 40
1.308997
 40
-0.261799
 40
1.832596
  0
TABLESTYLE
  5
65
102
{ACAD_XDICTIONARY
360
39F
102
}
102
{ACAD_REACTORS
330
64
102
}
330
64
100
AcDbTableStyle
280
     0
  3
Standard
 70
     0
 71
     0
 40
0.06
 41
0.06
280
     0
281
     0
  7
Standard
140
0.18
170
     2
 62
     0
 63
     7
283
     0
 90
      512
 91
        0
  1

274
    -2
284
     1
 64
     0
275
    -2
285
     1
 65
     0
276
    -2
286
     1
 66
     0
277
    -2
287
     1
 67
     0
278
    -2
288
     1
 68
     0
279
    -2
289
     1
 69
     0
  7
Standard
140
0.25
170
     5
 62
     0
 63
     7
283
     0
 90
      512
 91
        0
  1

274
    -2
284
     1
 64
     0
275
    -2
285
     1
 65
     0
276
    -2
286
     1
 66
     0
277
    -2
287
     1
 67
     0
278
    -2
288
     1
 68
     0
279
    -2
289
     1
 69
     0
  7
Standard
140
0.18
170
     5
 62
     0
 63
     7
283
     0
 90
      512
 91
        0
  1

274
    -2
284
     1
 64
     0
275
    -2
285
     1
 65
     0
276
    -2
286
     1
 66
     0
277
    -2
287
     1
 67
     0
278
    -2
288
     1
 68
     0
279
    -2
289
     1
 69
     0
  0
VISUALSTYLE
  5
2F
102
{ACAD_REACTORS
330
29
102
}
330
29
100
AcDbVisualStyle
  2
2dWireframe
 70
     4
177
     3
291
     0
 70
    58
 90
        0
176
     1
 90
        2
176
     1
 90
        0
176
     1
 90
        0
176
     1
 40
0.6
176
     1
 40
30.0
176
     1
 62
     7
420
 16777215
176
     1
 90
        1
176
     1
 90
        4
176
     1
 62
     7
176
     1
 62
   257
176
     1
 90
        1
176
     1
 90
        1
176
     1
 40
1.0
176
     1
 90
        0
176
     1
 62
   257
176
     1
 40
1.0
176
     1
 90
        1
176
     1
 90
        6
176
     1
 90
        2
176
     1
 62
     7
176
     1
 90
        5
176
     1
 90
        0
176
     1
 90
        0
176
     1
290
     0
176
     1
 90
        1
176
     1
 40
0.0
176
     1
 90
        0
176
     1
290
     1
176
     1
290
     1
176
     1
290
     0
176
     1
290
     0
176
     1
290
     0
176
     1
290
     0
176
     1
290
     0
176
     1
290
     0
176
     1
290
     0
176
     1
 90
       50
176
     1
 40
0.0
176
     1
 40
1.0
176
     1
 90
        0
176
     1
 62
    18
420
        0
176
     1
 90
       50
176
     1
 90
        3
176
     1
 62
     5
420
      255
176
     1
290
     0
176
     1
 90
       50
176
     1
 90
       50
176
     1
 90
       50
176
     1
290
     0
176
     1
 90
       50
176
     1
 62
   256
176
     0
 40
1.0
176
     0
 90
        2
176
     1
  1
strokes_ogs.tif
176
     1
290
     0
176
     1
 40
1.0
176
     1
 40
1.0
176
     1
1001
ACAD
1000
AcDbSavedByObjectVersion
1070
     0
  0
VISUALSTYLE
  5
2E
102
{ACAD_REACTORS
330
29
102
}
330
29
100
AcDbVisualStyle
  2
Basic
 70
     7
177
     3
291
     1
 70
    58
 90
        1
176
     1
 90
        0
176
     1
 90
        1
176
     1
 90
        0
176
     1
 40
0.6
176
     1
 40
30.0
176
     1
 62
     7
420
 16777215
176
     1
 90
        0
176
     1
 90
        4
176
     1
 62
     7
176
     1
 62
   257
176
     1
 90
        1
176
     1
 90
        1
176
     1
 40
1.0
176
     1
 90
        8
176
     1
 62
     7
176
     1
 40
1.0
176
     1
 90
        1
176
     1
 90
        6
176
     1
 90
        2
176
     1
 62
     7
176
     1
 90
        5
176
     1
 90
        0
176
     1
 90
        0
176
     1
290
     0
176
     1
 90
        1
176
     1
 40
0.0
176
     1
 90
        0
176
     1
290
     0
176
     1
290
     1
176
     1
290
     1
176
     1
290
     0
176
     1
290
     0
176
     1
290
     0
176
     1
290
     0
176
     1
290
     0
176
     1
290
     0
176
     1
 90
       50
176
     1
 40
0.0
176
     1
 40
1.0
176
     1
 90
        0
176
     1
 62
    18
420
        0
176
     1
 90
       50
176
     1
 90
        3
176
     1
 62
     5
420
      255
176
     1
290
     0
176
     1
 90
       50
176
     1
 90
       50
176
     1
 90
       50
176
     1
290
     0
176
     1
 90
       50
176
     1
 62
   256
176
     0
 40
1.0
176
     0
 90
        2
176
     1
  1
strokes_ogs.tif
176
     1
290
     0
176
     1
 40
1.0
176
     1
 40
1.0
176
     1
1001
ACAD
1000
AcDbSavedByObjectVersion
1070
     0
  0
VISUALSTYLE
  5
35
102
{ACAD_REACTORS
330
29
102
}
330
29
100
AcDbVisualStyle
  2
Brighten
 70
    12
177
     3
291
     1
 70
    58
 90
        2
176
     1
 90
        2
176
     1
 90
        0
176
     1
 90
        0
176
     1
 40
0.6
176
     1
 40
30.0
176
     1
 62
     7
420
 16777215
176
     1
 90
        1
176
     1
 90
        4
176
     1
 62
     7
176
     1
 62
   257
176
     1
 90
        1
176
     1
 90
        1
176
     1
 40
1.0
176
     1
 90
        8
176
     1
 62
     7
176
     1
 40
1.0
176
     1
 90
        1
176
     1
 90
        6
176
     1
 90
        2
176
     1
 62
     7
176
     1
 90
        5
176
     1
 90
        0
176
     1
 90
        0
176
     1
290
     0
176
     1
 90
        1
176
     1
 40
50.0
176
     1
 90
        0
176
     1
290
     0
176
     1
290
     1
176
     1
290
     1
176
     1
290
     0
176
     1
290
     0
176
     1
290
     0
176
     1
290
     0
176
     1
290
     0
176
     1
290
     0
176
     1
 90
       50
176
     1
 40
0.0
176
     1
 40
1.0
176
     1
 90
        0
176
     1
 62
    18
420
        0
176
     1
 90
       50
176
     1
 90
        3
176
     1
 62
     5
420
      255
176
     1
290
     0
176
     1
 90
       50
176
     1
 90
       50
176
     1
 90
       50
176
     1
290
     0
176
     1
 90
       50
176
     1
 62
   256
176
     0
 40
1.0
176
     0
 90
        2
176
     1
  1
strokes_ogs.tif
176
     1
290
     0
176
     1
 40
1.0
176
     1
 40
1.0
176
     1
1001
ACAD
1000
AcDbSavedByObjectVersion
1070
     0
  0
VISUALSTYLE
  5
39
102
{ACAD_REACTORS
330
29
102
}
330
29
100
AcDbVisualStyle
  2
ColorChange
 70
    16
177
     3
291
     1
 70
    58
 90
        2
176
     1
 90
        2
176
     1
 90
        3
176
     1
 90
        0
176
     1
 40
0.6
176
     1
 40
30.0
176
     1
 62
     8
420
  8421504
176
     1
 90
        1
176
     1
 90
        4
176
     1
 62
     7
176
     1
 62
   257
176
     1
 90
        1
176
     1
 90
        1
176
     1
 40
1.0
176
     1
 90
        8
176
     1
 62
     8
420
  8421504
176
     1
 40
1.0
176
     1
 90
        1
176
     1
 90
        6
176
     1
 90
        2
176
     1
 62
     7
176
     1
 90
        5
176
     1
 90
        0
176
     1
 90
        0
176
     1
290
     0
176
     1
 90
        1
176
     1
 40
0.0
176
     1
 90
        0
176
     1
290
     0
176
     1
290
     1
176
     1
290
     1
176
     1
290
     0
176
     1
290
     0
176
     1
290
     0
176
     1
290
     0
176
     1
290
     0
176
     1
290
     0
176
     1
 90
       50
176
     1
 40
0.0
176
     1
 40
1.0
176
     1
 90
        0
176
     1
 62
    18
420
        0
176
     1
 90
       50
176
     1
 90
        3
176
     1
 62
     5
420
      255
176
     1
290
     0
176
     1
 90
       50
176
     1
 90
       50
176
     1
 90
       50
176
     1
290
     0
176
     1
 90
       50
176
     1
 62
   256
176
     0
 40
1.0
176
     0
 90
        2
176
     1
  1
strokes_ogs.tif
176
     1
290
     0
176
     1
 40
1.0
176
     1
 40
1.0
176
     1
1001
ACAD
1000
AcDbSavedByObjectVersion
1070
     0
  0
VISUALSTYLE
  5
32
102
{ACAD_REACTORS
330
29
102
}
330
29
100
AcDbVisualStyle
  2
Conceptual
 70
     9
177
     3
291
     0
 70
    58
 90
        3
176
     1
 90
        2
176
     1
 90
        0
176
     1
 90
        0
176
     1
 40
0.6
176
     1
 40
30.0
176
     1
 62
     7
420
 16777215
176
     1
 90
        2
176
     1
 90
        2
176
     1
 62
     7
176
     1
 62
   257
176
     1
 90
        1
176
     1
 90
        1
176
     1
 40
179.0
176
     1
 90
        8
176
     1
 62
     7
176
     1
 40
1.0
176
     1
 90
        1
176
     1
 90
        6
176
     1
 90
        2
176
     1
 62
     7
176
     1
 90
        3
176
     1
 90
        0
176
     1
 90
        0
176
     1
290
     0
176
     1
 90
        1
176
     1
 40
0.0
176
     1
 90
        0
176
     1
290
     0
176
     1
290
     1
176
     1
290
     1
176
     1
290
     0
176
     1
290
     0
176
     1
290
     0
176
     1
290
     0
176
     1
290
     0
176
     1
290
     0
176
     1
 90
       50
176
     1
 40
0.0
176
     1
 40
1.0
176
     1
 90
        0
176
     1
 62
    18
420
        0
176
     1
 90
       50
176
     1
 90
        3
176
     1
 62
     5
420
      255
176
     1
290
     0
176
     1
 90
       50
176
     1
 90
       50
176
     1
 90
       50
176
     1
290
     0
176
     1
 90
       50
176
     1
 62
   256
176
     0
 40
1.0
176
     0
 90
        2
176
     1
  1
strokes_ogs.tif
176
     1
290
     0
176
     1
 40
1.0
176
     1
 40
1.0
176
     1
1001
ACAD
1000
AcDbSavedByObjectVersion
1070
     0
  0
VISUALSTYLE
  5
34
102
{ACAD_REACTORS
330
29
102
}
330
29
100
AcDbVisualStyle
  2
Dim
 70
    11
177
     3
291
     1
 70
    58
 90
        2
176
     1
 90
        2
176
     1
 90
        0
176
     1
 90
        0
176
     1
 40
0.6
176
     1
 40
30.0
176
     1
 62
     7
420
 16777215
176
     1
 90
        1
176
     1
 90
        4
176
     1
 62
     7
176
     1
 62
   257
176
     1
 90
        1
176
     1
 90
        1
176
     1
 40
1.0
176
     1
 90
        8
176
     1
 62
     7
176
     1
 40
1.0
176
     1
 90
        1
176
     1
 90
        6
176
     1
 90
        2
176
     1
 62
     7
176
     1
 90
        5
176
     1
 90
        0
176
     1
 90
        0
176
     1
290
     0
176
     1
 90
        1
176
     1
 40
-50.0
176
     1
 90
        0
176
     1
290
     0
176
     1
290
     1
176
     1
290
     1
176
     1
290
     0
176
     1
290
     0
176
     1
290
     0
176
     1
290
     0
176
     1
290
     0
176
     1
290
     0
176
     1
 90
       50
176
     1
 40
0.0
176
     1
 40
1.0
176
     1
 90
        0
176
     1
 62
    18
420
        0
176
     1
 90
       50
176
     1
 90
        3
176
     1
 62
     5
420
      255
176
     1
290
     0
176
     1
 90
       50
176
     1
 90
       50
176
     1
 90
       50
176
     1
290
     0
176
     1
 90
       50
176
     1
 62
   256
176
     0
 40
1.0
176
     0
 90
        2
176
     1
  1
strokes_ogs.tif
176
     1
290
     0
176
     1
 40
1.0
176
     1
 40
1.0
176
     1
1001
ACAD
1000
AcDbSavedByObjectVersion
1070
     0
  0
VISUALSTYLE
  5
41
102
{ACAD_REACTORS
330
29
102
}
330
29
100
AcDbVisualStyle
  2
EdgeColorOff
 70
    22
177
     3
291
     1
 70
    58
 90
        2
176
     0
 90
        2
176
     0
 90
        0
176
     0
 90
        0
176
     0
 40
0.6
176
     0
 40
30.0
176
     0
 62
     7
420
 16777215
176
     0
 90
        1
176
     0
 90
        4
176
     0
 62
     7
176
     0
 62
   257
176
     0
 90
        1
176
     0
 90
        1
176
     0
 40
1.0
176
     0
 90
        8
176
     2
 62
     7
176
     0
 40
1.0
176
     0
 90
        1
176
     0
 90
        6
176
     0
 90
        2
176
     0
 62
     7
176
     0
 90
        5
176
     0
 90
        0
176
     0
 90
        0
176
     0
290
     0
176
     0
 90
        1
176
     0
 40
0.0
176
     0
 90
        0
176
     0
290
     0
176
     0
290
     1
176
     0
290
     1
176
     0
290
     0
176
     0
290
     0
176
     0
290
     0
176
     0
290
     0
176
     0
290
     0
176
     0
290
     0
176
     0
 90
       50
176
     0
 40
0.0
176
     0
 40
1.0
176
     0
 90
        0
176
     0
 62
    18
420
        0
176
     0
 90
       50
176
     0
 90
        3
176
     0
 62
     5
420
      255
176
     0
290
     0
176
     0
 90
       50
176
     0
 90
       50
176
     0
 90
       50
176
     0
290
     0
176
     0
 90
       50
176
     0
 62
   256
176
     0
 40
1.0
176
     0
 90
        2
176
     0
  1
strokes_ogs.tif
176
     0
290
     0
176
     0
 40
1.0
176
     0
 40
1.0
176
     0
1001
ACAD
1000
AcDbSavedByObjectVersion
1070
     0
  0
VISUALSTYLE
  5
38
102
{ACAD_REACTORS
330
29
102
}
330
29
100
AcDbVisualStyle
  2
Facepattern
 70
    15
177
     3
291
     1
 70
    58
 90
        2
176
     1
 90
        2
176
     1
 90
        0
176
     1
 90
        0
176
     1
 40
0.6
176
     1
 40
30.0
176
     1
 62
     7
420
 16777215
176
     1
 90
        1
176
     1
 90
        4
176
     1
 62
     7
176
     1
 62
   257
176
     1
 90
        1
176
     1
 90
        1
176
     1
 40
1.0
176
     1
 90
        8
176
     1
 62
     7
176
     1
 40
1.0
176
     1
 90
        1
176
     1
 90
        6
176
     1
 90
        2
176
     1
 62
     7
176
     1
 90
        5
176
     1
 90
        0
176
     1
 90
        0
176
     1
290
     0
176
     1
 90
        1
176
     1
 40
0.0
176
     1
 90
        0
176
     1
290
     0
176
     1
290
     1
176
     1
290
     1
176
     1
290
     0
176
     1
290
     0
176
     1
290
     0
176
     1
290
     0
176
     1
290
     0
176
     1
290
     0
176
     1
 90
       50
176
     1
 40
0.0
176
     1
 40
1.0
176
     1
 90
        0
176
     1
 62
    18
420
        0
176
     1
 90
       50
176
     1
 90
        3
176
     1
 62
     5
420
      255
176
     1
290
     0
176
     1
 90
       50
176
     1
 90
       50
176
     1
 90
       50
176
     1
290
     0
176
     1
 90
       50
176
     1
 62
   256
176
     0
 40
1.0
176
     0
 90
        2
176
     1
  1
strokes_ogs.tif
176
     1
290
     0
176
     1
 40
1.0
176
     1
 40
1.0
176
     1
1001
ACAD
1000
AcDbSavedByObjectVersion
1070
     0
  0
VISUALSTYLE
  5
2A
102
{ACAD_REACTORS
330
29
102
}
330
29
100
AcDbVisualStyle
  2
Flat
 70
     0
177
     3
291
     1
 70
    58
 90
        2
176
     1
 90
        1
176
     1
 90
        1
176
     1
 90
        2
176
     1
 40
0.6
176
     1
 40
30.0
176
     1
 62
     7
420
 16777215
176
     1
 90
        0
176
     1
 90
        0
176
     1
 62
     7
176
     1
 62
   257
176
     1
 90
        1
176
     1
 90
        1
176
     1
 40
1.0
176
     1
 90
        8
176
     1
 62
     7
176
     1
 40
1.0
176
     1
 90
        1
176
     1
 90
        6
176
     1
 90
        2
176
     1
 62
     7
176
     1
 90
        5
176
     1
 90
        0
176
     1
 90
        0
176
     1
290
     0
176
     1
 90
       13
176
     1
 40
0.0
176
     1
 90
        0
176
     1
290
     0
176
     1
290
     1
176
     1
290
     1
176
     1
290
     0
176
     1
290
     0
176
     1
290
     0
176
     1
290
     0
176
     1
290
     0
176
     1
290
     0
176
     1
 90
       50
176
     1
 40
0.0
176
     1
 40
1.0
176
     1
 90
        0
176
     1
 62
    18
420
        0
176
     1
 90
       50
176
     1
 90
        3
176
     1
 62
     5
420
      255
176
     1
290
     0
176
     1
 90
       50
176
     1
 90
       50
176
     1
 90
       50
176
     1
290
     0
176
     1
 90
       50
176
     1
 62
   256
176
     0
 40
1.0
176
     0
 90
        2
176
     1
  1
strokes_ogs.tif
176
     1
290
     0
176
     1
 40
1.0
176
     1
 40
1.0
176
     1
1001
ACAD
1000
AcDbSavedByObjectVersion
1070
     0
  0
VISUALSTYLE
  5
2B
102
{ACAD_REACTORS
330
29
102
}
330
29
100
AcDbVisualStyle
  2
FlatWithEdges
 70
     1
177
     3
291
     1
 70
    58
 90
        2
176
     1
 90
        1
176
     1
 90
        1
176
     1
 90
        2
176
     1
 40
0.6
176
     1
 40
30.0
176
     1
 62
     7
420
 16777215
176
     1
 90
        1
176
     1
 90
        0
176
     1
 62
     7
176
     1
 62
   257
176
     1
 90
        1
176
     1
 90
        1
176
     1
 40
1.0
176
     1
 90
        0
176
     1
 62
   257
176
     1
 40
1.0
176
     1
 90
        1
176
     1
 90
        6
176
     1
 90
        2
176
     1
 62
     7
176
     1
 90
        5
176
     1
 90
        0
176
     1
 90
        0
176
     1
290
     0
176
     1
 90
       13
176
     1
 40
0.0
176
     1
 90
        0
176
     1
290
     0
176
     1
290
     1
176
     1
290
     1
176
     1
290
     0
176
     1
290
     0
176
     1
290
     0
176
     1
290
     0
176
     1
290
     0
176
     1
290
     0
176
     1
 90
       50
176
     1
 40
0.0
176
     1
 40
1.0
176
     1
 90
        0
176
     1
 62
    18
420
        0
176
     1
 90
       50
176
     1
 90
        3
176
     1
 62
     5
420
      255
176
     1
290
     0
176
     1
 90
       50
176
     1
 90
       50
176
     1
 90
       50
176
     1
290
     0
176
     1
 90
       50
176
     1
 62
   256
176
     0
 40
1.0
176
     0
 90
        2
176
     1
  1
strokes_ogs.tif
176
     1
290
     0
176
     1
 40
1.0
176
     1
 40
1.0
176
     1
1001
ACAD
1000
AcDbSavedByObjectVersion
1070
     0
  0
VISUALSTYLE
  5
2C
102
{ACAD_REACTORS
330
29
102
}
330
29
100
AcDbVisualStyle
  2
Gouraud
 70
     2
177
     3
291
     1
 70
    58
 90
        2
176
     1
 90
        2
176
     1
 90
        1
176
     1
 90
        2
176
     1
 40
0.6
176
     1
 40
30.0
176
     1
 62
     7
420
 16777215
176
     1
 90
        0
176
     1
 90
        0
176
     1
 62
     7
176
     1
 62
   257
176
     1
 90
        1
176
     1
 90
        1
176
     1
 40
1.0
176
     1
 90
        0
176
     1
 62
     7
176
     1
 40
1.0
176
     1
 90
        1
176
     1
 90
        6
176
     1
 90
        2
176
     1
 62
     7
176
     1
 90
        5
176
     1
 90
        0
176
     1
 90
        0
176
     1
290
     0
176
     1
 90
       13
176
     1
 40
0.0
176
     1
 90
        0
176
     1
290
     0
176
     1
290
     1
176
     1
290
     1
176
     1
290
     0
176
     1
290
     0
176
     1
290
     0
176
     1
290
     0
176
     1
290
     0
176
     1
290
     0
176
     1
 90
       50
176
     1
 40
0.0
176
     1
 40
1.0
176
     1
 90
        0
176
     1
 62
    18
420
        0
176
     1
 90
       50
176
     1
 90
        3
176
     1
 62
     5
420
      255
176
     1
290
     0
176
     1
 90
       50
176
     1
 90
       50
176
     1
 90
       50
176
     1
290
     0
176
     1
 90
       50
176
     1
 62
   256
176
     0
 40
1.0
176
     0
 90
        2
176
     1
  1
strokes_ogs.tif
176
     1
290
     0
176
     1
 40
1.0
176
     1
 40
1.0
176
     1
1001
ACAD
1000
AcDbSavedByObjectVersion
1070
     0
  0
VISUALSTYLE
  5
2D
102
{ACAD_REACTORS
330
29
102
}
330
29
100
AcDbVisualStyle
  2
GouraudWithEdges
 70
     3
177
     3
291
     1
 70
    58
 90
        2
176
     1
 90
        2
176
     1
 90
        1
176
     1
 90
        2
176
     1
 40
0.6
176
     1
 40
30.0
176
     1
 62
     7
420
 16777215
176
     1
 90
        1
176
     1
 90
        0
176
     1
 62
     7
176
     1
 62
   257
176
     1
 90
        1
176
     1
 90
        1
176
     1
 40
1.0
176
     1
 90
        0
176
     1
 62
   257
176
     1
 40
1.0
176
     1
 90
        1
176
     1
 90
        6
176
     1
 90
        2
176
     1
 62
     7
176
     1
 90
        5
176
     1
 90
        0
176
     1
 90
        0
176
     1
290
     0
176
     1
 90
       13
176
     1
 40
0.0
176
     1
 90
        0
176
     1
290
     0
176
     1
290
     1
176
     1
290
     1
176
     1
290
     0
176
     1
290
     0
176
     1
290
     0
176
     1
290
     0
176
     1
290
     0
176
     1
290
     0
176
     1
 90
       50
176
     1
 40
0.0
176
     1
 40
1.0
176
     1
 90
        0
176
     1
 62
    18
420
        0
176
     1
 90
       50
176
     1
 90
        3
176
     1
 62
     5
420
      255
176
     1
290
     0
176
     1
 90
       50
176
     1
 90
       50
176
     1
 90
       50
176
     1
290
     0
176
     1
 90
       50
176
     1
 62
   256
176
     0
 40
1.0
176
     0
 90
        2
176
     1
  1
strokes_ogs.tif
176
     1
290
     0
176
     1
 40
1.0
176
     1
 40
1.0
176
     1
1001
ACAD
1000
AcDbSavedByObjectVersion
1070
     0
  0
VISUALSTYLE
  5
31
102
{ACAD_REACTORS
330
29
102
}
330
29
100
AcDbVisualStyle
  2
Hidden
 70
     6
177
     3
291
     0
 70
    58
 90
        1
176
     1
 90
        2
176
     1
 90
        2
176
     1
 90
        0
176
     1
 40
0.6
176
     1
 40
30.0
176
     1
 62
     7
420
 16777215
176
     1
 90
        2
176
     1
 90
        2
176
     1
 62
     7
176
     1
 62
   257
176
     1
 90
        2
176
     1
 90
        1
176
     1
 40
40.0
176
     1
 90
        0
176
     1
 62
   257
176
     1
 40
1.0
176
     1
 90
        1
176
     1
 90
        6
176
     1
 90
        2
176
     1
 62
     7
176
     1
 90
        3
176
     1
 90
        0
176
     1
 90
        0
176
     1
290
     0
176
     1
 90
        1
176
     1
 40
0.0
176
     1
 90
        0
176
     1
290
     0
176
     1
290
     1
176
     1
290
     1
176
     1
290
     0
176
     1
290
     0
176
     1
290
     0
176
     1
290
     0
176
     1
290
     0
176
     1
290
     0
176
     1
 90
       50
176
     1
 40
0.0
176
     1
 40
1.0
176
     1
 90
        0
176
     1
 62
    18
420
        0
176
     1
 90
       50
176
     1
 90
        3
176
     1
 62
     5
420
      255
176
     1
290
     0
176
     1
 90
       50
176
     1
 90
       50
176
     1
 90
       50
176
     1
290
     0
176
     1
 90
       50
176
     1
 62
   256
176
     0
 40
1.0
176
     0
 90
        2
176
     1
  1
strokes_ogs.tif
176
     1
290
     0
176
     1
 40
1.0
176
     1
 40
1.0
176
     1
1001
ACAD
1000
AcDbSavedByObjectVersion
1070
     0
  0
VISUALSTYLE
  5
3F
102
{ACAD_REACTORS
330
29
102
}
330
29
100
AcDbVisualStyle
  2
JitterOff
 70
    20
177
     3
291
     1
 70
    58
 90
        2
176
     0
 90
        2
176
     0
 90
        0
176
     0
 90
        0
176
     0
 40
0.6
176
     0
 40
30.0
176
     0
 62
     7
420
 16777215
176
     0
 90
        1
176
     0
 90
        4
176
     0
 62
     7
176
     0
 62
   257
176
     0
 90
        1
176
     0
 90
        1
176
     0
 40
1.0
176
     0
 90
       10
176
     2
 62
     7
176
     0
 40
1.0
176
     0
 90
        1
176
     0
 90
        6
176
     0
 90
        2
176
     0
 62
     7
176
     0
 90
        5
176
     0
 90
        0
176
     0
 90
        0
176
     0
290
     0
176
     0
 90
        1
176
     0
 40
0.0
176
     0
 90
        0
176
     0
290
     0
176
     0
290
     1
176
     0
290
     1
176
     0
290
     0
176
     0
290
     0
176
     0
290
     0
176
     0
290
     0
176
     0
290
     0
176
     0
290
     0
176
     0
 90
       50
176
     0
 40
0.0
176
     0
 40
1.0
176
     0
 90
        0
176
     0
 62
    18
420
        0
176
     0
 90
       50
176
     0
 90
        3
176
     0
 62
     5
420
      255
176
     0
290
     0
176
     0
 90
       50
176
     0
 90
       50
176
     0
 90
       50
176
     0
290
     0
176
     0
 90
       50
176
     0
 62
   256
176
     0
 40
1.0
176
     0
 90
        2
176
     0
  1
strokes_ogs.tif
176
     0
290
     0
176
     0
 40
1.0
176
     0
 40
1.0
176
     0
1001
ACAD
1000
AcDbSavedByObjectVersion
1070
     0
  0
VISUALSTYLE
  5
37
102
{ACAD_REACTORS
330
29
102
}
330
29
100
AcDbVisualStyle
  2
Linepattern
 70
    14
177
     3
291
     1
 70
    58
 90
        2
176
     1
 90
        2
176
     1
 90
        0
176
     1
 90
        0
176
     1
 40
0.6
176
     1
 40
30.0
176
     1
 62
     7
420
 16777215
176
     1
 90
        1
176
     1
 90
        4
176
     1
 62
     7
176
     1
 62
   257
176
     1
 90
        7
176
     1
 90
        7
176
     1
 40
1.0
176
     1
 90
        8
176
     1
 62
     7
176
     1
 40
1.0
176
     1
 90
        1
176
     1
 90
        6
176
     1
 90
        2
176
     1
 62
     7
176
     1
 90
        5
176
     1
 90
        0
176
     1
 90
        0
176
     1
290
     0
176
     1
 90
        1
176
     1
 40
0.0
176
     1
 90
        0
176
     1
290
     0
176
     1
290
     1
176
     1
290
     1
176
     1
290
     0
176
     1
290
     0
176
     1
290
     0
176
     1
290
     0
176
     1
290
     0
176
     1
290
     0
176
     1
 90
       50
176
     1
 40
0.0
176
     1
 40
1.0
176
     1
 90
        0
176
     1
 62
    18
420
        0
176
     1
 90
       50
176
     1
 90
        3
176
     1
 62
     5
420
      255
176
     1
290
     0
176
     1
 90
       50
176
     1
 90
       50
176
     1
 90
       50
176
     1
290
     0
176
     1
 90
       50
176
     1
 62
   256
176
     0
 40
1.0
176
     0
 90
        2
176
     1
  1
strokes_ogs.tif
176
     1
290
     0
176
     1
 40
1.0
176
     1
 40
1.0
176
     1
1001
ACAD
1000
AcDbSavedByObjectVersion
1070
     0
  0
VISUALSTYLE
  5
40
102
{ACAD_REACTORS
330
29
102
}
330
29
100
AcDbVisualStyle
  2
OverhangOff
 70
    21
177
     3
291
     1
 70
    58
 90
        2
176
     0
 90
        2
176
     0
 90
        0
176
     0
 90
        0
176
     0
 40
0.6
176
     0
 40
30.0
176
     0
 62
     7
420
 16777215
176
     0
 90
        1
176
     0
 90
        4
176
     0
 62
     7
176
     0
 62
   257
176
     0
 90
        1
176
     0
 90
        1
176
     0
 40
1.0
176
     0
 90
        9
176
     2
 62
     7
176
     0
 40
1.0
176
     0
 90
        1
176
     0
 90
        6
176
     0
 90
        2
176
     0
 62
     7
176
     0
 90
        5
176
     0
 90
        0
176
     0
 90
        0
176
     0
290
     0
176
     0
 90
        1
176
     0
 40
0.0
176
     0
 90
        0
176
     0
290
     0
176
     0
290
     1
176
     0
290
     1
176
     0
290
     0
176
     0
290
     0
176
     0
290
     0
176
     0
290
     0
176
     0
290
     0
176
     0
290
     0
176
     0
 90
       50
176
     0
 40
0.0
176
     0
 40
1.0
176
     0
 90
        0
176
     0
 62
    18
420
        0
176
     0
 90
       50
176
     0
 90
        3
176
     0
 62
     5
420
      255
176
     0
290
     0
176
     0
 90
       50
176
     0
 90
       50
176
     0
 90
       50
176
     0
290
     0
176
     0
 90
       50
176
     0
 62
   256
176
     0
 40
1.0
176
     0
 90
        2
176
     0
  1
strokes_ogs.tif
176
     0
290
     0
176
     0
 40
1.0
176
     0
 40
1.0
176
     0
1001
ACAD
1000
AcDbSavedByObjectVersion
1070
     0
  0
VISUALSTYLE
  5
33
102
{ACAD_REACTORS
330
29
102
}
330
29
100
AcDbVisualStyle
  2
Realistic
 70
     8
177
     3
291
     0
 70
    58
 90
        2
176
     1
 90
        3
176
     1
 90
        0
176
     1
 90
        2
176
     1
 40
0.6
176
     1
 40
30.0
176
     1
 62
     7
420
 16777215
176
     1
 90
        0
176
     1
 90
        0
176
     1
 62
     7
176
     1
 62
   257
176
     1
 90
        1
176
     1
 90
        1
176
     1
 40
1.0
176
     1
 90
        8
176
     1
 62
   257
176
     1
 40
1.0
176
     1
 90
        1
176
     1
 90
        6
176
     1
 90
        2
176
     1
 62
     7
176
     1
 90
        3
176
     1
 90
        0
176
     1
 90
        0
176
     1
290
     0
176
     1
 90
       13
176
     1
 40
0.0
176
     1
 90
        0
176
     1
290
     0
176
     1
290
     1
176
     1
290
     1
176
     1
290
     0
176
     1
290
     0
176
     1
290
     0
176
     1
290
     0
176
     1
290
     0
176
     1
290
     0
176
     1
 90
       50
176
     1
 40
0.0
176
     1
 40
1.0
176
     1
 90
        0
176
     1
 62
    18
420
        0
176
     1
 90
       50
176
     1
 90
        3
176
     1
 62
     5
420
      255
176
     1
290
     0
176
     1
 90
       50
176
     1
 90
       50
176
     1
 90
       50
176
     1
290
     0
176
     1
 90
       50
176
     1
 62
   256
176
     0
 40
1.0
176
     0
 90
        2
176
     1
  1
strokes_ogs.tif
176
     1
290
     0
176
     1
 40
1.0
176
     1
 40
1.0
176
     1
1001
ACAD
1000
AcDbSavedByObjectVersion
1070
     0
  0
VISUALSTYLE
  5
3E
102
{ACAD_REACTORS
330
29
102
}
330
29
100
AcDbVisualStyle
  2
Shaded
 70
    27
177
     3
291
     0
 70
    58
 90
        2
176
     1
 90
        2
176
     1
 90
        1
176
     1
 90
        2
176
     1
 40
0.6
176
     1
 40
30.0
176
     1
 62
     7
420
 16777215
176
     1
 90
        0
176
     1
 90
        4
176
     1
 62
     7
176
     1
 62
   257
176
     1
 90
        1
176
     1
 90
        1
176
     1
 40
1.0
176
     1
 90
        8
176
     1
 62
   257
176
     1
 40
1.0
176
     1
 90
        1
176
     1
 90
        6
176
     1
 90
        2
176
     1
 62
     8
420
  7895160
176
     1
 90
        3
176
     1
 90
        0
176
     1
 90
        0
176
     1
290
     0
176
     1
 90
        5
176
     1
 40
0.0
176
     1
 90
        0
176
     1
290
     0
176
     1
290
     1
176
     1
290
     1
176
     1
290
     0
176
     1
290
     0
176
     1
290
     0
176
     1
290
     0
176
     1
290
     0
176
     1
290
     0
176
     1
 90
       50
176
     1
 40
0.0
176
     1
 40
1.0
176
     1
 90
        0
176
     1
 62
    18
420
        0
176
     1
 90
       50
176
     1
 90
        3
176
     1
 62
     5
420
      255
176
     1
290
     0
176
     1
 90
       50
176
     1
 90
       50
176
     1
 90
       50
176
     1
290
     0
176
     1
 90
       50
176
     1
 62
   256
176
     0
 40
1.0
176
     0
 90
        2
176
     1
  1
strokes_ogs.tif
176
     1
290
     0
176
     1
 40
1.0
176
     1
 40
1.0
176
     1
1001
ACAD
1000
AcDbSavedByObjectVersion
1070
     0
  0
VISUALSTYLE
  5
3D
102
{ACAD_REACTORS
330
29
102
}
330
29
100
AcDbVisualStyle
  2
Shaded with edges
 70
    26
177
     3
291
     0
 70
    58
 90
        2
176
     1
 90
        2
176
     1
 90
        1
176
     1
 90
        2
176
     1
 40
0.6
176
     1
 40
30.0
176
     1
 62
     7
420
 16777215
176
     1
 90
        1
176
     1
 90
        2
176
     1
 62
     7
176
     1
 62
   257
176
     1
 90
        2
176
     1
 90
        1
176
     1
 40
1.0
176
     1
 90
        8
176
     1
 62
   257
176
     1
 40
1.0
176
     1
 90
        1
176
     1
 90
        6
176
     1
 90
        2
176
     1
 62
     7
176
     1
 90
        3
176
     1
 90
        0
176
     1
 90
        0
176
     1
290
     0
176
     1
 90
        5
176
     1
 40
0.0
176
     1
 90
        0
176
     1
290
     0
176
     1
290
     1
176
     1
290
     1
176
     1
290
     0
176
     1
290
     0
176
     1
290
     0
176
     1
290
     0
176
     1
290
     0
176
     1
290
     0
176
     1
 90
       50
176
     1
 40
0.0
176
     1
 40
1.0
176
     1
 90
        0
176
     1
 62
    18
420
        0
176
     1
 90
       50
176
     1
 90
        3
176
     1
 62
     5
420
      255
176
     1
290
     0
176
     1
 90
       50
176
     1
 90
       50
176
     1
 90
       50
176
     1
290
     0
176
     1
 90
       50
176
     1
 62
   256
176
     0
 40
1.0
176
     0
 90
        2
176
     1
  1
strokes_ogs.tif
176
     1
290
     0
176
     1
 40
1.0
176
     1
 40
1.0
176
     1
1001
ACAD
1000
AcDbSavedByObjectVersion
1070
     0
  0
VISUALSTYLE
  5
3A
102
{ACAD_REACTORS
330
29
102
}
330
29
100
AcDbVisualStyle
  2
Shades of Gray
 70
    23
177
     3
291
     0
 70
    58
 90
        2
176
     1
 90
        2
176
     1
 90
        3
176
     1
 90
        0
176
     1
 40
0.6
176
     1
 40
30.0
176
     1
 62
     7
420
 16777215
176
     1
 90
        2
176
     1
 90
        2
176
     1
 62
     7
176
     1
 62
     7
176
     1
 90
        1
176
     1
 90
        1
176
     1
 40
40.0
176
     1
 90
        8
176
     1
 62
     7
176
     1
 40
1.0
176
     1
 90
        1
176
     1
 90
        6
176
     1
 90
        2
176
     1
 62
     7
176
     1
 90
        3
176
     1
 90
        0
176
     1
 90
        0
176
     1
290
     0
176
     1
 90
        1
176
     1
 40
0.0
176
     1
 90
        0
176
     1
290
     0
176
     1
290
     1
176
     1
290
     1
176
     1
290
     0
176
     1
290
     0
176
     1
290
     0
176
     1
290
     0
176
     1
290
     0
176
     1
290
     0
176
     1
 90
       50
176
     1
 40
0.0
176
     1
 40
1.0
176
     1
 90
        0
176
     1
 62
    18
420
        0
176
     1
 90
       50
176
     1
 90
        3
176
     1
 62
     5
420
      255
176
     1
290
     0
176
     1
 90
       50
176
     1
 90
       50
176
     1
 90
       50
176
     1
290
     0
176
     1
 90
       50
176
     1
 62
   256
176
     0
 40
1.0
176
     0
 90
        2
176
     1
  1
strokes_ogs.tif
176
     1
290
     0
176
     1
 40
1.0
176
     1
 40
1.0
176
     1
1001
ACAD
1000
AcDbSavedByObjectVersion
1070
     0
  0
VISUALSTYLE
  5
3B
102
{ACAD_REACTORS
330
29
102
}
330
29
100
AcDbVisualStyle
  2
Sketchy
 70
    24
177
     3
291
     0
 70
    58
 90
        1
176
     1
 90
        2
176
     1
 90
        2
176
     1
 90
        0
176
     1
 40
0.6
176
     1
 40
30.0
176
     1
 62
     7
420
 16777215
176
     1
 90
        2
176
     1
 90
        2
176
     1
 62
     7
176
     1
 62
     7
176
     1
 90
        1
176
     1
 90
        1
176
     1
 40
40.0
176
     1
 90
       11
176
     1
 62
     7
176
     1
 40
1.0
176
     1
 90
        1
176
     1
 90
        6
176
     1
 90
        2
176
     1
 62
     7
176
     1
 90
        6
176
     1
 90
        0
176
     1
 90
        0
176
     1
290
     0
176
     1
 90
        1
176
     1
 40
0.0
176
     1
 90
        0
176
     1
290
     0
176
     1
290
     1
176
     1
290
     1
176
     1
290
     0
176
     1
290
     0
176
     1
290
     0
176
     1
290
     0
176
     1
290
     0
176
     1
290
     0
176
     1
 90
       50
176
     1
 40
0.0
176
     1
 40
1.0
176
     1
 90
        0
176
     1
 62
    18
420
        0
176
     1
 90
       50
176
     1
 90
        3
176
     1
 62
     5
420
      255
176
     1
290
     0
176
     1
 90
       50
176
     1
 90
       50
176
     1
 90
       50
176
     1
290
     0
176
     1
 90
       50
176
     1
 62
   256
176
     0
 40
1.0
176
     0
 90
        2
176
     1
  1
strokes_ogs.tif
176
     1
290
     0
176
     1
 40
1.0
176
     1
 40
1.0
176
     1
1001
ACAD
1000
AcDbSavedByObjectVersion
1070
     0
  0
VISUALSTYLE
  5
36
102
{ACAD_REACTORS
330
29
102
}
330
29
100
AcDbVisualStyle
  2
Thicken
 70
    13
177
     3
291
     1
 70
    58
 90
        2
176
     1
 90
        2
176
     1
 90
        0
176
     1
 90
        0
176
     1
 40
0.6
176
     1
 40
30.0
176
     1
 62
     7
420
 16777215
176
     1
 90
        1
176
     1
 90
        4
176
     1
 62
     7
176
     1
 62
   257
176
     1
 90
        1
176
     1
 90
        1
176
     1
 40
1.0
176
     1
 90
       12
176
     1
 62
     7
176
     1
 40
1.0
176
     1
 90
        1
176
     1
 90
        6
176
     1
 90
        2
176
     1
 62
     7
176
     1
 90
        5
176
     1
 90
        0
176
     1
 90
        0
176
     1
290
     0
176
     1
 90
        1
176
     1
 40
0.0
176
     1
 90
        0
176
     1
290
     0
176
     1
290
     1
176
     1
290
     1
176
     1
290
     0
176
     1
290
     0
176
     1
290
     0
176
     1
290
     0
176
     1
290
     0
176
     1
290
     0
176
     1
 90
       50
176
     1
 40
0.0
176
     1
 40
1.0
176
     1
 90
        0
176
     1
 62
    18
420
        0
176
     1
 90
       50
176
     1
 90
        3
176
     1
 62
     5
420
      255
176
     1
290
     0
176
     1
 90
       50
176
     1
 90
       50
176
     1
 90
       50
176
     1
290
     0
176
     1
 90
       50
176
     1
 62
   256
176
     0
 40
1.0
176
     0
 90
        2
176
     1
  1
strokes_ogs.tif
176
     1
290
     0
176
     1
 40
1.0
176
     1
 40
1.0
176
     1
1001
ACAD
1000
AcDbSavedByObjectVersion
1070
     0
  0
VISUALSTYLE
  5
30
102
{ACAD_REACTORS
330
29
102
}
330
29
100
AcDbVisualStyle
  2
Wireframe
 70
     5
177
     3
291
     0
 70
    58
 90
        0
176
     1
 90
        2
176
     1
 90
        0
176
     1
 90
        0
176
     1
 40
0.6
176
     1
 40
30.0
176
     1
 62
     7
420
 16777215
176
     1
 90
        1
176
     1
 90
        4
176
     1
 62
     7
176
     1
 62
   257
176
     1
 90
        1
176
     1
 90
        1
176
     1
 40
1.0
176
     1
 90
        0
176
     1
 62
   257
176
     1
 40
1.0
176
     1
 90
        1
176
     1
 90
        6
176
     1
 90
        2
176
     1
 62
     7
176
     1
 90
        3
176
     1
 90
        0
176
     1
 90
        0
176
     1
290
     0
176
     1
 90
        1
176
     1
 40
0.0
176
     1
 90
        0
176
     1
290
     0
176
     1
290
     1
176
     1
290
     1
176
     1
290
     0
176
     1
290
     0
176
     1
290
     0
176
     1
290
     0
176
     1
290
     0
176
     1
290
     0
176
     1
 90
       50
176
     1
 40
0.0
176
     1
 40
1.0
176
     1
 90
        0
176
     1
 62
    18
420
        0
176
     1
 90
       50
176
     1
 90
        3
176
     1
 62
     5
420
      255
176
     1
290
     0
176
     1
 90
       50
176
     1
 90
       50
176
     1
 90
       50
176
     1
290
     0
176
     1
 90
       50
176
     1
 62
   256
176
     0
 40
1.0
176
     0
 90
        2
176
     1
  1
strokes_ogs.tif
176
     1
290
     0
176
     1
 40
1.0
176
     1
 40
1.0
176
     1
1001
ACAD
1000
AcDbSavedByObjectVersion
1070
     0
  0
VISUALSTYLE
  5
3C
102
{ACAD_REACTORS
330
29
102
}
330
29
100
AcDbVisualStyle
  2
X-Ray
 70
    25
177
     3
291
     0
 70
    58
 90
        2
176
     1
 90
        2
176
     1
 90
        1
176
     1
 90
        1
176
     1
 40
0.5
176
     1
 40
30.0
176
     1
 62
     7
420
 16777215
176
     1
 90
        1
176
     1
 90
        0
176
     1
 62
     7
176
     1
 62
   257
176
     1
 90
        1
176
     1
 90
        1
176
     1
 40
1.0
176
     1
 90
        8
176
     1
 62
     7
176
     1
 40
1.0
176
     1
 90
        1
176
     1
 90
        6
176
     1
 90
        2
176
     1
 62
     7
176
     1
 90
        3
176
     1
 90
        0
176
     1
 90
        0
176
     1
290
     0
176
     1
 90
       13
176
     1
 40
0.0
176
     1
 90
        0
176
     1
290
     0
176
     1
290
     1
176
     1
290
     1
176
     1
290
     0
176
     1
290
     0
176
     1
290
     0
176
     1
290
     0
176
     1
290
     0
176
     1
290
     0
176
     1
 90
       50
176
     1
 40
0.0
176
     1
 40
1.0
176
     1
 90
        0
176
     1
 62
    18
420
        0
176
     1
 90
       50
176
     1
 90
        3
176
     1
 62
     5
420
      255
176
     1
290
     0
176
     1
 90
       50
176
     1
 90
       50
176
     1
 90
       50
176
     1
290
     0
176
     1
 90
       50
176
     1
 62
   256
176
     0
 40
1.0
176
     0
 90
        2
176
     1
  1
strokes_ogs.tif
176
     1
290
     0
176
     1
 40
1.0
176
     1
 40
1.0
176
     1
1001
ACAD
1000
AcDbSavedByObjectVersion
1070
     0
  0
DICTIONARYVAR
  5
39D
102
{ACAD_REACTORS
330
398
102
}
330
398
100
DictionaryVariables
280
     0
  1
0
  0
DICTIONARYVAR
  5
39E
102
{ACAD_REACTORS
330
398
102
}
330
398
100
DictionaryVariables
280
     0
  1
1:1
  0
DICTIONARYVAR
  5
39A
102
{ACAD_REACTORS
330
398
102
}
330
398
100
DictionaryVariables
280
     0
  1
STANDARD
  0
DICTIONARYVAR
  5
399
102
{ACAD_REACTORS
330
398
102
}
330
398
100
DictionaryVariables
280
     0
  1
STANDARD
  0
DICTIONARYVAR
  5
39B
102
{ACAD_REACTORS
330
398
102
}
330
398
100
DictionaryVariables
280
     0
  1
Imperial24
  0
DICTIONARYVAR
  5
39C
102
{ACAD_REACTORS
330
398
102
}
330
398
100
DictionaryVariables
280
     0
  1
Imperial24
  0
DICTIONARY
  5
3A4
330
6B
100
AcDbDictionary
280
     1
281
     1
  3
ACAD_XREC_ROUNDTRIP
360
3A5
  0
DICTIONARY
  5
1A
330
19
100
AcDbDictionary
280
     1
281
     1
  3
BUMPTILE
360
1C
  3
DIFFUSETILE
360
1B
  3
OPACITYTILE
360
1F
  3
REFLECTIONTILE
360
1E
  3
REFRACTIONTILE
360
20
  3
SPECULARTILE
360
1D
  0
DICTIONARY
  5
12
330
11
100
AcDbDictionary
280
     1
281
     1
  3
BUMPTILE
360
14
  3
DIFFUSETILE
360
13
  3
OPACITYTILE
360
17
  3
REFLECTIONTILE
360
16
  3
REFRACTIONTILE
360
18
  3
SPECULARTILE
360
15
  0
DICTIONARY
  5
22
330
21
100
AcDbDictionary
280
     1
281
     1
  3
BUMPTILE
360
24
  3
DIFFUSETILE
360
23
  3
OPACITYTILE
360
27
  3
REFLECTIONTILE
360
26
  3
REFRACTIONTILE
360
28
  3
SPECULARTILE
360
25
  0
DICTIONARY
  5
3A2
330
69
100
AcDbDictionary
280
     1
281
     1
  3
ACAD_XREC_ROUNDTRIP
360
3A3
  0
DICTIONARY
  5
39F
330
65
100
AcDbDictionary
280
     1
281
     1
  3
ACAD_ROUNDTRIP_2008_TABLESTYLE_CELLSTYLEMAP
360
3A0
  0
XRECORD
  5
3A5
102
{ACAD_REACTORS
330
3A4
102
}
330
3A4
100
AcDbXrecord
280
     1
102
DISPLAYNAME
  1
Imperial24
102
FLAGS
 90
        0
  0
XRECORD
  5
1C
102
{ACAD_REACTORS
330
1A
102
}
330
1A
100
AcDbXrecord
280
     1
270
     1
271
     1
  0
XRECORD
  5
1B
102
{ACAD_REACTORS
330
1A
102
}
330
1A
100
AcDbXrecord
280
     1
270
     1
271
     1
  0
XRECORD
  5
1F
102
{ACAD_REACTORS
330
1A
102
}
330
1A
100
AcDbXrecord
280
     1
270
     1
271
     1
  0
XRECORD
  5
1E
102
{ACAD_REACTORS
330
1A
102
}
330
1A
100
AcDbXrecord
280
     1
270
     1
271
     1
  0
XRECORD
  5
20
102
{ACAD_REACTORS
330
1A
102
}
330
1A
100
AcDbXrecord
280
     1
270
     1
271
     1
  0
XRECORD
  5
1D
102
{ACAD_REACTORS
330
1A
102
}
330
1A
100
AcDbXrecord
280
     1
270
     1
271
     1
  0
XRECORD
  5
14
102
{ACAD_REACTORS
330
12
102
}
330
12
100
AcDbXrecord
280
     1
270
     1
271
     1
  0
XRECORD
  5
13
102
{ACAD_REACTORS
330
12
102
}
330
12
100
AcDbXrecord
280
     1
270
     1
271
     1
  0
XRECORD
  5
17
102
{ACAD_REACTORS
330
12
102
}
330
12
100
AcDbXrecord
280
     1
270
     1
271
     1
  0
XRECORD
  5
16
102
{ACAD_REACTORS
330
12
102
}
330
12
100
AcDbXrecord
280
     1
270
     1
271
     1
  0
XRECORD
  5
18
102
{ACAD_REACTORS
330
12
102
}
330
12
100
AcDbXrecord
280
     1
270
     1
271
     1
  0
XRECORD
  5
15
102
{ACAD_REACTORS
330
12
102
}
330
12
100
AcDbXrecord
280
     1
270
     1
271
     1
  0
XRECORD
  5
24
102
{ACAD_REACTORS
330
22
102
}
330
22
100
AcDbXrecord
280
     1
270
     1
271
     1
  0
XRECORD
  5
23
102
{ACAD_REACTORS
330
22
102
}
330
22
100
AcDbXrecord
280
     1
270
     1
271
     1
  0
XRECORD
  5
27
102
{ACAD_REACTORS
330
22
102
}
330
22
100
AcDbXrecord
280
     1
270
     1
271
     1
  0
XRECORD
  5
26
102
{ACAD_REACTORS
330
22
102
}
330
22
100
AcDbXrecord
280
     1
270
     1
271
     1
  0
XRECORD
  5
28
102
{ACAD_REACTORS
330
22
102
}
330
22
100
AcDbXrecord
280
     1
270
     1
271
     1
  0
XRECORD
  5
25
102
{ACAD_REACTORS
330
22
102
}
330
22
100
AcDbXrecord
280
     1
270
     1
271
     1
  0
XRECORD
  5
3A3
102
{ACAD_REACTORS
330
3A2
102
}
330
3A2
100
AcDbXrecord
280
     1
102
DISPLAYNAME
  1
Imperial24
102
FLAGS
 90
        0
  0
CELLSTYLEMAP
  5
3A0
102
{ACAD_REACTORS
330
39F
102
}
330
39F
100
AcDbCellStyleMap
 90
        3
300
CELLSTYLE
  1
TABLEFORMAT_BEGIN
 90
        5
170
     1
 91
        0
 92
    32768
 62
   257
 93
        1
300
CONTENTFORMAT
  1
CONTENTFORMAT_BEGIN
 90
        0
 91
        0
 92
      512
 93
        0
300

 40
0.0
140
1.0
 94
        5
 62
     0
340
55
144
0.25
309
CONTENTFORMAT_END
171
     0
 94
        0
309
TABLEFORMAT_END
  1
CELLSTYLE_BEGIN
 90
        1
 91
        1
300
_TITLE
309
CELLSTYLE_END
300
CELLSTYLE
  1
TABLEFORMAT_BEGIN
 90
        5
170
     1
 91
        0
 92
        0
 62
   257
 93
        1
300
CONTENTFORMAT
  1
CONTENTFORMAT_BEGIN
 90
        0
 91
        0
 92
      512
 93
        0
300

 40
0.0
140
1.0
 94
        5
 62
     0
340
55
144
0.18
309
CONTENTFORMAT_END
171
     0
 94
        0
309
TABLEFORMAT_END
  1
CELLSTYLE_BEGIN
 90
        2
 91
        1
300
_HEADER
309
CELLSTYLE_END
300
CELLSTYLE
  1
TABLEFORMAT_BEGIN
 90
        5
170
     1
 91
        0
 92
        0
 62
   257
 93
        1
300
CONTENTFORMAT
  1
CONTENTFORMAT_BEGIN
 90
        0
 91
        0
 92
      512
 93
        0
300

 40
0.0
140
1.0
 94
        2
 62
     0
340
55
144
0.18
309
CONTENTFORMAT_END
171
     0
 94
        0
309
TABLEFORMAT_END
  1
CELLSTYLE_BEGIN
 90
        3
 91
        2
300
_DATA
309
CELLSTYLE_END
  0
ENDSEC
  0
EOF
