  0
SECTION
  2
HEADER
  9
$ACADVER
  1
AC1027
  9
$ACADMAINTVER
 70
   125
  9
$DWGCODEPAGE
  3
ANSI_1252
  9
$LASTSAVEDBY
  1
Administrator
  9
$REQUIREDVERSIONS
160
                 0
  9
$INSBASE
 10
0.0
 20
0.0
 30
0.0
  9
$EXTMIN
 10
0.0
 20
0.0
 30
-1.807394
  9
$EXTMAX
 10
17.0
 20
11.0
 30
2.789519
  9
$LIMMIN
 10
0.0
 20
0.0
  9
$LIMMAX
 10
17.0
 20
11.0
  9
$ORTHOMODE
 70
     0
  9
$REGENMODE
 70
     1
  9
$FILLMODE
 70
     1
  9
$QTEXTMODE
 70
     0
  9
$MIRRTEXT
 70
     0
  9
$LTSCALE
 40
0.75
  9
$ATTMODE
 70
     1
  9
$TEXTSIZE
 40
0.12
  9
$TRACEWID
 40
0.05
  9
$TEXTSTYLE
  7
Standard
  9
$CLAYER
  8
Titleblock
  9
$CELTYPE
  6
ByLayer
  9
$CECOLOR
 62
   256
  9
$CELTSCALE
 40
1.0
  9
$DISPSILH
 70
     0
  9
$DIMSCALE
 40
1.0
  9
$DIMASZ
 40
0.12
  9
$DIMEXO
 40
0.05
  9
$DIMDLI
 40
0.339411
  9
$DIMRND
 40
0.0
  9
$DIMDLE
 40
0.0
  9
$DIMEXE
 40
0.1
  9
$DIMTP
 40
0.01
  9
$DIMTM
 40
0.01
  9
$DIMTXT
 40
0.12
  9
$DIMCEN
 40
0.0
  9
$DIMTSZ
 40
0.0
  9
$DIMTOL
 70
     0
  9
$DIMLIM
 70
     0
  9
$DIMTIH
 70
     1
  9
$DIMTOH
 70
     1
  9
$DIMSE1
 70
     0
  9
$DIMSE2
 70
     0
  9
$DIMTAD
 70
     0
  9
$DIMZIN
 70
    12
  9
$DIMBLK
  1

  9
$DIMASO
 70
     1
  9
$DIMSHO
 70
     1
  9
$DIMPOST
  1
in
  9
$DIMAPOST
  1
mm
  9
$DIMALT
 70
     0
  9
$DIMALTD
 70
     2
  9
$DIMALTF
 40
25.4
  9
$DIMLFAC
 40
1.0
  9
$DIMTOFL
 70
     0
  9
$DIMTVP
 40
0.0
  9
$DIMTIX
 70
     0
  9
$DIMSOXD
 70
     0
  9
$DIMSAH
 70
     0
  9
$DIMBLK1
  1

  9
$DIMBLK2
  1

  9
$DIMSTYLE
  2
Standard
  9
$DIMCLRD
 70
   256
  9
$DIMCLRE
 70
   256
  9
$DIMCLRT
 70
   256
  9
$DIMTFAC
 40
1.0
  9
$DIMGAP
 40
0.06
  9
$DIMJUST
 70
     0
  9
$DIMSD1
 70
     0
  9
$DIMSD2
 70
     0
  9
$DIMTOLJ
 70
     1
  9
$DIMTZIN
 70
    12
  9
$DIMALTZ
 70
    12
  9
$DIMALTTZ
 70
    12
  9
$DIMUPT
 70
     0
  9
$DIMDEC
 70
     2
  9
$DIMTDEC
 70
     2
  9
$DIMALTU
 70
     2
  9
$DIMALTTD
 70
     2
  9
$DIMTXSTY
  7
Standard
  9
$DIMAUNIT
 70
     0
  9
$DIMADEC
 70
     2
  9
$DIMALTRND
 40
0.0
  9
$DIMAZIN
 70
     3
  9
$DIMDSEP
 70
    46
  9
$DIMATFIT
 70
     3
  9
$DIMFRAC
 70
     0
  9
$DIMLDRBLK
  1

  9
$DIMLUNIT
 70
     2
  9
$DIMLWD
 70
    -2
  9
$DIMLWE
 70
    -2
  9
$DIMTMOVE
 70
     0
  9
$DIMFXL
 40
1.0
  9
$DIMFXLON
 70
     0
  9
$DIMJOGANG
 40
0.785398
  9
$DIMTFILL
 70
     0
  9
$DIMTFILLCLR
 70
     0
  9
$DIMARCSYM
 70
     1
  9
$DIMLTYPE
  6

  9
$DIMLTEX1
  6

  9
$DIMLTEX2
  6

  9
$DIMTXTDIRECTION
 70
     0
  9
$LUNITS
 70
     2
  9
$LUPREC
 70
     4
  9
$SKETCHINC
 40
0.1
  9
$FILLETRAD
 40
0.0
  9
$AUNITS
 70
     0
  9
$AUPREC
 70
     0
  9
$MENU
  1
.
  9
$ELEVATION
 40
0.0
  9
$PELEVATION
 40
0.0
  9
$THICKNESS
 40
0.0
  9
$LIMCHECK
 70
     0
  9
$CHAMFERA
 40
0.0
  9
$CHAMFERB
 40
0.0
  9
$CHAMFERC
 40
0.0
  9
$CHAMFERD
 40
0.0
  9
$SKPOLY
 70
     0
  9
$TDCREATE
 40
2458890.576238426
  9
$TDUCREATE
 40
2458890.909571759
  9
$TDUPDATE
 40
2458890.576238426
  9
$TDUUPDATE
 40
2458890.909571759
  9
$TDINDWG
 40
0.0000000000
  9
$TDUSRTIMER
 40
0.0000000000
  9
$USRTIMER
 70
     1
  9
$ANGBASE
 50
0.0
  9
$ANGDIR
 70
     0
  9
$PDMODE
 70
     0
  9
$PDSIZE
 40
0.0
  9
$PLINEWID
 40
0.0
  9
$SPLFRAME
 70
     0
  9
$SPLINETYPE
 70
     6
  9
$SPLINESEGS
 70
     8
  9
$HANDSEED
  5
491
  9
$SURFTAB1
 70
     6
  9
$SURFTAB2
 70
     6
  9
$SURFTYPE
 70
     6
  9
$SURFU
 70
     6
  9
$SURFV
 70
     6
  9
$UCSBASE
  2

  9
$UCSNAME
  2

  9
$UCSORG
 10
0.0
 20
0.0
 30
0.0
  9
$UCSXDIR
 10
1.0
 20
0.0
 30
0.0
  9
$UCSYDIR
 10
0.0
 20
1.0
 30
0.0
  9
$UCSORTHOREF
  2

  9
$UCSORTHOVIEW
 70
     0
  9
$UCSORGTOP
 10
0.0
 20
0.0
 30
0.0
  9
$UCSORGBOTTOM
 10
0.0
 20
0.0
 30
0.0
  9
$UCSORGLEFT
 10
0.0
 20
0.0
 30
0.0
  9
$UCSORGRIGHT
 10
0.0
 20
0.0
 30
0.0
  9
$UCSORGFRONT
 10
0.0
 20
0.0
 30
0.0
  9
$UCSORGBACK
 10
0.0
 20
0.0
 30
0.0
  9
$PUCSBASE
  2

  9
$PUCSNAME
  2

  9
$PUCSORG
 10
0.0
 20
0.0
 30
0.0
  9
$PUCSXDIR
 10
1.0
 20
0.0
 30
0.0
  9
$PUCSYDIR
 10
0.0
 20
1.0
 30
0.0
  9
$PUCSORTHOREF
  2

  9
$PUCSORTHOVIEW
 70
     0
  9
$PUCSORGTOP
 10
0.0
 20
0.0
 30
0.0
  9
$PUCSORGBOTTOM
 10
0.0
 20
0.0
 30
0.0
  9
$PUCSORGLEFT
 10
0.0
 20
0.0
 30
0.0
  9
$PUCSORGRIGHT
 10
0.0
 20
0.0
 30
0.0
  9
$PUCSORGFRONT
 10
0.0
 20
0.0
 30
0.0
  9
$PUCSORGBACK
 10
0.0
 20
0.0
 30
0.0
  9
$USERI1
 70
     0
  9
$USERI2
 70
     0
  9
$USERI3
 70
     0
  9
$USERI4
 70
     0
  9
$USERI5
 70
     0
  9
$USERR1
 40
0.0
  9
$USERR2
 40
0.0
  9
$USERR3
 40
0.0
  9
$USERR4
 40
0.0
  9
$USERR5
 40
0.0
  9
$WORLDVIEW
 70
     1
  9
$SHADEDGE
 70
     3
  9
$SHADEDIF
 70
    70
  9
$TILEMODE
 70
     1
  9
$MAXACTVP
 70
    64
  9
$PINSBASE
 10
0.0
 20
0.0
 30
0.0
  9
$PLIMCHECK
 70
     0
  9
$PEXTMIN
 10
1.000000E+20
 20
1.000000E+20
 30
1.000000E+20
  9
$PEXTMAX
 10
-1.000000E+20
 20
-1.000000E+20
 30
-1.000000E+20
  9
$PLIMMIN
 10
0.0
 20
0.0
  9
$PLIMMAX
 10
12.0
 20
9.0
  9
$UNITMODE
 70
     0
  9
$VISRETAIN
 70
     1
  9
$PLINEGEN
 70
     0
  9
$PSLTSCALE
 70
     1
  9
$TREEDEPTH
 70
  3020
  9
$CMLSTYLE
  2
Standard
  9
$CMLJUST
 70
     0
  9
$CMLSCALE
 40
1.0
  9
$PROXYGRAPHICS
 70
     1
  9
$MEASUREMENT
 70
     0
  9
$CELWEIGHT
370
    -1
  9
$ENDCAPS
280
     0
  9
$JOINSTYLE
280
     0
  9
$LWDISPLAY
290
     0
  9
$INSUNITS
 70
     1
  9
$HYPERLINKBASE
  1

  9
$STYLESHEET
  1

  9
$XEDIT
290
     1
  9
$CEPSNTYPE
380
     0
  9
$PSTYLEMODE
290
     1
  9
$FINGERPRINTGUID
  2
{9D3A5E69-89EE-F44D-8D0B-FBC4B96CCEE6}
  9
$VERSIONGUID
  2
{225E6F9D-3B20-3944-A65D-5937AE50C96B}
  9
$EXTNAMES
290
     1
  9
$PSVPSCALE
 40
0.0
  9
$OLESTARTUP
290
     0
  9
$SORTENTS
280
   127
  9
$INDEXCTL
280
     0
  9
$HIDETEXT
280
     1
  9
$XCLIPFRAME
280
     2
  9
$HALOGAP
280
     0
  9
$OBSCOLOR
 70
   257
  9
$OBSLTYPE
280
     0
  9
$INTERSECTIONDISPLAY
280
     0
  9
$INTERSECTIONCOLOR
 70
   257
  9
$DIMASSOC
280
     2
  9
$PROJECTNAME
  1

  9
$CAMERADISPLAY
290
     0
  9
$LENSLENGTH
 40
50.0
  9
$CAMERAHEIGHT
 40
0.0
  9
$STEPSPERSEC
 40
2.0
  9
$STEPSIZE
 40
6.0
  9
$3DDWFPREC
 40
2.0
  9
$PSOLWIDTH
 40
0.25
  9
$PSOLHEIGHT
 40
4.0
  9
$LOFTANG1
 40
1.570796
  9
$LOFTANG2
 40
1.570796
  9
$LOFTMAG1
 40
0.0
  9
$LOFTMAG2
 40
0.0
  9
$LOFTPARAM
 70
     7
  9
$LOFTNORMALS
280
     1
  9
$LATITUDE
 40
37.795
  9
$LONGITUDE
 40
-122.394
  9
$NORTHDIRECTION
 40
0.0
  9
$TIMEZONE
 70
 -8000
  9
$LIGHTGLYPHDISPLAY
280
     1
  9
$TILEMODELIGHTSYNCH
280
     1
  9
$CMATERIAL
347
11
  9
$SOLIDHIST
280
     0
  9
$SHOWHIST
280
     1
  9
$DWFFRAME
280
     2
  9
$DGNFRAME
280
     0
  9
$REALWORLDSCALE
290
     1
  9
$INTERFERECOLOR
 62
     1
  9
$INTERFEREOBJVS
345
33
  9
$INTERFEREVPVS
346
30
  9
$CSHADOW
280
     0
  9
$SHADOWPLANELOCATION
 40
0.0
  0
ENDSEC
  0
SECTION
  2
CLASSES
  0
CLASS
  1
ACDBDICTIONARYWDFLT
  2
AcDbDictionaryWithDefault
  3
ObjectDBX Classes
 90
        0
 91
        1
280
     0
281
     0
  0
CLASS
  1
MATERIAL
  2
AcDbMaterial
  3
ObjectDBX Classes
 90
     1153
 91
        3
280
     0
281
     0
  0
CLASS
  1
VISUALSTYLE
  2
AcDbVisualStyle
  3
ObjectDBX Classes
 90
     4095
 91
       24
280
     0
281
     0
  0
CLASS
  1
SCALE
  2
AcDbScale
  3
ObjectDBX Classes
 90
     1153
 91
       33
280
     0
281
     0
  0
CLASS
  1
TABLESTYLE
  2
AcDbTableStyle
  3
ObjectDBX Classes
 90
     4095
 91
        1
280
     0
281
     0
  0
CLASS
  1
MLEADERSTYLE
  2
AcDbMLeaderStyle
  3
ACDB_MLEADERSTYLE_CLASS
 90
     4095
 91
        1
280
     0
281
     0
  0
CLASS
  1
ACDBSECTIONVIEWSTYLE
  2
AcDbSectionViewStyle
  3
ObjectDBX Classes
 90
     1025
 91
        1
280
     0
281
     0
  0
CLASS
  1
ACDBDETAILVIEWSTYLE
  2
AcDbDetailViewStyle
  3
ObjectDBX Classes
 90
     1025
 91
        1
280
     0
281
     0
  0
CLASS
  1
ACMESCOPE
  2
AcMeScope
  3
AcMeServices
 90
     1024
 91
        1
280
     0
281
     0
  0
CLASS
  1
ACMECOMMANDHISTORY
  2
AcMeCommandHistory
  3
AcMeServices
 90
     1024
 91
        1
280
     0
281
     0
  0
CLASS
  1
ACIMSYSVARMAN
  2
AcImSysVarManager
  3
AcMeServices
 90
     1024
 91
        1
280
     0
281
     0
  0
CLASS
  1
ACIMINTSYSVAR
  2
AcImIntSysVar
  3
AcMeServices
 90
     1024
 91
        1
280
     0
281
     0
  0
CLASS
  1
ACMESTATEMGR
  2
AcMeStateMgr
  3
AcMeServices
 90
     1024
 91
        1
280
     0
281
     0
  0
CLASS
  1
ACGREFMASTER
  2
AcGrefMaster
  3
AcAttribServices
 90
     1024
 91
        1
280
     0
281
     0
  0
CLASS
  1
SORTENTSTABLE
  2
AcDbSortentsTable
  3
ObjectDBX Classes
 90
        0
 91
        6
280
     0
281
     0
  0
CLASS
  1
IMAGE
  2
AcDbRasterImage
  3
ISM
 90
     2175
 91
        1
280
     0
281
     1
  0
CLASS
  1
IMAGEDEF
  2
AcDbRasterImageDef
  3
ISM
 90
        0
 91
        1
280
     0
281
     0
  0
CLASS
  1
IMAGEDEF_REACTOR
  2
AcDbRasterImageDefReactor
  3
ISM
 90
        1
 91
        2
280
     0
281
     0
  0
CLASS
  1
RASTERVARIABLES
  2
AcDbRasterVariables
  3
ISM
 90
        0
 91
        1
280
     0
281
     0
  0
CLASS
  1
DICTIONARYVAR
  2
AcDbDictionaryVar
  3
ObjectDBX Classes
 90
        0
 91
        6
280
     0
281
     0
  0
CLASS
  1
CELLSTYLEMAP
  2
AcDbCellStyleMap
  3
ObjectDBX Classes
 90
     1152
 91
        1
280
     0
281
     0
  0
ENDSEC
  0
SECTION
  2
TABLES
  0
TABLE
  2
VPORT
  5
8
330
0
100
AcDbSymbolTable
 70
     1
1001
ACAD
1000
DbSaveVer
1071
      251
  0
VPORT
  5
57
330
8
100
AcDbSymbolTableRecord
100
AcDbViewportTableRecord
  2
*Active
 70
     0
 10
0.0
 20
0.0
 11
1.0
 21
1.0
 12
8.5
 22
5.5
 13
0.0
 23
0.0
 14
0.5
 24
0.5
 15
0.0
 25
0.0
 16
0.0
 26
0.0
 36
1.0
 17
0.0
 27
0.0
 37
0.0
 40
11.0
 41
1.777518
 42
50.0
 43
0.0
 44
0.0
 50
0.0
 51
0.0
 71
     0
 72
 20000
 73
     1
 74
     0
 75
     0
 76
     0
 77
     0
 78
     0
281
     0
 65
     1
110
0.0
120
0.0
130
0.0
111
1.0
121
0.0
131
0.0
112
0.0
122
1.0
132
0.0
 79
     0
146
0.0
348
2F
 60
     3
 61
     5
292
     1
282
     1
141
0.0
142
0.0
 63
   250
421
  3355443
  0
ENDTAB
  0
TABLE
  2
LTYPE
  5
5
330
0
100
AcDbSymbolTable
 70
    10
  0
LTYPE
  5
5B
330
5
100
AcDbSymbolTableRecord
100
AcDbLinetypeTableRecord
  2
ByBlock
 70
     0
  3

 72
    65
 73
     0
 40
0.0
  0
LTYPE
  5
5C
330
5
100
AcDbSymbolTableRecord
100
AcDbLinetypeTableRecord
  2
ByLayer
 70
     0
  3

 72
    65
 73
     0
 40
0.0
  0
LTYPE
  5
5D
330
5
100
AcDbSymbolTableRecord
100
AcDbLinetypeTableRecord
  2
Continuous
 70
     0
  3
Solid line
 72
    65
 73
     0
 40
0.0
  0
LTYPE
  5
81
330
5
100
AcDbSymbolTableRecord
100
AcDbLinetypeTableRecord
  2
HIDDEN
 70
     0
  3
Hidden __ __ __ __ __ __ __ __ __ __ __ __ __ _
 72
    65
 73
     2
 40
0.375
 49
0.25
 74
     0
 49
-0.125
 74
     0
  0
LTYPE
  5
82
330
5
100
AcDbSymbolTableRecord
100
AcDbLinetypeTableRecord
  2
PHANTOM2
 70
     0
  3
Phantom (.5x) ___ _ _ ___ _ _ ___ _ _ ___ _ _
 72
    65
 73
     6
 40
1.25
 49
0.625
 74
     0
 49
-0.125
 74
     0
 49
0.125
 74
     0
 49
-0.125
 74
     0
 49
0.125
 74
     0
 49
-0.125
 74
     0
  0
LTYPE
  5
83
330
5
100
AcDbSymbolTableRecord
100
AcDbLinetypeTableRecord
  2
CENTER
 70
     0
  3
Center ____ _ ____ _ ____ _ ____ _ ____ _ ____
 72
    65
 73
     4
 40
2.0
 49
1.25
 74
     0
 49
-0.25
 74
     0
 49
0.25
 74
     0
 49
-0.25
 74
     0
  0
LTYPE
  5
9A
330
5
100
AcDbSymbolTableRecord
100
AcDbLinetypeTableRecord
  2
CENTER2
 70
     0
  3
Center (.5x) ___ _ ___ _ ___ _ ___ _ ___ _ ___
 72
    65
 73
     4
 40
1.125
 49
0.75
 74
     0
 49
-0.125
 74
     0
 49
0.125
 74
     0
 49
-0.125
 74
     0
  0
LTYPE
  5
9B
330
5
100
AcDbSymbolTableRecord
100
AcDbLinetypeTableRecord
  2
HIDDEN2
 70
     0
  3
Hidden (.5x) _ _ _ _ _ _ _ _ _ _ _ _ _ _ _ _ _
 72
    65
 73
     2
 40
0.1875
 49
0.125
 74
     0
 49
-0.0625
 74
     0
  0
LTYPE
  5
9C
330
5
100
AcDbSymbolTableRecord
100
AcDbLinetypeTableRecord
  2
Amconstr
 70
     0
  3
_______________________
 72
    65
 73
     2
 40
9999.0
 49
9999.0
 74
     0
 49
0.0
 74
     0
  0
LTYPE
  5
9D
330
5
100
AcDbSymbolTableRecord
100
AcDbLinetypeTableRecord
  2
Amzigzag2
 70
     0
  3
/\/-/\/-/\/-/\/-/\/-/\/
 72
    65
 73
     2
 40
0.4401
 49
0.0001
 74
     4
 75
   136
340
97
 46
0.0016
 50
0.0
 44
0.0
 45
0.0
 49
-0.44
 74
     0
  0
LTYPE
  5
9E
330
5
100
AcDbSymbolTableRecord
100
AcDbLinetypeTableRecord
  2
ACANSTGB
 70
     0
  3
__ . . __ . .
 72
    65
 73
     6
 40
0.354331
 49
0.15748
 74
     0
 49
-0.03937
 74
     0
 49
0.03937
 74
     0
 49
-0.03937
 74
     0
 49
0.03937
 74
     0
 49
-0.03937
 74
     0
  0
LTYPE
  5
9F
330
5
100
AcDbSymbolTableRecord
100
AcDbLinetypeTableRecord
  2
ACANSTGL
 70
     0
  3
_ _ _ _ _
 72
    65
 73
     2
 40
0.11811
 49
0.07874
 74
     0
 49
-0.03937
 74
     0
  0
ENDTAB
  0
TABLE
  2
LAYER
  5
2
330
0
100
AcDbSymbolTable
 70
    10
  0
LAYER
  5
54
330
2
100
AcDbSymbolTableRecord
100
AcDbLayerTableRecord
  2
0
 70
     0
 62
     7
  6
Continuous
370
    -3
390
F
347
21
348
0
1001
AcAecLayerStandard
1000

1000

  0
LAYER
  5
79
330
2
100
AcDbSymbolTableRecord
100
AcDbLayerTableRecord
  2
Defpoints
 70
     0
 62
     7
  6
Continuous
290
     0
370
    -3
390
F
347
21
348
0
1001
AcAecLayerStandard
1000

1000

  0
LAYER
  5
B9
330
2
100
AcDbSymbolTableRecord
100
AcDbLayerTableRecord
  2
Visible
 70
     0
 62
     7
  6
Continuous
370
    50
390
F
347
21
348
0
  0
LAYER
  5
147
330
2
100
AcDbSymbolTableRecord
100
AcDbLayerTableRecord
  2
Visible Narrow
 70
     0
 62
     7
  6
Continuous
370
    35
390
F
347
21
348
0
  0
LAYER
  5
16D
330
2
100
AcDbSymbolTableRecord
100
AcDbLayerTableRecord
  2
Titleblock
 70
     0
 62
     7
  6
Continuous
370
    -3
390
F
347
21
348
0
1001
AcAecLayerStandard
1000

1000

1001
AcCmTransparency
1071
        0
  0
LAYER
  5
192
330
2
100
AcDbSymbolTableRecord
100
AcDbLayerTableRecord
  2
Border
 70
     0
 62
     7
  6
Continuous
370
    -3
390
F
347
21
348
0
1001
AcAecLayerStandard
1000

1000

1001
AcCmTransparency
1071
        0
  0
LAYER
  5
1B3
330
2
100
AcDbSymbolTableRecord
100
AcDbLayerTableRecord
  2
Dimensions
 70
     0
 62
     7
  6
Continuous
370
    25
390
F
347
21
348
0
  0
ENDTAB
  0
TABLE
  2
STYLE
  5
3
330
0
100
AcDbSymbolTable
 70
     4
  0
STYLE
  5
55
330
3
100
AcDbSymbolTableRecord
100
AcDbTextStyleTableRecord
  2
Standard
 70
     0
 40
0.0
 41
1.0
 50
0.0
 71
     0
 42
0.12
  3
arial.ttf
  4

1001
ACAD
1000
Arial
1071
       34
  0
STYLE
  5
5A
330
3
100
AcDbSymbolTableRecord
100
AcDbTextStyleTableRecord
  2
Annotative
 70
     0
 40
0.0
 41
1.0
 50
0.0
 71
     0
 42
0.2
  3
txt
  4

1001
AcadAnnotative
1000
AnnotativeData
1002
{
1070
     1
1070
     1
1002
}
  0
STYLE
  5
97
330
3
100
AcDbSymbolTableRecord
100
AcDbTextStyleTableRecord
  2

 70
     1
 40
0.0
 41
1.0
 50
0.0
 71
     0
 42
0.12
  3
genltshp.shx
  4

  0
STYLE
  5
98
330
3
100
AcDbSymbolTableRecord
100
AcDbTextStyleTableRecord
  2
ACANSGDT
 70
     0
 40
0.0
 41
1.0
 50
0.0
 71
     0
 42
0.12
  3
amgdt.shx
  4

  0
ENDTAB
  0
TABLE
  2
VIEW
  5
6
330
0
100
AcDbSymbolTable
 70
     0
  0
ENDTAB
  0
TABLE
  2
UCS
  5
7
330
0
100
AcDbSymbolTable
 70
     0
  0
ENDTAB
  0
TABLE
  2
APPID
  5
9
330
0
100
AcDbSymbolTable
 70
    24
  0
APPID
  5
56
330
9
100
AcDbSymbolTableRecord
100
AcDbRegAppTableRecord
  2
ACAD
 70
     0
  0
APPID
  5
5E
330
9
100
AcDbSymbolTableRecord
100
AcDbRegAppTableRecord
  2
AcadAnnotative
 70
     0
  0
APPID
  5
78
330
9
100
AcDbSymbolTableRecord
100
AcDbRegAppTableRecord
  2
ACAD_PSEXT
 70
     0
  0
APPID
  5
7A
330
9
100
AcDbSymbolTableRecord
100
AcDbRegAppTableRecord
  2
MCAD_NO_VIS
 70
     0
  0
APPID
  5
7B
330
9
100
AcDbSymbolTableRecord
100
AcDbRegAppTableRecord
  2
ACAD_TEMP_GRAPHIC
 70
     0
  0
APPID
  5
84
330
9
100
AcDbSymbolTableRecord
100
AcDbRegAppTableRecord
  2
ACAD_DSTYLE_DIMJAG
 70
     0
  0
APPID
  5
85
330
9
100
AcDbSymbolTableRecord
100
AcDbRegAppTableRecord
  2
ACAD_DSTYLE_DIMTALN
 70
     0
  0
APPID
  5
86
330
9
100
AcDbSymbolTableRecord
100
AcDbRegAppTableRecord
  2
ACAD_NAV_VCDISPLAY
 70
     0
  0
APPID
  5
87
330
9
100
AcDbSymbolTableRecord
100
AcDbRegAppTableRecord
  2
AcAecLayerStandard
 70
     0
  0
APPID
  5
88
330
9
100
AcDbSymbolTableRecord
100
AcDbRegAppTableRecord
  2
AcCmTransparency
 70
     0
  0
APPID
  5
89
330
9
100
AcDbSymbolTableRecord
100
AcDbRegAppTableRecord
  2
ACAD_DSTYLE_DIMBREAK
 70
     0
  0
APPID
  5
8A
330
9
100
AcDbSymbolTableRecord
100
AcDbRegAppTableRecord
  2
ACAD_DSTYLE_DIMRADIAL_EXTENSION
 70
     0
  0
APPID
  5
8B
330
9
100
AcDbSymbolTableRecord
100
AcDbRegAppTableRecord
  2
FUSIONTITLEBLOCK
 70
     0
  0
APPID
  5
8C
330
9
100
AcDbSymbolTableRecord
100
AcDbRegAppTableRecord
  2
FUSIONCURRENTTITLEBLOCK
 70
     0
  0
APPID
  5
8D
330
9
100
AcDbSymbolTableRecord
100
AcDbRegAppTableRecord
  2
AcSynergy
 70
     0
  0
APPID
  5
8E
330
9
100
AcDbSymbolTableRecord
100
AcDbRegAppTableRecord
  2
ACAD_VIEW_EDGE_ID
 70
     0
  0
APPID
  5
8F
330
9
100
AcDbSymbolTableRecord
100
AcDbRegAppTableRecord
  2
GENIUS_GENSCREG_15
 70
     0
  0
APPID
  5
90
330
9
100
AcDbSymbolTableRecord
100
AcDbRegAppTableRecord
  2
GENIUS_GENOBJ-N-SDF_13
 70
     0
  0
APPID
  5
91
330
9
100
AcDbSymbolTableRecord
100
AcDbRegAppTableRecord
  2
GENIUS_GENODEF_13
 70
     0
  0
APPID
  5
92
330
9
100
AcDbSymbolTableRecord
100
AcDbRegAppTableRecord
  2
ACAD_DIMASSOC_CALC_DIMLFAC
 70
     0
  0
APPID
  5
93
330
9
100
AcDbSymbolTableRecord
100
AcDbRegAppTableRecord
  2
ACAD_DIMASSOC_DIMLFAC
 70
     0
  0
APPID
  5
94
330
9
100
AcDbSymbolTableRecord
100
AcDbRegAppTableRecord
  2
ACAD_DIMASSOC_OVERRIDDEN_DIMLFAC
 70
     0
  0
APPID
  5
95
330
9
100
AcDbSymbolTableRecord
100
AcDbRegAppTableRecord
  2
FD_ATT_APPNAME
 70
     0
  0
APPID
  5
96
330
9
100
AcDbSymbolTableRecord
100
AcDbRegAppTableRecord
  2
ACATTRIBSERVICES
 70
     0
  0
ENDTAB
  0
TABLE
  2
DIMSTYLE
  5
A
330
0
100
AcDbSymbolTable
 70
     2
100
AcDbDimStyleTable
 71
     1
340
58
  0
DIMSTYLE
105
58
102
{ACAD_REACTORS
330
1B2
330
1BD
330
1C6
330
1D4
330
1E2
330
1F0
330
1FE
330
20C
102
}
330
A
100
AcDbSymbolTableRecord
100
AcDbDimStyleTableRecord
  2
Standard
 70
     0
  3
in
  4
mm
 41
0.12
 42
0.05
 43
0.339411
 44
0.1
 47
0.01
 48
0.01
 78
    12
 79
     3
 90
     1
140
0.12
141
0.0
147
0.06
176
   256
177
   256
178
   256
179
     2
271
     2
272
     2
284
    12
285
    12
286
    12
340
55
  0
DIMSTYLE
105
59
330
A
100
AcDbSymbolTableRecord
100
AcDbDimStyleTableRecord
  2
Annotative
 70
     0
  3
in
 40
0.0
 43
0.339411
 78
    12
 79
     3
140
0.12
179
     2
271
     2
272
     2
284
    12
285
    12
286
    12
340
55
1001
AcadAnnotative
1000
AnnotativeData
1002
{
1070
     1
1070
     1
1002
}
  0
ENDTAB
  0
TABLE
  2
BLOCK_RECORD
  5
1
330
0
100
AcDbSymbolTable
 70
    22
  0
BLOCK_RECORD
  5
70
102
{ACAD_XDICTIONARY
360
B2
102
}
330
1
100
AcDbSymbolTableRecord
100
AcDbBlockTableRecord
  2
*Model_Space
340
73
 70
     0
280
     1
281
     0
  0
BLOCK_RECORD
  5
6C
330
1
100
AcDbSymbolTableRecord
100
AcDbBlockTableRecord
  2
*Paper_Space
340
6F
 70
     0
280
     1
281
     0
  0
BLOCK_RECORD
  5
74
330
1
100
AcDbSymbolTableRecord
100
AcDbBlockTableRecord
  2
*Paper_Space0
340
77
 70
     0
280
     1
281
     0
  0
BLOCK_RECORD
  5
16E
102
{ACAD_XDICTIONARY
360
16F
102
}
330
1
100
AcDbSymbolTableRecord
100
AcDbBlockTableRecord
  2
Shower
340
0
102
{BLKREFS
331
16C
102
}
 70
     1
280
     1
281
     0
1001
FUSIONTITLEBLOCK
1000
TitleBlock
  0
BLOCK_RECORD
  5
193
330
1
100
AcDbSymbolTableRecord
100
AcDbBlockTableRecord
  2
ANSI_B_SHEET
340
0
310
2800000020000000200000000100080000000000000400000000000000000000000000000000000000000000000080000080000000808000800000008000800080800000C0C0C000C0DCC000F0CAA6000020400000206000002080000020A0000020C0000020E00000400000004020000040400000406000004080000040A0
310
000040C0000040E00000600000006020000060400000606000006080000060A0000060C0000060E00000800000008020000080400000806000008080000080A0000080C0000080E00000A0000000A0200000A0400000A0600000A0800000A0A00000A0C00000A0E00000C0000000C0200000C0400000C0600000C0800000C0
310
A00000C0C00000C0E00000E0000000E0200000E0400000E0600000E0800000E0A00000E0C00000E0E00040000000400020004000400040006000400080004000A0004000C0004000E00040200000402020004020400040206000402080004020A0004020C0004020E000404000004040200040404000404060004040800040
310
40A0004040C0004040E00040600000406020004060400040606000406080004060A0004060C0004060E00040800000408020004080400040806000408080004080A0004080C0004080E00040A0000040A0200040A0400040A0600040A0800040A0A00040A0C00040A0E00040C0000040C0200040C0400040C0600040C08000
310
40C0A00040C0C00040C0E00040E0000040E0200040E0400040E0600040E0800040E0A00040E0C00040E0E00080000000800020008000400080006000800080008000A0008000C0008000E00080200000802020008020400080206000802080008020A0008020C0008020E00080400000804020008040400080406000804080
310
008040A0008040C0008040E00080600000806020008060400080606000806080008060A0008060C0008060E00080800000808020008080400080806000808080008080A0008080C0008080E00080A0000080A0200080A0400080A0600080A0800080A0A00080A0C00080A0E00080C0000080C0200080C0400080C0600080C0
310
800080C0A00080C0C00080C0E00080E0000080E0200080E0400080E0600080E0800080E0A00080E0C00080E0E000C0000000C0002000C0004000C0006000C0008000C000A000C000C000C000E000C0200000C0202000C0204000C0206000C0208000C020A000C020C000C020E000C0400000C0402000C0404000C0406000C0
310
408000C040A000C040C000C040E000C0600000C0602000C0604000C0606000C0608000C060A000C060C000C060E000C0800000C0802000C0804000C0806000C0808000C080A000C080C000C080E000C0A00000C0A02000C0A04000C0A06000C0A08000C0A0A000C0A0C000C0A0E000C0C00000C0C02000C0C04000C0C06000
310
C0C08000C0C0A000F0FBFF00A4A0A000808080000000FF0000FF000000FFFF00FF000000FF00FF00FFFF0000FFFFFF0049494949494949494949494949494949494949494949494949494949494949494949494949494949494949494949494949494949494949494949494949494949494949494949494949494949494949
310
494949494949494949494949494949494949494949494949494949494949494949494949494949494949494949494949494949494949494949494949494949494949494949494949494949494949494949494949494949494949494949494949494949494949494949494949494949494949FFFF4949494949494949494949
310
494949494949494949494949494949FFFF4949FFFFFFFFFFFFFFFFFFFFFFFFFFFFFFFFFFFFFFFFFFFFFFFFFFFFFFFFFFFF494949FF4949494949494949494949494949494949494949494949494949FF49494949FF4949494949494949494949494949494949494949494949494949FF49494949FF49494949494949494949
310
49494949494949494949494949494949FF49494949FF4949494949494949494949494949494949494949494949494949FF49494949FF4949494949494949494949494949494949494949494949494949FF49494949FF4949494949494949494949494949494949494949494949494949FF49494949FF494949494949494949
310
4949494949494949494949494949494949FF49494949FF4949494949494949494949494949494949494949494949494949FF49494949FF4949494949494949494949494949494949494949494949494949FF49494949FF4949494949494949494949494949494949494949494949494949FF49494949FF4949494949494949
310
494949494949494949494949494949494949FF49494949FF4949494949494949494949494949494949494949494949494949FF49494949FF4949494949494949494949494949494949494949494949494949FF49494949FF4949494949494949494949494949494949494949494949494949FF49494949FF49494949494949
310
49494949494949494949494949494949494949FF49494949FF4949494949494949494949494949494949494949494949494949FF494949FFFFFFFFFFFFFFFFFFFFFFFFFFFFFFFFFFFFFFFFFFFFFFFFFFFFFFFFFFFF4949FFFF4949494949494949494949494949494949494949494949494949FFFF49494949494949494949
310
49494949494949494949494949494949494949494949494949494949494949494949494949494949494949494949494949494949494949494949494949494949494949494949494949494949494949494949494949494949494949494949494949494949494949494949494949494949494949494949494949494949494949
310
4949494949494949494949494949494949494949494949494949494949494949494949494949494949494949494949494949494949494949
102
{BLKREFS
331
191
102
}
 70
     1
280
     1
281
     0
  0
BLOCK_RECORD
  5
1B4
330
1
100
AcDbSymbolTableRecord
100
AcDbBlockTableRecord
  2
*D6
340
0
 70
     0
280
     1
281
     0
  0
BLOCK_RECORD
  5
1BE
330
1
100
AcDbSymbolTableRecord
100
AcDbBlockTableRecord
  2
*D7
340
0
 70
     0
280
     1
281
     0
  0
BLOCK_RECORD
  5
1C7
330
1
100
AcDbSymbolTableRecord
100
AcDbBlockTableRecord
  2
*D8
340
0
 70
     0
280
     1
281
     0
  0
BLOCK_RECORD
  5
1D5
330
1
100
AcDbSymbolTableRecord
100
AcDbBlockTableRecord
  2
*D9
340
0
 70
     0
280
     1
281
     0
  0
BLOCK_RECORD
  5
1E3
330
1
100
AcDbSymbolTableRecord
100
AcDbBlockTableRecord
  2
*D10
340
0
 70
     0
280
     1
281
     0
  0
BLOCK_RECORD
  5
1F1
330
1
100
AcDbSymbolTableRecord
100
AcDbBlockTableRecord
  2
*D11
340
0
 70
     0
280
     1
281
     0
  0
BLOCK_RECORD
  5
1FF
330
1
100
AcDbSymbolTableRecord
100
AcDbBlockTableRecord
  2
*D12
340
0
 70
     0
280
     1
281
     0
  0
BLOCK_RECORD
  5
20D
330
1
100
AcDbSymbolTableRecord
100
AcDbBlockTableRecord
  2
*D13
340
0
 70
     0
280
     1
281
     0
  0
BLOCK_RECORD
  5
21B
330
1
100
AcDbSymbolTableRecord
100
AcDbBlockTableRecord
  2
*D14
340
0
 70
     0
280
     1
281
     0
  0
BLOCK_RECORD
  5
224
330
1
100
AcDbSymbolTableRecord
100
AcDbBlockTableRecord
  2
*D15
340
0
 70
     0
280
     1
281
     0
  0
BLOCK_RECORD
  5
22C
330
1
100
AcDbSymbolTableRecord
100
AcDbBlockTableRecord
  2
*D16
340
0
 70
     0
280
     1
281
     0
  0
BLOCK_RECORD
  5
239
330
1
100
AcDbSymbolTableRecord
100
AcDbBlockTableRecord
  2
*D17
340
0
 70
     0
280
     1
281
     0
  0
BLOCK_RECORD
  5
246
330
1
100
AcDbSymbolTableRecord
100
AcDbBlockTableRecord
  2
*D18
340
0
 70
     0
280
     1
281
     0
  0
BLOCK_RECORD
  5
253
330
1
100
AcDbSymbolTableRecord
100
AcDbBlockTableRecord
  2
*D19
340
0
 70
     0
280
     1
281
     0
  0
BLOCK_RECORD
  5
260
330
1
100
AcDbSymbolTableRecord
100
AcDbBlockTableRecord
  2
*D20
340
0
 70
     0
280
     1
281
     0
  0
BLOCK_RECORD
  5
26D
330
1
100
AcDbSymbolTableRecord
100
AcDbBlockTableRecord
  2
*D21
340
0
 70
     0
280
     1
281
     0
  0
ENDTAB
  0
ENDSEC
  0
SECTION
  2
BLOCKS
  0
BLOCK
  5
71
330
70
100
AcDbEntity
  8
0
100
AcDbBlockBegin
  2
*Model_Space
 70
     0
 10
0.0
 20
0.0
 30
0.0
  3
*Model_Space
  1

  0
ENDBLK
  5
72
330
70
100
AcDbEntity
  8
0
100
AcDbBlockEnd
  0
BLOCK
  5
6D
330
6C
100
AcDbEntity
 67
     1
  8
0
100
AcDbBlockBegin
  2
*Paper_Space
 70
     0
 10
0.0
 20
0.0
 30
0.0
  3
*Paper_Space
  1

  0
ENDBLK
  5
6E
330
6C
100
AcDbEntity
 67
     1
  8
0
100
AcDbBlockEnd
  0
BLOCK
  5
75
330
74
100
AcDbEntity
 67
     1
  8
0
100
AcDbBlockBegin
  2
*Paper_Space0
 70
     0
 10
0.0
 20
0.0
 30
0.0
  3
*Paper_Space0
  1

  0
ENDBLK
  5
76
330
74
100
AcDbEntity
 67
     1
  8
0
100
AcDbBlockEnd
  0
BLOCK
  5
171
330
16E
100
AcDbEntity
  8
0
100
AcDbBlockBegin
  2
Shower
 70
     2
 10
0.0
 20
0.0
 30
0.0
  3
Shower
  1

  0
LWPOLYLINE
  5
172
330
16E
100
AcDbEntity
  8
Titleblock
100
AcDbPolyline
 90
        4
 70
     1
 43
0.0
 10
0.0
 20
0.0
 10
-4.9375
 20
0.0
 10
-4.9375
 20
2.5
 10
0.0
 20
2.5
  0
IMAGE
  5
173
330
16E
100
AcDbEntity
  8
Titleblock
  6
Continuous
160
               140
310
8C0000000100000084000000060000000500000000000000008013C000B87FA8928AB03F000000000000000000000000008013C035B4911D6523F03F000000000000000001000000008001C035B4911D6523F03F000000000000000001000000008001C000B87FA8928AB03F000000000000000000000000008013C000B87F
310
A8928AB03F0000000000000000
370
     0
100
AcDbRasterImage
 90
        0
 10
-4.875
 20
0.064614
 30
0.0
 11
0.0028349156118143
 21
0.0
 31
0.0
 12
0.0
 22
0.0028349156118143
 32
0.0
 13
948.0
 23
333.0
340
174
 70
    15
280
     0
281
    50
282
    50
283
     0
290
     0
360
176
 71
     1
 91
        2
 14
-0.5
 24
-0.5
 14
947.5
 24
332.5
  0
LWPOLYLINE
  5
178
330
16E
100
AcDbEntity
  8
Titleblock
  6
Continuous
370
    25
100
AcDbPolyline
 90
        4
 70
     1
 43
0.0
 10
0.0
 20
1.0625
 10
-4.9375
 20
1.061638
 10
-4.9375
 20
0.0
 10
0.0
 20
0.0
  0
LWPOLYLINE
  5
179
330
16E
100
AcDbEntity
  8
Titleblock
  6
Continuous
370
    25
100
AcDbPolyline
 90
        4
 70
     1
 43
0.0
 10
-1.75
 20
2.5
 10
0.0
 20
2.5
 10
0.0
 20
2.5
 10
-1.75
 20
2.5
  0
ATTDEF
  5
17A
330
16E
100
AcDbEntity
  8
Titleblock
  6
Continuous
370
    25
100
AcDbText
 10
-3.6875
 20
2.3125
 30
0.0
 40
0.12
  1

100
AcDbAttributeDefinition
280
     0
  3

  2
PROJECT
 70
     0
280
     1
  0
MTEXT
  5
17B
330
16E
100
AcDbEntity
  8
Titleblock
  6
Continuous
370
    25
100
AcDbMText
 10
-4.875
 20
1.653875
 30
0.0
 40
0.12
 41
0.6875
 46
0.0
 71
     1
 72
     5
  1
Description:
 73
     1
 44
1.0
1001
ACAD
1000
ACAD_MTEXT_COLUMN_INFO_BEGIN
1070
    75
1070
     2
1070
    79
1070
     0
1070
    76
1070
     1
1070
    78
1070
     0
1070
    48
1040
0.6875
1070
    49
1040
0.6
1070
    50
1070
     1
1040
0.0
1000
ACAD_MTEXT_COLUMN_INFO_END
  0
ATTDEF
  5
17C
330
16E
100
AcDbEntity
  8
Titleblock
  6
Continuous
370
    25
100
AcDbText
 10
-1.6875
 20
0.6875
 30
0.0
 40
0.12
  1

100
AcDbAttributeDefinition
280
     0
  3

  2
DRAWN_DATE
 70
     0
280
     1
  0
ATTDEF
  5
17D
330
16E
100
AcDbEntity
  8
Titleblock
  6
Continuous
370
    25
100
AcDbText
 10
-4.3125
 20
1.8125
 30
0.0
 40
0.3048
  1

100
AcDbAttributeDefinition
280
     0
  3

  2
TITLE_1
 70
     0
280
     1
  0
ATTDEF
  5
17E
330
16E
100
AcDbEntity
  8
Titleblock
  6
Continuous
370
    25
100
AcDbText
 10
-1.6875
 20
0.91994
 30
0.0
 40
0.12
  1

100
AcDbAttributeDefinition
280
     0
  3

  2
SCALE
 70
     0
280
     1
  0
LWPOLYLINE
  5
17F
330
16E
100
AcDbEntity
  8
Titleblock
  6
Continuous
370
    25
100
AcDbPolyline
 90
        4
 70
     1
 43
0.0
 10
0.0
 20
1.0625
 10
0.0
 20
1.0625
 10
0.0
 20
0.0
 10
0.0
 20
0.0
  0
LWPOLYLINE
  5
180
330
16E
100
AcDbEntity
  8
Titleblock
  6
Continuous
370
    25
100
AcDbPolyline
 90
        4
 70
     1
 43
0.0
 10
0.0
 20
1.0625
 10
0.0
 20
1.0625
 10
0.0
 20
0.0
 10
0.0
 20
0.0
  0
LINE
  5
181
330
16E
100
AcDbEntity
  8
Titleblock
  6
Continuous
370
    25
100
AcDbLine
 10
-2.125
 20
1.062165
 30
0.0
 11
-2.125
 21
0.0
 31
0.0
  0
LWPOLYLINE
  5
182
330
16E
100
AcDbEntity
  8
Titleblock
  6
Continuous
370
    25
100
AcDbPolyline
 90
        4
 70
     1
 43
0.0
 10
-4.9375
 20
2.5
 10
0.0
 20
2.5
 10
0.0
 20
2.5
 10
-4.9375
 20
2.5
  0
LINE
  5
183
330
16E
100
AcDbEntity
  8
Titleblock
  6
Continuous
370
    25
100
AcDbLine
 10
-4.9375
 20
2.25
 30
0.0
 11
0.0
 21
2.25
 31
0.0
  0
LINE
  5
184
330
16E
100
AcDbEntity
  8
Titleblock
  6
Continuous
370
    25
100
AcDbLine
 10
-4.9375
 20
1.6875
 30
0.0
 11
0.0
 21
1.6875
 31
0.0
  0
MTEXT
  5
185
330
16E
100
AcDbEntity
  8
Titleblock
100
AcDbMText
 10
-4.875
 20
2.467284
 30
0.0
 40
0.12
 41
0.375
 46
0.0
 71
     1
 72
     5
  1
Project:
 73
     1
 44
1.0
1001
ACAD
1000
ACAD_MTEXT_COLUMN_INFO_BEGIN
1070
    75
1070
     2
1070
    79
1070
     0
1070
    76
1070
     1
1070
    78
1070
     0
1070
    48
1040
0.375
1070
    49
1040
0.6
1070
    50
1070
     1
1040
0.0
1000
ACAD_MTEXT_COLUMN_INFO_END
  0
MTEXT
  5
186
330
16E
100
AcDbEntity
  8
Titleblock
100
AcDbMText
 10
-2.0625
 20
1.045477
 30
0.0
 40
0.075
 41
0.375
 46
0.0
 71
     1
 72
     5
  1
Scale:
 73
     1
 44
1.0
1001
ACAD
1000
ACAD_MTEXT_COLUMN_INFO_BEGIN
1070
    75
1070
     2
1070
    79
1070
     0
1070
    76
1070
     1
1070
    78
1070
     0
1070
    48
1040
0.375
1070
    49
1040
0.6
1070
    50
1070
     1
1040
0.0
1000
ACAD_MTEXT_COLUMN_INFO_END
  0
MTEXT
  5
187
330
16E
100
AcDbEntity
  8
Titleblock
100
AcDbMText
 10
-2.0625
 20
0.857735
 30
0.0
 40
0.075
 41
0.375
 46
0.0
 71
     1
 72
     5
  1
Date Drawn:
 73
     1
 44
1.0
1001
ACAD
1000
ACAD_MTEXT_COLUMN_INFO_BEGIN
1070
    75
1070
     2
1070
    79
1070
     0
1070
    76
1070
     1
1070
    78
1070
     0
1070
    48
1040
0.375
1070
    49
1040
0.6
1070
    50
1070
     1
1040
0.0
1000
ACAD_MTEXT_COLUMN_INFO_END
  0
LINE
  5
188
330
16E
100
AcDbEntity
  8
Titleblock
100
AcDbLine
 10
-2.125
 20
0.875
 30
0.0
 11
0.0
 21
0.875
 31
0.0
  0
LINE
  5
189
330
16E
100
AcDbEntity
  8
Titleblock
100
AcDbLine
 10
-2.125
 20
0.625
 30
0.0
 11
0.0
 21
0.625
 31
0.0
  0
MTEXT
  5
18A
330
16E
100
AcDbEntity
  8
Titleblock
100
AcDbMText
 10
-4.875
 20
2.220603
 30
0.0
 40
0.12
 41
0.625
 46
0.0
 71
     1
 72
     5
  1
Title:
 73
     1
 44
1.0
1001
ACAD
1000
ACAD_MTEXT_COLUMN_INFO_BEGIN
1070
    75
1070
     2
1070
    79
1070
     0
1070
    76
1070
     1
1070
    78
1070
     0
1070
    48
1040
0.625
1070
    49
1040
0.6
1070
    50
1070
     1
1040
0.0
1000
ACAD_MTEXT_COLUMN_INFO_END
  0
ENDBLK
  5
18B
330
16E
100
AcDbEntity
  8
0
100
AcDbBlockEnd
  0
BLOCK
  5
194
330
193
100
AcDbEntity
  8
0
100
AcDbBlockBegin
  2
ANSI_B_SHEET
 70
     0
 10
0.0
 20
0.0
 30
0.0
  3
ANSI_B_SHEET
  1

  0
LINE
  5
195
330
193
100
AcDbEntity
  8
Border
100
AcDbLine
 10
0.0
 20
0.0
 30
0.0
 11
0.5
 21
0.0
 31
0.0
  0
LINE
  5
196
330
193
100
AcDbEntity
  8
Border
100
AcDbLine
 10
16.5
 20
0.0
 30
0.0
 11
17.0
 21
0.0
 31
0.0
  0
LINE
  5
197
330
193
100
AcDbEntity
  8
Border
100
AcDbLine
 10
0.62
 20
0.38
 30
0.0
 11
16.38
 21
0.38
 31
0.0
  0
LINE
  5
198
330
193
100
AcDbEntity
  8
Border
100
AcDbLine
 10
17.0
 20
0.0
 30
0.0
 11
17.0
 21
0.5
 31
0.0
  0
LINE
  5
199
330
193
100
AcDbEntity
  8
Border
100
AcDbLine
 10
17.0
 20
10.5
 30
0.0
 11
17.0
 21
11.0
 31
0.0
  0
LINE
  5
19A
330
193
100
AcDbEntity
  8
Border
100
AcDbLine
 10
16.38
 20
0.38
 30
0.0
 11
16.38
 21
10.62
 31
0.0
  0
LINE
  5
19B
330
193
100
AcDbEntity
  8
Border
100
AcDbLine
 10
17.0
 20
11.0
 30
0.0
 11
16.5
 21
11.0
 31
0.0
  0
LINE
  5
19C
330
193
100
AcDbEntity
  8
Border
100
AcDbLine
 10
0.5
 20
11.0
 30
0.0
 11
0.0
 21
11.0
 31
0.0
  0
LINE
  5
19D
330
193
100
AcDbEntity
  8
Border
100
AcDbLine
 10
16.38
 20
10.62
 30
0.0
 11
0.62
 21
10.62
 31
0.0
  0
LINE
  5
19E
330
193
100
AcDbEntity
  8
Border
100
AcDbLine
 10
0.0
 20
11.0
 30
0.0
 11
0.0
 21
10.5
 31
0.0
  0
LINE
  5
19F
330
193
100
AcDbEntity
  8
Border
100
AcDbLine
 10
0.0
 20
0.5
 30
0.0
 11
0.0
 21
0.0
 31
0.0
  0
LINE
  5
1A0
330
193
100
AcDbEntity
  8
Border
100
AcDbLine
 10
0.62
 20
10.62
 30
0.0
 11
0.62
 21
0.38
 31
0.0
  0
LINE
  5
1A1
330
193
100
AcDbEntity
  8
Border
100
AcDbLine
 10
8.413397
 20
0.23
 30
0.0
 11
8.586603
 21
0.23
 31
0.0
  0
LINE
  5
1A2
330
193
100
AcDbEntity
  8
Border
100
AcDbLine
 10
8.5
 20
0.38
 30
0.0
 11
8.5
 21
0.13
 31
0.0
  0
LINE
  5
1A3
330
193
100
AcDbEntity
  8
Border
100
AcDbLine
 10
8.5
 20
0.38
 30
0.0
 11
8.413397
 21
0.23
 31
0.0
  0
LINE
  5
1A4
330
193
100
AcDbEntity
  8
Border
100
AcDbLine
 10
8.5
 20
0.38
 30
0.0
 11
8.586603
 21
0.23
 31
0.0
  0
LINE
  5
1A5
330
193
100
AcDbEntity
  8
Border
100
AcDbLine
 10
0.47
 20
5.586603
 30
0.0
 11
0.47
 21
5.413397
 31
0.0
  0
LINE
  5
1A6
330
193
100
AcDbEntity
  8
Border
100
AcDbLine
 10
0.62
 20
5.5
 30
0.0
 11
0.37
 21
5.5
 31
0.0
  0
LINE
  5
1A7
330
193
100
AcDbEntity
  8
Border
100
AcDbLine
 10
0.62
 20
5.5
 30
0.0
 11
0.47
 21
5.586603
 31
0.0
  0
LINE
  5
1A8
330
193
100
AcDbEntity
  8
Border
100
AcDbLine
 10
0.62
 20
5.5
 30
0.0
 11
0.47
 21
5.413397
 31
0.0
  0
LINE
  5
1A9
330
193
100
AcDbEntity
  8
Border
100
AcDbLine
 10
16.53
 20
5.586603
 30
0.0
 11
16.53
 21
5.413397
 31
0.0
  0
LINE
  5
1AA
330
193
100
AcDbEntity
  8
Border
100
AcDbLine
 10
16.38
 20
5.5
 30
0.0
 11
16.63
 21
5.5
 31
0.0
  0
LINE
  5
1AB
330
193
100
AcDbEntity
  8
Border
100
AcDbLine
 10
16.38
 20
5.5
 30
0.0
 11
16.53
 21
5.586603
 31
0.0
  0
LINE
  5
1AC
330
193
100
AcDbEntity
  8
Border
100
AcDbLine
 10
16.38
 20
5.5
 30
0.0
 11
16.53
 21
5.413397
 31
0.0
  0
LINE
  5
1AD
330
193
100
AcDbEntity
  8
Border
100
AcDbLine
 10
8.413397
 20
10.77
 30
0.0
 11
8.586603
 21
10.77
 31
0.0
  0
LINE
  5
1AE
330
193
100
AcDbEntity
  8
Border
100
AcDbLine
 10
8.5
 20
10.62
 30
0.0
 11
8.5
 21
10.87
 31
0.0
  0
LINE
  5
1AF
330
193
100
AcDbEntity
  8
Border
100
AcDbLine
 10
8.5
 20
10.62
 30
0.0
 11
8.413397
 21
10.77
 31
0.0
  0
LINE
  5
1B0
330
193
100
AcDbEntity
  8
Border
100
AcDbLine
 10
8.5
 20
10.62
 30
0.0
 11
8.586603
 21
10.77
 31
0.0
  0
ENDBLK
  5
1B1
330
193
100
AcDbEntity
  8
0
100
AcDbBlockEnd
  0
BLOCK
  5
1B5
330
1B4
100
AcDbEntity
  8
0
100
AcDbBlockBegin
  2
*D6
 70
     1
 10
0.0
 20
0.0
 30
0.0
  3
*D6
  1

  0
LINE
  5
1B6
330
1B4
100
AcDbEntity
  8
Dimensions
440
 16777216
370
    -2
100
AcDbLine
 10
9.713101
 20
5.801929
 30
0.0
 11
9.593101
 21
5.801929
 31
0.0
  0
LINE
  5
1B7
330
1B4
100
AcDbEntity
  8
Dimensions
440
 16777216
370
    -2
100
AcDbLine
 10
9.593101
 20
5.801929
 30
0.0
 11
9.438721
 21
5.706292
 31
0.0
  0
MTEXT
  5
1B8
330
1B4
100
AcDbEntity
  8
Dimensions
440
 16777216
100
AcDbMText
 10
10.057508
 20
5.801929
 30
0.0
 40
0.12
 41
0.0
 46
0.0
 71
     5
 72
     1
  1
\A1;∅1.97in
 73
     1
 44
1.0
  0
SOLID
  5
1B9
330
1B4
100
AcDbEntity
  8
Dimensions
440
 16777216
100
AcDbTrace
 10
9.428188
 20
5.723294
 30
0.0
 11
9.449253
 21
5.68929
 31
0.0
 12
9.336709
 22
5.643097
 32
0.0
 13
9.336709
 23
5.643097
 33
0.0
  0
POINT
  5
1BA
330
1B4
100
AcDbEntity
  8
Defpoints
 62
     0
440
 16777216
100
AcDbPoint
 10
9.336709
 20
5.643097
 30
0.0
  0
POINT
  5
1BB
330
1B4
100
AcDbEntity
  8
Defpoints
 62
     0
440
 16777216
100
AcDbPoint
 10
7.663291
 20
4.606429
 30
0.0
  0
ENDBLK
  5
1BC
330
1B4
100
AcDbEntity
  8
0
100
AcDbBlockEnd
  0
BLOCK
  5
1BF
330
1BE
100
AcDbEntity
  8
0
100
AcDbBlockBegin
  2
*D7
 70
     1
 10
0.0
 20
0.0
 30
0.0
  3
*D7
  1

  0
LINE
  5
1C0
330
1BE
100
AcDbEntity
  8
Dimensions
440
 16777216
370
    -2
100
AcDbLine
 10
9.716245
 20
5.273404
 30
0.0
 11
9.107605
 21
5.19902
 31
0.0
  0
MTEXT
  5
1C1
330
1BE
100
AcDbEntity
  8
Dimensions
440
 16777216
100
AcDbMText
 10
10.014035
 20
5.273404
 30
0.0
 40
0.12
 41
0.0
 46
0.0
 71
     5
 72
     1
  1
\A1;∅.98in
 73
     1
 44
1.0
  0
SOLID
  5
1C2
330
1BE
100
AcDbEntity
  8
Dimensions
440
 16777216
100
AcDbTrace
 10
9.105179
 20
5.218872
 30
0.0
 11
9.110031
 21
5.179168
 31
0.0
 12
8.988491
 22
5.184463
 32
0.0
 13
8.988491
 23
5.184463
 33
0.0
  0
POINT
  5
1C3
330
1BE
100
AcDbEntity
  8
Defpoints
 62
     0
440
 16777216
100
AcDbPoint
 10
8.988491
 20
5.184463
 30
0.0
  0
POINT
  5
1C4
330
1BE
100
AcDbEntity
  8
Defpoints
 62
     0
440
 16777216
100
AcDbPoint
 10
8.011509
 20
5.065063
 30
0.0
  0
ENDBLK
  5
1C5
330
1BE
100
AcDbEntity
  8
0
100
AcDbBlockEnd
  0
BLOCK
  5
1C8
330
1C7
100
AcDbEntity
  8
0
100
AcDbBlockBegin
  2
*D8
 70
     1
 10
0.0
 20
0.0
 30
0.0
  3
*D8
  1

  0
LINE
  5
1C9
330
1C7
100
AcDbEntity
  8
Dimensions
440
 16777216
370
    -2
100
AcDbLine
 10
9.779528
 20
7.577559
 30
0.0
 11
9.779528
 21
7.96697
 31
0.0
  0
LINE
  5
1CA
330
1C7
100
AcDbEntity
  8
Dimensions
440
 16777216
370
    -2
100
AcDbLine
 10
7.220472
 20
7.577559
 30
0.0
 11
7.220472
 21
7.96697
 31
0.0
  0
LINE
  5
1CB
330
1C7
100
AcDbEntity
  8
Dimensions
440
 16777216
370
    -2
100
AcDbLine
 10
9.659528
 20
7.86697
 30
0.0
 11
8.78015
 21
7.86697
 31
0.0
  0
LINE
  5
1CC
330
1C7
100
AcDbEntity
  8
Dimensions
440
 16777216
370
    -2
100
AcDbLine
 10
7.340472
 20
7.86697
 30
0.0
 11
8.21985
 21
7.86697
 31
0.0
  0
SOLID
  5
1CD
330
1C7
100
AcDbEntity
  8
Dimensions
440
 16777216
100
AcDbTrace
 10
9.659528
 20
7.88697
 30
0.0
 11
9.659528
 21
7.84697
 31
0.0
 12
9.779528
 22
7.86697
 32
0.0
 13
9.779528
 23
7.86697
 33
0.0
  0
SOLID
  5
1CE
330
1C7
100
AcDbEntity
  8
Dimensions
440
 16777216
100
AcDbTrace
 10
7.340472
 20
7.88697
 30
0.0
 11
7.340472
 21
7.84697
 31
0.0
 12
7.220472
 22
7.86697
 32
0.0
 13
7.220472
 23
7.86697
 33
0.0
  0
MTEXT
  5
1CF
330
1C7
100
AcDbEntity
  8
Dimensions
440
 16777216
100
AcDbMText
 10
8.5
 20
7.86697
 30
0.0
 40
0.12
 41
0.0
 46
0.0
 71
     5
 72
     1
  1
\A1;2.56in
 73
     1
 44
1.0
  0
POINT
  5
1D0
330
1C7
100
AcDbEntity
  8
Defpoints
 62
     0
440
 16777216
100
AcDbPoint
 10
9.779528
 20
7.527559
 30
0.0
  0
POINT
  5
1D1
330
1C7
100
AcDbEntity
  8
Defpoints
 62
     0
440
 16777216
100
AcDbPoint
 10
7.220472
 20
7.527559
 30
0.0
  0
POINT
  5
1D2
330
1C7
100
AcDbEntity
  8
Defpoints
 62
     0
440
 16777216
100
AcDbPoint
 10
7.220472
 20
7.86697
 30
0.0
  0
ENDBLK
  5
1D3
330
1C7
100
AcDbEntity
  8
0
100
AcDbBlockEnd
  0
BLOCK
  5
1D6
330
1D5
100
AcDbEntity
  8
0
100
AcDbBlockBegin
  2
*D9
 70
     1
 10
0.0
 20
0.0
 30
0.0
  3
*D9
  1

  0
LINE
  5
1D7
330
1D5
100
AcDbEntity
  8
Dimensions
440
 16777216
370
    -2
100
AcDbLine
 10
11.594819
 20
7.577559
 30
0.0
 11
11.594819
 21
7.96697
 31
0.0
  0
LINE
  5
1D8
330
1D5
100
AcDbEntity
  8
Dimensions
440
 16777216
370
    -2
100
AcDbLine
 10
12.500331
 20
7.577559
 30
0.0
 11
12.500331
 21
7.96697
 31
0.0
  0
LINE
  5
1D9
330
1D5
100
AcDbEntity
  8
Dimensions
440
 16777216
370
    -2
100
AcDbLine
 10
11.714819
 20
7.86697
 30
0.0
 11
11.819198
 21
7.86697
 31
0.0
  0
LINE
  5
1DA
330
1D5
100
AcDbEntity
  8
Dimensions
440
 16777216
370
    -2
100
AcDbLine
 10
12.380331
 20
7.86697
 30
0.0
 11
12.275951
 21
7.86697
 31
0.0
  0
SOLID
  5
1DB
330
1D5
100
AcDbEntity
  8
Dimensions
440
 16777216
100
AcDbTrace
 10
11.714819
 20
7.88697
 30
0.0
 11
11.714819
 21
7.84697
 31
0.0
 12
11.594819
 22
7.86697
 32
0.0
 13
11.594819
 23
7.86697
 33
0.0
  0
SOLID
  5
1DC
330
1D5
100
AcDbEntity
  8
Dimensions
440
 16777216
100
AcDbTrace
 10
12.380331
 20
7.88697
 30
0.0
 11
12.380331
 21
7.84697
 31
0.0
 12
12.500331
 22
7.86697
 32
0.0
 13
12.500331
 23
7.86697
 33
0.0
  0
MTEXT
  5
1DD
330
1D5
100
AcDbEntity
  8
Dimensions
440
 16777216
100
AcDbMText
 10
12.047575
 20
7.86697
 30
0.0
 40
0.12
 41
0.0
 46
0.0
 71
     5
 72
     1
  1
\A1;.91in
 73
     1
 44
1.0
  0
POINT
  5
1DE
330
1D5
100
AcDbEntity
  8
Defpoints
 62
     0
440
 16777216
100
AcDbPoint
 10
11.594819
 20
7.527559
 30
0.0
  0
POINT
  5
1DF
330
1D5
100
AcDbEntity
  8
Defpoints
 62
     0
440
 16777216
100
AcDbPoint
 10
12.500331
 20
7.527559
 30
0.0
  0
POINT
  5
1E0
330
1D5
100
AcDbEntity
  8
Defpoints
 62
     0
440
 16777216
100
AcDbPoint
 10
12.500331
 20
7.86697
 30
0.0
  0
ENDBLK
  5
1E1
330
1D5
100
AcDbEntity
  8
0
100
AcDbBlockEnd
  0
BLOCK
  5
1E4
330
1E3
100
AcDbEntity
  8
0
100
AcDbBlockBegin
  2
*D10
 70
     1
 10
0.0
 20
0.0
 30
0.0
  3
*D10
  1

  0
LINE
  5
1E5
330
1E3
100
AcDbEntity
  8
Dimensions
440
 16777216
370
    -2
100
AcDbLine
 10
8.224409
 20
3.506844
 30
0.0
 11
8.224409
 21
2.778022
 31
0.0
  0
LINE
  5
1E6
330
1E3
100
AcDbEntity
  8
Dimensions
440
 16777216
370
    -2
100
AcDbLine
 10
8.775591
 20
3.506844
 30
0.0
 11
8.775591
 21
2.778022
 31
0.0
  0
LINE
  5
1E7
330
1E3
100
AcDbEntity
  8
Dimensions
440
 16777216
370
    -2
100
AcDbLine
 10
8.104409
 20
2.878022
 30
0.0
 11
7.984409
 21
2.878022
 31
0.0
  0
LINE
  5
1E8
330
1E3
100
AcDbEntity
  8
Dimensions
440
 16777216
370
    -2
100
AcDbLine
 10
8.895591
 20
2.878022
 30
0.0
 11
9.015591
 21
2.878022
 31
0.0
  0
SOLID
  5
1E9
330
1E3
100
AcDbEntity
  8
Dimensions
440
 16777216
100
AcDbTrace
 10
8.104409
 20
2.898022
 30
0.0
 11
8.104409
 21
2.858022
 31
0.0
 12
8.224409
 22
2.878022
 32
0.0
 13
8.224409
 23
2.878022
 33
0.0
  0
SOLID
  5
1EA
330
1E3
100
AcDbEntity
  8
Dimensions
440
 16777216
100
AcDbTrace
 10
8.895591
 20
2.898022
 30
0.0
 11
8.895591
 21
2.858022
 31
0.0
 12
8.775591
 22
2.878022
 32
0.0
 13
8.775591
 23
2.878022
 33
0.0
  0
MTEXT
  5
1EB
330
1E3
100
AcDbEntity
  8
Dimensions
440
 16777216
100
AcDbMText
 10
8.5
 20
2.878022
 30
0.0
 40
0.12
 41
0.0
 46
0.0
 71
     5
 72
     1
  1
\A1;.55in
 73
     1
 44
1.0
  0
POINT
  5
1EC
330
1E3
100
AcDbEntity
  8
Defpoints
 62
     0
440
 16777216
100
AcDbPoint
 10
8.224409
 20
3.556844
 30
0.0
  0
POINT
  5
1ED
330
1E3
100
AcDbEntity
  8
Defpoints
 62
     0
440
 16777216
100
AcDbPoint
 10
8.775591
 20
3.556844
 30
0.0
  0
POINT
  5
1EE
330
1E3
100
AcDbEntity
  8
Defpoints
 62
     0
440
 16777216
100
AcDbPoint
 10
8.775591
 20
2.878022
 30
0.0
  0
ENDBLK
  5
1EF
330
1E3
100
AcDbEntity
  8
0
100
AcDbBlockEnd
  0
BLOCK
  5
1F2
330
1F1
100
AcDbEntity
  8
0
100
AcDbBlockBegin
  2
*D11
 70
     1
 10
0.0
 20
0.0
 30
0.0
  3
*D11
  1

  0
LINE
  5
1F3
330
1F1
100
AcDbEntity
  8
Dimensions
440
 16777216
370
    -2
100
AcDbLine
 10
15.197181
 20
6.159015
 30
0.0
 11
15.197181
 21
6.887837
 31
0.0
  0
LINE
  5
1F4
330
1F1
100
AcDbEntity
  8
Dimensions
440
 16777216
370
    -2
100
AcDbLine
 10
15.000331
 20
6.119645
 30
0.0
 11
15.000331
 21
6.887837
 31
0.0
  0
LINE
  5
1F5
330
1F1
100
AcDbEntity
  8
Dimensions
440
 16777216
370
    -2
100
AcDbLine
 10
15.317181
 20
6.787837
 30
0.0
 11
15.437181
 21
6.787837
 31
0.0
  0
LINE
  5
1F6
330
1F1
100
AcDbEntity
  8
Dimensions
440
 16777216
370
    -2
100
AcDbLine
 10
14.880331
 20
6.787837
 30
0.0
 11
14.760331
 21
6.787837
 31
0.0
  0
SOLID
  5
1F7
330
1F1
100
AcDbEntity
  8
Dimensions
440
 16777216
100
AcDbTrace
 10
15.317181
 20
6.807837
 30
0.0
 11
15.317181
 21
6.767837
 31
0.0
 12
15.197181
 22
6.787837
 32
0.0
 13
15.197181
 23
6.787837
 33
0.0
  0
SOLID
  5
1F8
330
1F1
100
AcDbEntity
  8
Dimensions
440
 16777216
100
AcDbTrace
 10
14.880331
 20
6.807837
 30
0.0
 11
14.880331
 21
6.767837
 31
0.0
 12
15.000331
 22
6.787837
 32
0.0
 13
15.000331
 23
6.787837
 33
0.0
  0
MTEXT
  5
1F9
330
1F1
100
AcDbEntity
  8
Dimensions
440
 16777216
100
AcDbMText
 10
14.578571
 20
6.787837
 30
0.0
 40
0.12
 41
0.0
 46
0.0
 71
     5
 72
     1
  1
\A1;.2in
 73
     1
 44
1.0
  0
POINT
  5
1FA
330
1F1
100
AcDbEntity
  8
Defpoints
 62
     0
440
 16777216
100
AcDbPoint
 10
15.197181
 20
6.109015
 30
0.0
  0
POINT
  5
1FB
330
1F1
100
AcDbEntity
  8
Defpoints
 62
     0
440
 16777216
100
AcDbPoint
 10
15.000331
 20
6.069645
 30
0.0
  0
POINT
  5
1FC
330
1F1
100
AcDbEntity
  8
Defpoints
 62
     0
440
 16777216
100
AcDbPoint
 10
15.000331
 20
6.787837
 30
0.0
  0
ENDBLK
  5
1FD
330
1F1
100
AcDbEntity
  8
0
100
AcDbBlockEnd
  0
BLOCK
  5
200
330
1FF
100
AcDbEntity
  8
0
100
AcDbBlockBegin
  2
*D12
 70
     1
 10
0.0
 20
0.0
 30
0.0
  3
*D12
  1

  0
LINE
  5
201
330
1FF
100
AcDbEntity
  8
Dimensions
440
 16777216
370
    -2
100
AcDbLine
 10
15.197181
 20
6.159015
 30
0.0
 11
15.197181
 21
8.835857
 31
0.0
  0
LINE
  5
202
330
1FF
100
AcDbEntity
  8
Dimensions
440
 16777216
370
    -2
100
AcDbLine
 10
12.047575
 20
6.804274
 30
0.0
 11
12.047575
 21
8.835857
 31
0.0
  0
LINE
  5
203
330
1FF
100
AcDbEntity
  8
Dimensions
440
 16777216
370
    -2
100
AcDbLine
 10
15.077181
 20
8.735857
 30
0.0
 11
13.901464
 21
8.735857
 31
0.0
  0
LINE
  5
204
330
1FF
100
AcDbEntity
  8
Dimensions
440
 16777216
370
    -2
100
AcDbLine
 10
12.167575
 20
8.735857
 30
0.0
 11
13.343292
 21
8.735857
 31
0.0
  0
SOLID
  5
205
330
1FF
100
AcDbEntity
  8
Dimensions
440
 16777216
100
AcDbTrace
 10
15.077181
 20
8.755857
 30
0.0
 11
15.077181
 21
8.715857
 31
0.0
 12
15.197181
 22
8.735857
 32
0.0
 13
15.197181
 23
8.735857
 33
0.0
  0
SOLID
  5
206
330
1FF
100
AcDbEntity
  8
Dimensions
440
 16777216
100
AcDbTrace
 10
12.167575
 20
8.755857
 30
0.0
 11
12.167575
 21
8.715857
 31
0.0
 12
12.047575
 22
8.735857
 32
0.0
 13
12.047575
 23
8.735857
 33
0.0
  0
MTEXT
  5
207
330
1FF
100
AcDbEntity
  8
Dimensions
440
 16777216
100
AcDbMText
 10
13.622378
 20
8.735857
 30
0.0
 40
0.12
 41
0.0
 46
0.0
 71
     5
 72
     1
  1
\A1;3.15in
 73
     1
 44
1.0
  0
POINT
  5
208
330
1FF
100
AcDbEntity
  8
Defpoints
 62
     0
440
 16777216
100
AcDbPoint
 10
15.197181
 20
6.109015
 30
0.0
  0
POINT
  5
209
330
1FF
100
AcDbEntity
  8
Defpoints
 62
     0
440
 16777216
100
AcDbPoint
 10
12.047575
 20
6.754274
 30
0.0
  0
POINT
  5
20A
330
1FF
100
AcDbEntity
  8
Defpoints
 62
     0
440
 16777216
100
AcDbPoint
 10
12.047575
 20
8.735857
 30
0.0
  0
ENDBLK
  5
20B
330
1FF
100
AcDbEntity
  8
0
100
AcDbBlockEnd
  0
BLOCK
  5
20E
330
20D
100
AcDbEntity
  8
0
100
AcDbBlockBegin
  2
*D13
 70
     1
 10
0.0
 20
0.0
 30
0.0
  3
*D13
  1

  0
LINE
  5
20F
330
20D
100
AcDbEntity
  8
Dimensions
440
 16777216
370
    -2
100
AcDbLine
 10
11.575134
 20
5.074763
 30
0.0
 11
11.575134
 21
3.022277
 31
0.0
  0
LINE
  5
210
330
20D
100
AcDbEntity
  8
Dimensions
440
 16777216
370
    -2
100
AcDbLine
 10
15.197181
 20
4.090511
 30
0.0
 11
15.197181
 21
3.022277
 31
0.0
  0
LINE
  5
211
330
20D
100
AcDbEntity
  8
Dimensions
440
 16777216
370
    -2
100
AcDbLine
 10
11.695134
 20
3.122277
 30
0.0
 11
13.107071
 21
3.122277
 31
0.0
  0
LINE
  5
212
330
20D
100
AcDbEntity
  8
Dimensions
440
 16777216
370
    -2
100
AcDbLine
 10
15.077181
 20
3.122277
 30
0.0
 11
13.665243
 21
3.122277
 31
0.0
  0
SOLID
  5
213
330
20D
100
AcDbEntity
  8
Dimensions
440
 16777216
100
AcDbTrace
 10
11.695134
 20
3.142277
 30
0.0
 11
11.695134
 21
3.102277
 31
0.0
 12
11.575134
 22
3.122277
 32
0.0
 13
11.575134
 23
3.122277
 33
0.0
  0
SOLID
  5
214
330
20D
100
AcDbEntity
  8
Dimensions
440
 16777216
100
AcDbTrace
 10
15.077181
 20
3.142277
 30
0.0
 11
15.077181
 21
3.102277
 31
0.0
 12
15.197181
 22
3.122277
 32
0.0
 13
15.197181
 23
3.122277
 33
0.0
  0
MTEXT
  5
215
330
20D
100
AcDbEntity
  8
Dimensions
440
 16777216
100
AcDbMText
 10
13.386157
 20
3.122277
 30
0.0
 40
0.12
 41
0.0
 46
0.0
 71
     5
 72
     1
  1
\A1;3.62in
 73
     1
 44
1.0
  0
POINT
  5
216
330
20D
100
AcDbEntity
  8
Defpoints
 62
     0
440
 16777216
100
AcDbPoint
 10
11.575134
 20
5.124763
 30
0.0
  0
POINT
  5
217
330
20D
100
AcDbEntity
  8
Defpoints
 62
     0
440
 16777216
100
AcDbPoint
 10
15.197181
 20
4.140511
 30
0.0
  0
POINT
  5
218
330
20D
100
AcDbEntity
  8
Defpoints
 62
     0
440
 16777216
100
AcDbPoint
 10
15.197181
 20
3.122277
 30
0.0
  0
ENDBLK
  5
219
330
20D
100
AcDbEntity
  8
0
100
AcDbBlockEnd
  0
BLOCK
  5
21C
330
21B
100
AcDbEntity
  8
0
100
AcDbBlockBegin
  2
*D14
 70
     1
 10
0.0
 20
0.0
 30
0.0
  3
*D14
  1

  0
LINE
  5
44A
330
21B
100
AcDbEntity
  8
Dimensions
440
 16777216
370
    -2
100
AcDbLine
 10
9.713101
 20
5.801929
 30
0.0
 11
9.593101
 21
5.801929
 31
0.0
  0
LINE
  5
44B
330
21B
100
AcDbEntity
  8
Dimensions
440
 16777216
370
    -2
100
AcDbLine
 10
9.593101
 20
5.801929
 30
0.0
 11
9.438721
 21
5.706292
 31
0.0
  0
MTEXT
  5
44C
330
21B
100
AcDbEntity
  8
Dimensions
440
 16777216
100
AcDbMText
 10
10.057508
 20
5.801929
 30
0.0
 40
0.12
 41
0.0
 46
0.0
 71
     5
 72
     1
  1
\A1;∅1.97in
 73
     1
 44
1.0
  0
SOLID
  5
44D
330
21B
100
AcDbEntity
  8
Dimensions
440
 16777216
100
AcDbTrace
 10
9.428188
 20
5.723294
 30
0.0
 11
9.449253
 21
5.68929
 31
0.0
 12
9.336709
 22
5.643097
 32
0.0
 13
9.336709
 23
5.643097
 33
0.0
  0
POINT
  5
44E
330
21B
100
AcDbEntity
  8
Defpoints
 62
     0
440
 16777216
100
AcDbPoint
 10
9.336709
 20
5.643097
 30
0.0
  0
POINT
  5
44F
330
21B
100
AcDbEntity
  8
Defpoints
 62
     0
440
 16777216
100
AcDbPoint
 10
7.663291
 20
4.606429
 30
0.0
  0
ENDBLK
  5
21D
330
21B
100
AcDbEntity
  8
0
100
AcDbBlockEnd
  0
BLOCK
  5
225
330
224
100
AcDbEntity
  8
0
100
AcDbBlockBegin
  2
*D15
 70
     1
 10
0.0
 20
0.0
 30
0.0
  3
*D15
  1

  0
LINE
  5
450
330
224
100
AcDbEntity
  8
Dimensions
440
 16777216
370
    -2
100
AcDbLine
 10
9.716245
 20
5.273404
 30
0.0
 11
9.107605
 21
5.19902
 31
0.0
  0
MTEXT
  5
451
330
224
100
AcDbEntity
  8
Dimensions
440
 16777216
100
AcDbMText
 10
10.014035
 20
5.273404
 30
0.0
 40
0.12
 41
0.0
 46
0.0
 71
     5
 72
     1
  1
\A1;∅.98in
 73
     1
 44
1.0
  0
SOLID
  5
452
330
224
100
AcDbEntity
  8
Dimensions
440
 16777216
100
AcDbTrace
 10
9.105179
 20
5.218872
 30
0.0
 11
9.110031
 21
5.179168
 31
0.0
 12
8.988491
 22
5.184463
 32
0.0
 13
8.988491
 23
5.184463
 33
0.0
  0
POINT
  5
453
330
224
100
AcDbEntity
  8
Defpoints
 62
     0
440
 16777216
100
AcDbPoint
 10
8.988491
 20
5.184463
 30
0.0
  0
POINT
  5
454
330
224
100
AcDbEntity
  8
Defpoints
 62
     0
440
 16777216
100
AcDbPoint
 10
8.011509
 20
5.065063
 30
0.0
  0
ENDBLK
  5
226
330
224
100
AcDbEntity
  8
0
100
AcDbBlockEnd
  0
BLOCK
  5
22D
330
22C
100
AcDbEntity
  8
0
100
AcDbBlockBegin
  2
*D16
 70
     1
 10
0.0
 20
0.0
 30
0.0
  3
*D16
  1

  0
LINE
  5
455
330
22C
100
AcDbEntity
  8
Dimensions
440
 16777216
370
    -2
100
AcDbLine
 10
9.779528
 20
7.577559
 30
0.0
 11
9.779528
 21
7.96697
 31
0.0
  0
LINE
  5
456
330
22C
100
AcDbEntity
  8
Dimensions
440
 16777216
370
    -2
100
AcDbLine
 10
7.220472
 20
7.577559
 30
0.0
 11
7.220472
 21
7.96697
 31
0.0
  0
LINE
  5
457
330
22C
100
AcDbEntity
  8
Dimensions
440
 16777216
370
    -2
100
AcDbLine
 10
9.659528
 20
7.86697
 30
0.0
 11
8.78015
 21
7.86697
 31
0.0
  0
LINE
  5
458
330
22C
100
AcDbEntity
  8
Dimensions
440
 16777216
370
    -2
100
AcDbLine
 10
7.340472
 20
7.86697
 30
0.0
 11
8.21985
 21
7.86697
 31
0.0
  0
SOLID
  5
459
330
22C
100
AcDbEntity
  8
Dimensions
440
 16777216
100
AcDbTrace
 10
9.659528
 20
7.88697
 30
0.0
 11
9.659528
 21
7.84697
 31
0.0
 12
9.779528
 22
7.86697
 32
0.0
 13
9.779528
 23
7.86697
 33
0.0
  0
SOLID
  5
45A
330
22C
100
AcDbEntity
  8
Dimensions
440
 16777216
100
AcDbTrace
 10
7.340472
 20
7.88697
 30
0.0
 11
7.340472
 21
7.84697
 31
0.0
 12
7.220472
 22
7.86697
 32
0.0
 13
7.220472
 23
7.86697
 33
0.0
  0
MTEXT
  5
45B
330
22C
100
AcDbEntity
  8
Dimensions
440
 16777216
100
AcDbMText
 10
8.5
 20
7.86697
 30
0.0
 40
0.12
 41
0.0
 46
0.0
 71
     5
 72
     1
  1
\A1;2.56in
 73
     1
 44
1.0
  0
POINT
  5
45C
330
22C
100
AcDbEntity
  8
Defpoints
 62
     0
440
 16777216
100
AcDbPoint
 10
9.779528
 20
7.527559
 30
0.0
  0
POINT
  5
45D
330
22C
100
AcDbEntity
  8
Defpoints
 62
     0
440
 16777216
100
AcDbPoint
 10
7.220472
 20
7.527559
 30
0.0
  0
POINT
  5
45E
330
22C
100
AcDbEntity
  8
Defpoints
 62
     0
440
 16777216
100
AcDbPoint
 10
7.220472
 20
7.86697
 30
0.0
  0
ENDBLK
  5
22E
330
22C
100
AcDbEntity
  8
0
100
AcDbBlockEnd
  0
BLOCK
  5
23A
330
239
100
AcDbEntity
  8
0
100
AcDbBlockBegin
  2
*D17
 70
     1
 10
0.0
 20
0.0
 30
0.0
  3
*D17
  1

  0
LINE
  5
45F
330
239
100
AcDbEntity
  8
Dimensions
440
 16777216
370
    -2
100
AcDbLine
 10
11.594819
 20
7.577559
 30
0.0
 11
11.594819
 21
7.96697
 31
0.0
  0
LINE
  5
460
330
239
100
AcDbEntity
  8
Dimensions
440
 16777216
370
    -2
100
AcDbLine
 10
12.500331
 20
7.577559
 30
0.0
 11
12.500331
 21
7.96697
 31
0.0
  0
LINE
  5
461
330
239
100
AcDbEntity
  8
Dimensions
440
 16777216
370
    -2
100
AcDbLine
 10
11.714819
 20
7.86697
 30
0.0
 11
11.819198
 21
7.86697
 31
0.0
  0
LINE
  5
462
330
239
100
AcDbEntity
  8
Dimensions
440
 16777216
370
    -2
100
AcDbLine
 10
12.380331
 20
7.86697
 30
0.0
 11
12.275951
 21
7.86697
 31
0.0
  0
SOLID
  5
463
330
239
100
AcDbEntity
  8
Dimensions
440
 16777216
100
AcDbTrace
 10
11.714819
 20
7.88697
 30
0.0
 11
11.714819
 21
7.84697
 31
0.0
 12
11.594819
 22
7.86697
 32
0.0
 13
11.594819
 23
7.86697
 33
0.0
  0
SOLID
  5
464
330
239
100
AcDbEntity
  8
Dimensions
440
 16777216
100
AcDbTrace
 10
12.380331
 20
7.88697
 30
0.0
 11
12.380331
 21
7.84697
 31
0.0
 12
12.500331
 22
7.86697
 32
0.0
 13
12.500331
 23
7.86697
 33
0.0
  0
MTEXT
  5
465
330
239
100
AcDbEntity
  8
Dimensions
440
 16777216
100
AcDbMText
 10
12.047575
 20
7.86697
 30
0.0
 40
0.12
 41
0.0
 46
0.0
 71
     5
 72
     1
  1
\A1;.91in
 73
     1
 44
1.0
  0
POINT
  5
466
330
239
100
AcDbEntity
  8
Defpoints
 62
     0
440
 16777216
100
AcDbPoint
 10
11.594819
 20
7.527559
 30
0.0
  0
POINT
  5
467
330
239
100
AcDbEntity
  8
Defpoints
 62
     0
440
 16777216
100
AcDbPoint
 10
12.500331
 20
7.527559
 30
0.0
  0
POINT
  5
468
330
239
100
AcDbEntity
  8
Defpoints
 62
     0
440
 16777216
100
AcDbPoint
 10
12.500331
 20
7.86697
 30
0.0
  0
ENDBLK
  5
23B
330
239
100
AcDbEntity
  8
0
100
AcDbBlockEnd
  0
BLOCK
  5
247
330
246
100
AcDbEntity
  8
0
100
AcDbBlockBegin
  2
*D18
 70
     1
 10
0.0
 20
0.0
 30
0.0
  3
*D18
  1

  0
LINE
  5
469
330
246
100
AcDbEntity
  8
Dimensions
440
 16777216
370
    -2
100
AcDbLine
 10
8.224409
 20
3.506844
 30
0.0
 11
8.224409
 21
2.778022
 31
0.0
  0
LINE
  5
46A
330
246
100
AcDbEntity
  8
Dimensions
440
 16777216
370
    -2
100
AcDbLine
 10
8.775591
 20
3.506844
 30
0.0
 11
8.775591
 21
2.778022
 31
0.0
  0
LINE
  5
46B
330
246
100
AcDbEntity
  8
Dimensions
440
 16777216
370
    -2
100
AcDbLine
 10
8.104409
 20
2.878022
 30
0.0
 11
7.984409
 21
2.878022
 31
0.0
  0
LINE
  5
46C
330
246
100
AcDbEntity
  8
Dimensions
440
 16777216
370
    -2
100
AcDbLine
 10
8.895591
 20
2.878022
 30
0.0
 11
9.015591
 21
2.878022
 31
0.0
  0
SOLID
  5
46D
330
246
100
AcDbEntity
  8
Dimensions
440
 16777216
100
AcDbTrace
 10
8.104409
 20
2.898022
 30
0.0
 11
8.104409
 21
2.858022
 31
0.0
 12
8.224409
 22
2.878022
 32
0.0
 13
8.224409
 23
2.878022
 33
0.0
  0
SOLID
  5
46E
330
246
100
AcDbEntity
  8
Dimensions
440
 16777216
100
AcDbTrace
 10
8.895591
 20
2.898022
 30
0.0
 11
8.895591
 21
2.858022
 31
0.0
 12
8.775591
 22
2.878022
 32
0.0
 13
8.775591
 23
2.878022
 33
0.0
  0
MTEXT
  5
46F
330
246
100
AcDbEntity
  8
Dimensions
440
 16777216
100
AcDbMText
 10
8.5
 20
2.878022
 30
0.0
 40
0.12
 41
0.0
 46
0.0
 71
     5
 72
     1
  1
\A1;.55in
 73
     1
 44
1.0
  0
POINT
  5
470
330
246
100
AcDbEntity
  8
Defpoints
 62
     0
440
 16777216
100
AcDbPoint
 10
8.224409
 20
3.556844
 30
0.0
  0
POINT
  5
471
330
246
100
AcDbEntity
  8
Defpoints
 62
     0
440
 16777216
100
AcDbPoint
 10
8.775591
 20
3.556844
 30
0.0
  0
POINT
  5
472
330
246
100
AcDbEntity
  8
Defpoints
 62
     0
440
 16777216
100
AcDbPoint
 10
8.775591
 20
2.878022
 30
0.0
  0
ENDBLK
  5
248
330
246
100
AcDbEntity
  8
0
100
AcDbBlockEnd
  0
BLOCK
  5
254
330
253
100
AcDbEntity
  8
0
100
AcDbBlockBegin
  2
*D19
 70
     1
 10
0.0
 20
0.0
 30
0.0
  3
*D19
  1

  0
LINE
  5
473
330
253
100
AcDbEntity
  8
Dimensions
440
 16777216
370
    -2
100
AcDbLine
 10
15.197181
 20
6.159015
 30
0.0
 11
15.197181
 21
6.887837
 31
0.0
  0
LINE
  5
474
330
253
100
AcDbEntity
  8
Dimensions
440
 16777216
370
    -2
100
AcDbLine
 10
15.000331
 20
6.119645
 30
0.0
 11
15.000331
 21
6.887837
 31
0.0
  0
LINE
  5
475
330
253
100
AcDbEntity
  8
Dimensions
440
 16777216
370
    -2
100
AcDbLine
 10
15.317181
 20
6.787837
 30
0.0
 11
15.437181
 21
6.787837
 31
0.0
  0
LINE
  5
476
330
253
100
AcDbEntity
  8
Dimensions
440
 16777216
370
    -2
100
AcDbLine
 10
14.880331
 20
6.787837
 30
0.0
 11
14.760331
 21
6.787837
 31
0.0
  0
SOLID
  5
477
330
253
100
AcDbEntity
  8
Dimensions
440
 16777216
100
AcDbTrace
 10
15.317181
 20
6.807837
 30
0.0
 11
15.317181
 21
6.767837
 31
0.0
 12
15.197181
 22
6.787837
 32
0.0
 13
15.197181
 23
6.787837
 33
0.0
  0
SOLID
  5
478
330
253
100
AcDbEntity
  8
Dimensions
440
 16777216
100
AcDbTrace
 10
14.880331
 20
6.807837
 30
0.0
 11
14.880331
 21
6.767837
 31
0.0
 12
15.000331
 22
6.787837
 32
0.0
 13
15.000331
 23
6.787837
 33
0.0
  0
MTEXT
  5
479
330
253
100
AcDbEntity
  8
Dimensions
440
 16777216
100
AcDbMText
 10
14.578571
 20
6.787837
 30
0.0
 40
0.12
 41
0.0
 46
0.0
 71
     5
 72
     1
  1
\A1;.2in
 73
     1
 44
1.0
  0
POINT
  5
47A
330
253
100
AcDbEntity
  8
Defpoints
 62
     0
440
 16777216
100
AcDbPoint
 10
15.197181
 20
6.109015
 30
0.0
  0
POINT
  5
47B
330
253
100
AcDbEntity
  8
Defpoints
 62
     0
440
 16777216
100
AcDbPoint
 10
15.000331
 20
6.069645
 30
0.0
  0
POINT
  5
47C
330
253
100
AcDbEntity
  8
Defpoints
 62
     0
440
 16777216
100
AcDbPoint
 10
15.000331
 20
6.787837
 30
0.0
  0
ENDBLK
  5
255
330
253
100
AcDbEntity
  8
0
100
AcDbBlockEnd
  0
BLOCK
  5
261
330
260
100
AcDbEntity
  8
0
100
AcDbBlockBegin
  2
*D20
 70
     1
 10
0.0
 20
0.0
 30
0.0
  3
*D20
  1

  0
LINE
  5
47D
330
260
100
AcDbEntity
  8
Dimensions
440
 16777216
370
    -2
100
AcDbLine
 10
15.197181
 20
6.159015
 30
0.0
 11
15.197181
 21
8.835857
 31
0.0
  0
LINE
  5
47E
330
260
100
AcDbEntity
  8
Dimensions
440
 16777216
370
    -2
100
AcDbLine
 10
12.047575
 20
6.804274
 30
0.0
 11
12.047575
 21
8.835857
 31
0.0
  0
LINE
  5
47F
330
260
100
AcDbEntity
  8
Dimensions
440
 16777216
370
    -2
100
AcDbLine
 10
15.077181
 20
8.735857
 30
0.0
 11
13.901464
 21
8.735857
 31
0.0
  0
LINE
  5
480
330
260
100
AcDbEntity
  8
Dimensions
440
 16777216
370
    -2
100
AcDbLine
 10
12.167575
 20
8.735857
 30
0.0
 11
13.343292
 21
8.735857
 31
0.0
  0
SOLID
  5
481
330
260
100
AcDbEntity
  8
Dimensions
440
 16777216
100
AcDbTrace
 10
15.077181
 20
8.755857
 30
0.0
 11
15.077181
 21
8.715857
 31
0.0
 12
15.197181
 22
8.735857
 32
0.0
 13
15.197181
 23
8.735857
 33
0.0
  0
SOLID
  5
482
330
260
100
AcDbEntity
  8
Dimensions
440
 16777216
100
AcDbTrace
 10
12.167575
 20
8.755857
 30
0.0
 11
12.167575
 21
8.715857
 31
0.0
 12
12.047575
 22
8.735857
 32
0.0
 13
12.047575
 23
8.735857
 33
0.0
  0
MTEXT
  5
483
330
260
100
AcDbEntity
  8
Dimensions
440
 16777216
100
AcDbMText
 10
13.622378
 20
8.735857
 30
0.0
 40
0.12
 41
0.0
 46
0.0
 71
     5
 72
     1
  1
\A1;3.15in
 73
     1
 44
1.0
  0
POINT
  5
484
330
260
100
AcDbEntity
  8
Defpoints
 62
     0
440
 16777216
100
AcDbPoint
 10
15.197181
 20
6.109015
 30
0.0
  0
POINT
  5
485
330
260
100
AcDbEntity
  8
Defpoints
 62
     0
440
 16777216
100
AcDbPoint
 10
12.047575
 20
6.754274
 30
0.0
  0
POINT
  5
486
330
260
100
AcDbEntity
  8
Defpoints
 62
     0
440
 16777216
100
AcDbPoint
 10
12.047575
 20
8.735857
 30
0.0
  0
ENDBLK
  5
262
330
260
100
AcDbEntity
  8
0
100
AcDbBlockEnd
  0
BLOCK
  5
26E
330
26D
100
AcDbEntity
  8
0
100
AcDbBlockBegin
  2
*D21
 70
     1
 10
0.0
 20
0.0
 30
0.0
  3
*D21
  1

  0
LINE
  5
487
330
26D
100
AcDbEntity
  8
Dimensions
440
 16777216
370
    -2
100
AcDbLine
 10
11.575134
 20
5.074763
 30
0.0
 11
11.575134
 21
3.022277
 31
0.0
  0
LINE
  5
488
330
26D
100
AcDbEntity
  8
Dimensions
440
 16777216
370
    -2
100
AcDbLine
 10
15.197181
 20
4.090511
 30
0.0
 11
15.197181
 21
3.022277
 31
0.0
  0
LINE
  5
489
330
26D
100
AcDbEntity
  8
Dimensions
440
 16777216
370
    -2
100
AcDbLine
 10
11.695134
 20
3.122277
 30
0.0
 11
13.107071
 21
3.122277
 31
0.0
  0
LINE
  5
48A
330
26D
100
AcDbEntity
  8
Dimensions
440
 16777216
370
    -2
100
AcDbLine
 10
15.077181
 20
3.122277
 30
0.0
 11
13.665243
 21
3.122277
 31
0.0
  0
SOLID
  5
48B
330
26D
100
AcDbEntity
  8
Dimensions
440
 16777216
100
AcDbTrace
 10
11.695134
 20
3.142277
 30
0.0
 11
11.695134
 21
3.102277
 31
0.0
 12
11.575134
 22
3.122277
 32
0.0
 13
11.575134
 23
3.122277
 33
0.0
  0
SOLID
  5
48C
330
26D
100
AcDbEntity
  8
Dimensions
440
 16777216
100
AcDbTrace
 10
15.077181
 20
3.142277
 30
0.0
 11
15.077181
 21
3.102277
 31
0.0
 12
15.197181
 22
3.122277
 32
0.0
 13
15.197181
 23
3.122277
 33
0.0
  0
MTEXT
  5
48D
330
26D
100
AcDbEntity
  8
Dimensions
440
 16777216
100
AcDbMText
 10
13.386157
 20
3.122277
 30
0.0
 40
0.12
 41
0.0
 46
0.0
 71
     5
 72
     1
  1
\A1;3.62in
 73
     1
 44
1.0
  0
POINT
  5
48E
330
26D
100
AcDbEntity
  8
Defpoints
 62
     0
440
 16777216
100
AcDbPoint
 10
11.575134
 20
5.124763
 30
0.0
  0
POINT
  5
48F
330
26D
100
AcDbEntity
  8
Defpoints
 62
     0
440
 16777216
100
AcDbPoint
 10
15.197181
 20
4.140511
 30
0.0
  0
POINT
  5
490
330
26D
100
AcDbEntity
  8
Defpoints
 62
     0
440
 16777216
100
AcDbPoint
 10
15.197181
 20
3.122277
 30
0.0
  0
ENDBLK
  5
26F
330
26D
100
AcDbEntity
  8
0
100
AcDbBlockEnd
  0
ENDSEC
  0
SECTION
  2
ENTITIES
  0
INSERT
  5
16C
330
70
100
AcDbEntity
  8
Titleblock
100
AcDbBlockReference
 66
     1
  2
Shower
 10
16.38
 20
0.38
 30
0.0
  0
ATTRIB
  5
18C
330
16C
100
AcDbEntity
  8
Titleblock
  6
Continuous
370
    25
100
AcDbText
 10
12.6925
 20
2.6925
 30
0.0
 40
0.12
  1
Railing Products and Mock Ups
100
AcDbAttribute
280
     0
  2
PROJECT
 70
     0
280
     1
1001
FD_ATT_APPNAME
1005
17A
  0
ATTRIB
  5
18D
330
16C
100
AcDbEntity
  8
Titleblock
  6
Continuous
370
    25
100
AcDbText
 10
14.6925
 20
1.0675
 30
0.0
 40
0.12
  1
2/10/2020
100
AcDbAttribute
280
     0
  2
DRAWN_DATE
 70
     0
280
     1
1001
FD_ATT_APPNAME
1005
17C
  0
ATTRIB
  5
18E
330
16C
100
AcDbEntity
  8
Titleblock
  6
Continuous
370
    25
100
AcDbText
 10
12.0675
 20
2.1925
 30
0.0
 40
0.3048
  1
R13-0145-000-12
100
AcDbAttribute
280
     0
  2
TITLE_1
 70
     0
280
     1
1001
FD_ATT_APPNAME
1005
17D
  0
ATTRIB
  5
18F
330
16C
100
AcDbEntity
  8
Titleblock
  6
Continuous
370
    25
100
AcDbText
 10
14.6925
 20
1.29994
 30
0.0
 40
0.12
  1
1:1
100
AcDbAttribute
280
     0
  2
SCALE
 70
     0
280
     1
1001
FD_ATT_APPNAME
1005
17E
  0
SEQEND
  5
190
330
16C
100
AcDbEntity
  8
Titleblock
  0
INSERT
  5
191
330
70
100
AcDbEntity
  8
Border
100
AcDbBlockReference
  2
ANSI_B_SHEET
 10
0.0
 20
0.0
 30
0.0
  0
DIMENSION
  5
1B2
330
70
100
AcDbEntity
  8
Dimensions
100
AcDbDimension
280
     0
  2
*D14
 10
7.663291
 20
4.606429
 30
0.0
 11
10.057508
 21
5.801929
 31
0.0
 70
   163
 71
     5
 42
1.968504
 73
     0
 74
     0
 75
     0
  3
Standard
100
AcDbDiametricDimension
 15
9.336709
 25
5.643097
 35
0.0
 40
0.0
1001
ACAD_DIMASSOC_CALC_DIMLFAC
1040
-1.0
1001
ACAD_DIMASSOC_DIMLFAC
1040
-1.0
1001
ACAD_DIMASSOC_OVERRIDDEN_DIMLFAC
1040
0.0
1001
ACAD_DSTYLE_DIMRADIAL_EXTENSION
1070
   387
1070
     1
1070
   388
1040
0.0
1070
   390
1040
0.0
1001
ACAD
1000
DSTYLE
1002
{
1070
   144
1040
1.0
1070
   176
1070
   256
1070
   177
1070
   256
1002
}
  0
DIMENSION
  5
1BD
330
70
100
AcDbEntity
  8
Dimensions
100
AcDbDimension
280
     0
  2
*D15
 10
8.011509
 20
5.065063
 30
0.0
 11
9.716245
 21
5.273404
 31
0.0
 70
   163
 71
     5
 42
0.984252
 73
     0
 74
     0
 75
     0
  3
Standard
100
AcDbDiametricDimension
 15
8.988491
 25
5.184463
 35
0.0
 40
0.0
1001
ACAD_DIMASSOC_CALC_DIMLFAC
1040
-1.0
1001
ACAD_DIMASSOC_DIMLFAC
1040
-1.0
1001
ACAD_DIMASSOC_OVERRIDDEN_DIMLFAC
1040
0.0
1001
ACAD_DSTYLE_DIMRADIAL_EXTENSION
1070
   387
1070
     1
1070
   388
1040
0.0
1070
   390
1040
0.0
1001
ACAD
1000
DSTYLE
1002
{
1070
   144
1040
1.0
1070
   176
1070
   256
1070
   177
1070
   256
1002
}
  0
DIMENSION
  5
1C6
330
70
100
AcDbEntity
  8
Dimensions
100
AcDbDimension
280
     0
  2
*D16
 10
7.220472
 20
7.86697
 30
0.0
 11
8.5
 21
7.86697
 31
0.0
 70
    33
 71
     5
 42
2.559055
 73
     0
 74
     0
 75
     0
  3
Standard
100
AcDbAlignedDimension
 13
9.779528
 23
7.527559
 33
0.0
 14
7.220472
 24
7.527559
 34
0.0
1001
ACAD_DIMASSOC_CALC_DIMLFAC
1040
-1.0
1001
ACAD_DIMASSOC_DIMLFAC
1040
-1.0
1001
ACAD_DIMASSOC_OVERRIDDEN_DIMLFAC
1040
0.0
1001
ACAD
1000
DSTYLE
1002
{
1070
   144
1040
1.0
1070
   176
1070
   256
1070
   177
1070
   256
1002
}
  0
DIMENSION
  5
1D4
330
70
100
AcDbEntity
  8
Dimensions
100
AcDbDimension
280
     0
  2
*D17
 10
12.500331
 20
7.86697
 30
0.0
 11
12.047575
 21
7.86697
 31
0.0
 70
    33
 71
     5
 42
0.905512
 73
     0
 74
     0
 75
     0
  3
Standard
100
AcDbAlignedDimension
 13
11.594819
 23
7.527559
 33
0.0
 14
12.500331
 24
7.527559
 34
0.0
1001
ACAD_DIMASSOC_CALC_DIMLFAC
1040
-1.0
1001
ACAD_DIMASSOC_DIMLFAC
1040
-1.0
1001
ACAD_DIMASSOC_OVERRIDDEN_DIMLFAC
1040
0.0
1001
ACAD
1000
DSTYLE
1002
{
1070
   144
1040
1.0
1070
   176
1070
   256
1070
   177
1070
   256
1002
}
  0
DIMENSION
  5
1E2
330
70
100
AcDbEntity
  8
Dimensions
100
AcDbDimension
280
     0
  2
*D18
 10
8.775591
 20
2.878022
 30
0.0
 11
8.5
 21
2.878022
 31
0.0
 70
    33
 71
     5
 42
0.551181
 73
     0
 74
     0
 75
     0
  3
Standard
100
AcDbAlignedDimension
 13
8.224409
 23
3.556844
 33
0.0
 14
8.775591
 24
3.556844
 34
0.0
1001
ACAD_DIMASSOC_CALC_DIMLFAC
1040
-1.0
1001
ACAD_DIMASSOC_DIMLFAC
1040
-1.0
1001
ACAD_DIMASSOC_OVERRIDDEN_DIMLFAC
1040
0.0
1001
ACAD
1000
DSTYLE
1002
{
1070
   144
1040
1.0
1070
   176
1070
   256
1070
   177
1070
   256
1002
}
  0
DIMENSION
  5
1F0
330
70
100
AcDbEntity
  8
Dimensions
100
AcDbDimension
280
     0
  2
*D19
 10
15.000331
 20
6.787837
 30
0.0
 11
14.578571
 21
6.787837
 31
0.0
 70
    32
 71
     5
 42
0.19685
 73
     0
 74
     0
 75
     0
  3
Standard
100
AcDbAlignedDimension
 13
15.197181
 23
6.109015
 33
0.0
 14
15.000331
 24
6.069645
 34
0.0
100
AcDbRotatedDimension
1001
ACAD_DIMASSOC_CALC_DIMLFAC
1040
-1.0
1001
ACAD_DIMASSOC_DIMLFAC
1040
-1.0
1001
ACAD_DIMASSOC_OVERRIDDEN_DIMLFAC
1040
0.0
1001
ACAD
1000
DSTYLE
1002
{
1070
   144
1040
1.0
1070
   176
1070
   256
1070
   177
1070
   256
1002
}
  0
DIMENSION
  5
1FE
330
70
100
AcDbEntity
  8
Dimensions
100
AcDbDimension
280
     0
  2
*D20
 10
12.047575
 20
8.735857
 30
0.0
 11
13.622378
 21
8.735857
 31
0.0
 70
    32
 71
     5
 42
3.149606
 73
     0
 74
     0
 75
     0
  3
Standard
100
AcDbAlignedDimension
 13
15.197181
 23
6.109015
 33
0.0
 14
12.047575
 24
6.754274
 34
0.0
100
AcDbRotatedDimension
1001
ACAD_DIMASSOC_CALC_DIMLFAC
1040
-1.0
1001
ACAD_DIMASSOC_DIMLFAC
1040
-1.0
1001
ACAD_DIMASSOC_OVERRIDDEN_DIMLFAC
1040
0.0
1001
ACAD
1000
DSTYLE
1002
{
1070
   177
1070
   256
1070
   176
1070
   256
1070
   144
1040
1.0
1002
}
  0
DIMENSION
  5
20C
330
70
100
AcDbEntity
  8
Dimensions
100
AcDbDimension
280
     0
  2
*D21
 10
15.197181
 20
3.122277
 30
0.0
 11
13.386157
 21
3.122277
 31
0.0
 70
    32
 71
     5
 42
3.622047
 73
     0
 74
     0
 75
     0
  3
Standard
100
AcDbAlignedDimension
 13
11.575134
 23
5.124763
 33
0.0
 14
15.197181
 24
4.140511
 34
0.0
100
AcDbRotatedDimension
1001
ACAD_DIMASSOC_CALC_DIMLFAC
1040
-1.0
1001
ACAD_DIMASSOC_DIMLFAC
1040
-1.0
1001
ACAD_DIMASSOC_OVERRIDDEN_DIMLFAC
1040
0.0
1001
ACAD
1000
DSTYLE
1002
{
1070
   177
1070
   256
1070
   176
1070
   256
1070
   144
1040
1.0
1002
}
  0
ARC
  5
350
330
70
100
AcDbEntity
  8
Visible
100
AcDbCircle
 10
-8.5
 20
5.124763
 30
1.614173
 40
0.9448818897637798
210
-0.0000000000000002
220
-0.0000000000000003
230
-1.0
100
AcDbArc
 50
286.957763
 51
73.042237
  0
ARC
  5
351
330
70
100
AcDbEntity
  8
Visible
100
AcDbCircle
 10
-8.5
 20
5.124763
 30
1.614173
 40
0.9448818897637796
210
-0.0000000000000002
220
-0.0000000000000003
230
-1.0
100
AcDbArc
 50
106.957763
 51
253.042237
  0
ARC
  5
352
330
70
100
AcDbEntity
  8
Visible
100
AcDbCircle
 10
8.5
 20
5.124763
 30
-1.653543
 40
0.9842519685039368
100
AcDbArc
 50
106.260205
 51
253.739795
  0
ARC
  5
353
330
70
100
AcDbEntity
  8
Visible
100
AcDbCircle
 10
8.5
 20
5.124763
 30
-1.653543
 40
0.9842519685039368
100
AcDbArc
 50
286.260205
 51
73.739795
  0
CIRCLE
  5
354
330
70
100
AcDbEntity
  8
Visible
100
AcDbCircle
 10
8.5
 20
5.124763
 30
1.732154
 40
0.4921259842519686
  0
SPLINE
  5
355
330
70
100
AcDbEntity
  8
Visible
100
AcDbSpline
 70
     0
 71
     3
 72
    12
 73
     8
 74
     0
 42
0.000000001
 43
0.0000000001
 40
0.8371786631866797
 40
0.8371786631866797
 40
0.8371786631866797
 40
0.8371786631866797
 40
1.04424888402179
 40
1.04424888402179
 40
1.2513191048569
 40
1.2513191048569
 40
1.356939781858413
 40
1.356939781858413
 40
1.356939781858413
 40
1.356939781858413
 10
8.499999999998181
 20
6.73031496062992
 30
1.614173228344952
 10
8.472825430335433
 20
6.73031496062992
 30
1.614173228344952
 10
8.444586144543791
 20
6.735988129718512
 30
1.609842295603812
 10
8.393909794400315
 20
6.757496042698814
 30
1.594311716917218
 10
8.371419012595652
 20
6.773280940061297
 30
1.583218589134048
 10
8.344882561486883
 20
6.799817391170542
 30
1.56661889147108
 10
8.336515392060391
 20
6.809901835577194
 30
1.56058971481616
 10
8.329060407999349
 20
6.820874402733899
 30
1.55469457599429
1001
ACAD_VIEW_EDGE_ID
1071
        4
1071
       -1
1071
        4
1071
        0
  0
SPLINE
  5
356
330
70
100
AcDbEntity
  8
Visible
100
AcDbSpline
 70
     0
 71
     3
 72
    12
 73
     8
 74
     0
 42
0.000000001
 43
0.0000000001
 40
1.991774870888305
 40
1.991774870888305
 40
1.991774870888305
 40
1.991774870888305
 40
2.097395547889818
 40
2.097395547889818
 40
2.304465768724929
 40
2.304465768724929
 40
2.511535989560039
 40
2.511535989560039
 40
2.511535989560039
 40
2.511535989560039
 10
8.329060407999349
 20
7.053141345297595
 30
1.55469457599429
 10
8.336515392060391
 20
7.064113912454299
 30
1.56058971481616
 10
8.344882561486883
 20
7.074198356860953
 30
1.56661889147108
 10
8.371419012595652
 20
7.100734807970197
 30
1.583218589134048
 10
8.393909794400315
 20
7.116519705332679
 30
1.594311716917218
 10
8.444586144543791
 20
7.138027618312982
 30
1.609842295603812
 10
8.472825430335433
 20
7.143700787401574
 30
1.614173228344952
 10
8.499999999998181
 20
7.143700787401574
 30
1.614173228344952
1001
ACAD_VIEW_EDGE_ID
1071
        4
1071
       -1
1071
        4
1071
        0
  0
SPLINE
  5
357
330
70
100
AcDbEntity
  8
Visible
100
AcDbSpline
 70
     0
 71
     3
 72
    12
 73
     8
 74
     0
 42
0.000000001
 43
0.0000000001
 40
2.511535989560039
 40
2.511535989560039
 40
2.511535989560039
 40
2.511535989560039
 40
2.718606210395149
 40
2.718606210395149
 40
2.925676431230259
 40
2.925676431230259
 40
3.031297108231771
 40
3.031297108231771
 40
3.031297108231771
 40
3.031297108231771
 10
8.499999999998181
 20
7.143700787401574
 30
1.614173228344952
 10
8.527174569660928
 20
7.143700787401574
 30
1.614173228344952
 10
8.55541385545257
 20
7.138027618312982
 30
1.609842295603812
 10
8.606090205596046
 20
7.116519705332679
 30
1.594311716917218
 10
8.62858098740071
 20
7.100734807970197
 30
1.583218589134048
 10
8.655117438509478
 20
7.074198356860952
 30
1.56661889147108
 10
8.66348460793597
 20
7.064113912454299
 30
1.56058971481616
 10
8.670939591997012
 20
7.053141345297596
 30
1.55469457599429
1001
ACAD_VIEW_EDGE_ID
1071
        5
1071
       -1
1071
        4
1071
        0
  0
SPLINE
  5
358
330
70
100
AcDbEntity
  8
Visible
100
AcDbSpline
 70
     0
 71
     3
 72
    12
 73
     8
 74
     0
 42
0.000000001
 43
0.0000000001
 40
3.666132197261664
 40
3.666132197261664
 40
3.666132197261664
 40
3.666132197261664
 40
3.771752874263178
 40
3.771752874263178
 40
3.978823095098288
 40
3.978823095098288
 40
4.185893315933398
 40
4.185893315933398
 40
4.185893315933398
 40
4.185893315933398
 10
8.670939591997012
 20
6.820874402733899
 30
1.55469457599429
 10
8.66348460793597
 20
6.809901835577194
 30
1.56058971481616
 10
8.655117438509478
 20
6.799817391170542
 30
1.56661889147108
 10
8.62858098740071
 20
6.773280940061297
 30
1.583218589134048
 10
8.606090205596046
 20
6.757496042698814
 30
1.594311716917218
 10
8.55541385545257
 20
6.735988129718512
 30
1.609842295603812
 10
8.527174569660928
 20
6.73031496062992
 30
1.614173228344952
 10
8.499999999998181
 20
6.73031496062992
 30
1.614173228344952
1001
ACAD_VIEW_EDGE_ID
1071
        5
1071
       -1
1071
        4
1071
        0
  0
ARC
  5
359
330
70
100
AcDbEntity
  8
Visible
100
AcDbCircle
 10
-8.5
 20
1.338583
 30
3.556844
 40
0.2755905511811029
210
0.0
220
1.0
230
0.0
100
AcDbArc
 50
0.0
 51
180.0
  0
LINE
  5
35A
330
70
100
AcDbEntity
  8
Visible
100
AcDbLine
 10
8.764103
 20
6.743457
 30
1.417323
 11
8.764103
 21
7.108618
 31
1.417323
210
0.0
220
1.0
230
0.0
  0
SPLINE
  5
35B
330
70
100
AcDbEntity
  8
Visible
100
AcDbSpline
 70
     0
 71
     3
 72
    14
 73
    10
 74
     0
 42
0.000000001
 43
0.0000000001
 40
2.53604769841391
 40
2.53604769841391
 40
2.53604769841391
 40
2.53604769841391
 40
2.622459047187773
 40
2.622459047187773
 40
2.921503126107184
 40
2.921503126107184
 40
3.203312789254864
 40
3.203312789254864
 40
3.485122452402544
 40
3.485122452402544
 40
3.485122452402544
 40
3.485122452402544
 10
8.764102517028732
 20
7.108618068638934
 30
1.41732283463898
 10
8.761115853689261
 20
7.113214446535437
 30
1.427340408019517
 10
8.757585249742987
 20
7.118381990354217
 30
1.437104694188747
 10
8.739532675814189
 20
7.142875650740172
 30
1.479476500608143
 10
8.719116189513442
 20
7.165351149791671
 30
1.509210382791934
 10
8.672024942270581
 20
7.202438404549319
 30
1.556301630032976
 10
8.642479200309026
 20
7.220190458844239
 30
1.577325606303929
 10
8.57499747069778
 20
7.245014506924146
 30
1.606302486206914
 10
8.536982895424443
 20
7.251968503937007
 30
1.614173228344952
 10
8.499999999998181
 20
7.251968503937007
 30
1.614173228344952
1001
ACAD_VIEW_EDGE_ID
1071
       13
1071
       -1
1071
        4
1071
        0
  0
SPLINE
  5
35C
330
70
100
AcDbEntity
  8
Visible
100
AcDbSpline
 70
     0
 71
     3
 72
    14
 73
    10
 74
     0
 42
0.000000001
 43
0.0000000001
 40
-1.161707484134181
 40
-1.161707484134181
 40
-1.161707484134181
 40
-1.161707484134181
 40
-0.8798978209865015
 40
-0.8798978209865015
 40
-0.5980881578388218
 40
-0.5980881578388218
 40
-0.2990440789194109
 40
-0.2990440789194109
 40
-0.2126327301455481
 40
-0.2126327301455481
 40
-0.2126327301455481
 40
-0.2126327301455481
 10
8.499999999998181
 20
7.251968503937007
 30
1.614173228344952
 10
8.463017104571918
 20
7.251968503937007
 30
1.614173228344952
 10
8.425002529298581
 20
7.245014506924146
 30
1.606302486206914
 10
8.357520799687335
 20
7.220190458844239
 30
1.577325606303929
 10
8.32797505772578
 20
7.202438404549319
 30
1.556301630032976
 10
8.280883810482919
 20
7.165351149791671
 30
1.509210382791934
 10
8.260467324182172
 20
7.142875650740172
 30
1.479476500608143
 10
8.242414750253374
 20
7.118381990354217
 30
1.437104694188747
 10
8.2388841463071
 20
7.113214446535437
 30
1.427340408019517
 10
8.235897482967629
 20
7.108618068638934
 30
1.41732283463898
1001
ACAD_VIEW_EDGE_ID
1071
       14
1071
       -1
1071
        4
1071
        0
  0
LINE
  5
35D
330
70
100
AcDbEntity
  8
Visible
100
AcDbLine
 10
8.235897
 20
7.108618
 30
1.417323
 11
8.235897
 21
6.743457
 31
1.417323
210
0.0
220
1.0
230
0.0
  0
SPLINE
  5
35E
330
70
100
AcDbEntity
  8
Visible
100
AcDbSpline
 70
     0
 71
     3
 72
     8
 73
     4
 74
     0
 42
0.000000001
 43
0.0000000001
 40
2.008562787254438
 40
2.008562787254438
 40
2.008562787254438
 40
2.008562787254438
 40
2.209857864444705
 40
2.209857864444705
 40
2.209857864444705
 40
2.209857864444705
 10
8.235897482971267
 20
6.743456752476571
 30
1.417322834644437
 10
8.228302526393235
 20
6.750326649185456
 30
1.391848575854965
 10
8.224409448817823
 20
6.75427447131721
 30
1.364999353960229
 10
8.224409448817823
 20
6.75427447131721
 30
1.338582677164595
1001
ACAD_VIEW_EDGE_ID
1071
       16
1071
       -1
1071
        4
1071
        0
  0
SPLINE
  5
35F
330
70
100
AcDbEntity
  8
Visible
100
AcDbSpline
 70
     0
 71
     3
 72
     8
 73
     4
 74
     0
 42
0.000000001
 43
0.0000000001
 40
0.0
 40
0.0
 40
0.0
 40
0.0
 40
0.2012950771902999
 40
0.2012950771902999
 40
0.2012950771902999
 40
0.2012950771902999
 10
8.775590551178538
 20
6.754274471317209
 30
1.338582677164595
 10
8.775590551178538
 20
6.754274471317209
 30
1.364999353960229
 10
8.771697473603126
 20
6.750326649185433
 30
1.391848575854965
 10
8.764102517025094
 20
6.743456752476548
 30
1.417322834644437
1001
ACAD_VIEW_EDGE_ID
1071
       21
1071
       -1
1071
        4
1071
        0
  0
LINE
  5
360
330
70
100
AcDbEntity
  8
Visible
100
AcDbLine
 10
8.224409
 20
3.556844
 30
1.338583
 11
8.224409
 21
4.71704
 31
1.338583
210
0.0
220
1.0
230
0.0
  0
LINE
  5
361
330
70
100
AcDbEntity
  8
Visible
100
AcDbLine
 10
8.224409
 20
5.532486
 30
1.338583
 11
8.224409
 21
6.754274
 31
1.338583
210
0.0
220
1.0
230
0.0
  0
LINE
  5
362
330
70
100
AcDbEntity
  8
Visible
100
AcDbLine
 10
8.775591
 20
3.556844
 30
1.338583
 11
8.775591
 21
4.71704
 31
1.338583
210
0.0
220
1.0
230
0.0
  0
LINE
  5
363
330
70
100
AcDbEntity
  8
Visible
100
AcDbLine
 10
8.775591
 20
5.532486
 30
1.338583
 11
8.775591
 21
6.754274
 31
1.338583
210
0.0
220
1.0
230
0.0
  0
ARC
  5
364
330
70
100
AcDbEntity
  8
Visible
100
AcDbCircle
 10
-8.5
 20
3.964567
 30
-1.338583
 40
0.4921259842519689
210
0.0000000000000001
220
0.0
230
-1.0
100
AcDbArc
 50
235.944202
 51
304.055798
  0
LINE
  5
365
330
70
100
AcDbEntity
  8
Visible
100
AcDbLine
 10
8.235897
 20
6.937008
 30
1.417323
 11
8.235897
 21
7.142526
 31
1.417323
210
0.0
220
1.0
230
0.0
  0
SPLINE
  5
366
330
70
100
AcDbEntity
  8
Visible
100
AcDbSpline
 70
     0
 71
     3
 72
    14
 73
    10
 74
     0
 42
0.000000001
 43
0.0000000001
 40
2.484784797578684
 40
2.484784797578684
 40
2.484784797578684
 40
2.484784797578684
 40
2.567628743438977
 40
2.567628743438977
 40
2.857760605478155
 40
2.857760605478155
 40
3.137002963788927
 40
3.137002963788927
 40
3.4162453220997
 40
3.4162453220997
 40
3.4162453220997
 40
3.4162453220997
 10
8.235897482971267
 20
7.14252571867934
 30
1.417322834644437
 10
8.238876019562667
 20
7.146353313369114
 30
1.427313150083136
 10
8.242400757140785
 20
7.150709755023811
 30
1.437064375335467
 10
8.260545191902565
 20
7.171777795261917
 30
1.479685318206975
 10
8.281110070212889
 20
7.191856394489487
 30
1.509436642521905
 10
8.328244568992886
 20
7.225618945041164
 30
1.556571141301901
 10
8.357987004512324
 20
7.24211906483805
 30
1.577601497996511
 10
8.425503340138675
 20
7.265201084760532
 30
1.606440741525148
 10
8.463354021218037
 20
7.271653543307085
 30
1.614173228344952
 10
8.499999999998181
 20
7.271653543307085
 30
1.614173228344952
1001
ACAD_VIEW_EDGE_ID
1071
        4
1071
       -1
1071
        5
1071
        0
  0
SPLINE
  5
367
330
70
100
AcDbEntity
  8
Visible
100
AcDbSpline
 70
     0
 71
     3
 72
    14
 73
    10
 74
     0
 42
0.000000001
 43
0.0000000001
 40
3.4162453220997
 40
3.4162453220997
 40
3.4162453220997
 40
3.4162453220997
 40
3.695487680410473
 40
3.695487680410473
 40
3.974730038721245
 40
3.974730038721245
 40
4.264861900760423
 40
4.264861900760423
 40
4.347705846620716
 40
4.347705846620716
 40
4.347705846620716
 40
4.347705846620716
 10
8.499999999998181
 20
7.271653543307085
 30
1.614173228344952
 10
8.536645978778324
 20
7.271653543307085
 30
1.614173228344952
 10
8.574496659857686
 20
7.265201084760532
 30
1.606440741525148
 10
8.642012995484037
 20
7.24211906483805
 30
1.577601497996511
 10
8.671755431003475
 20
7.225618945041164
 30
1.556571141301901
 10
8.718889929783472
 20
7.191856394489487
 30
1.509436642521905
 10
8.739454808093796
 20
7.171777795261917
 30
1.479685318206975
 10
8.757599242855576
 20
7.150709755023811
 30
1.437064375335467
 10
8.761123980433694
 20
7.146353313369114
 30
1.427313150083136
 10
8.764102517025094
 20
7.14252571867934
 30
1.417322834644437
1001
ACAD_VIEW_EDGE_ID
1071
        5
1071
       -1
1071
        5
1071
        0
  0
LINE
  5
368
330
70
100
AcDbEntity
  8
Visible
100
AcDbLine
 10
8.764103
 20
7.142526
 30
1.417323
 11
8.764103
 21
6.937008
 31
1.417323
210
0.0
220
1.0
230
0.0
  0
ARC
  5
369
330
70
100
AcDbEntity
  8
Visible
100
AcDbCircle
 10
-9.326772
 20
1.338583
 30
7.330709
 40
0.3740157480314959
210
0.0
220
1.0
230
0.0
100
AcDbArc
 50
90.0
 51
180.0
  0
LINE
  5
36A
330
70
100
AcDbEntity
  8
Visible
100
AcDbLine
 10
7.673228
 20
7.330709
 30
1.712598
 11
9.326772
 21
7.330709
 31
1.712598
210
0.0
220
1.0
230
0.0
  0
ARC
  5
36B
330
70
100
AcDbEntity
  8
Visible
100
AcDbCircle
 10
-7.673228
 20
1.338583
 30
7.330709
 40
0.3740157480314959
210
0.0
220
1.0
230
0.0
100
AcDbArc
 50
0.0
 51
90.0
  0
LINE
  5
36C
330
70
100
AcDbEntity
  8
Visible
100
AcDbLine
 10
7.673228
 20
7.527559
 30
1.791339
 11
9.326772
 21
7.527559
 31
1.791339
210
0.0
220
1.0
230
0.0
  0
ARC
  5
36D
330
70
100
AcDbEntity
  8
Visible
100
AcDbCircle
 10
-9.326772
 20
1.338583
 30
7.527559
 40
0.4527559055118113
210
0.0
220
1.0
230
0.0
100
AcDbArc
 50
90.0
 51
180.0
  0
ARC
  5
36E
330
70
100
AcDbEntity
  8
Visible
100
AcDbCircle
 10
-7.673228
 20
1.338583
 30
7.527559
 40
0.4527559055118113
210
0.0
220
1.0
230
0.0
100
AcDbArc
 50
0.0
 51
90.0
  0
ARC
  5
36F
330
70
100
AcDbEntity
  8
Visible
100
AcDbCircle
 10
-8.814961
 20
7.291339
 30
-1.338583
 40
0.0393700787401575
210
0.0000000000000001
220
0.0
230
-1.0
100
AcDbArc
 50
0.0
 51
90.0
  0
ARC
  5
370
330
70
100
AcDbEntity
  8
Visible
100
AcDbCircle
 10
-8.185039
 20
7.291339
 30
-1.338583
 40
0.0393700787401575
210
0.0000000000000001
220
0.0
230
-1.0
100
AcDbArc
 50
90.0
 51
180.0
  0
LINE
  5
371
330
70
100
AcDbEntity
  8
Visible
100
AcDbLine
 10
8.775591
 20
7.291339
 30
1.338583
 11
8.775591
 21
6.937008
 31
1.338583
210
0.0
220
1.0
230
0.0
  0
LINE
  5
372
330
70
100
AcDbEntity
  8
Visible
100
AcDbLine
 10
8.224409
 20
7.291339
 30
1.338583
 11
8.224409
 21
6.937008
 31
1.338583
210
0.0
220
1.0
230
0.0
  0
ARC
  5
373
330
70
100
AcDbEntity
  8
Visible
100
AcDbCircle
 10
-8.5
 20
6.937008
 30
-1.338583
 40
0.2755905511811024
210
0.0000000000000001
220
0.0
230
-1.0
100
AcDbArc
 50
180.0
 51
196.60155
  0
ARC
  5
374
330
70
100
AcDbEntity
  8
Visible
100
AcDbCircle
 10
-8.5
 20
6.937008
 30
-1.338583
 40
0.2755905511811024
210
0.0000000000000001
220
0.0
230
-1.0
100
AcDbArc
 50
343.39845
 51
0.0
  0
ARC
  5
375
330
70
100
AcDbEntity
  8
Visible
100
AcDbCircle
 10
-9.700787
 20
7.409449
 30
-1.338583
 40
0.078740157480315
210
0.0000000000000001
220
0.0
230
-1.0
100
AcDbArc
 50
180.0
 51
270.0
  0
ARC
  5
376
330
70
100
AcDbEntity
  8
Visible
100
AcDbCircle
 10
-7.299213
 20
7.409449
 30
-1.338583
 40
0.078740157480315
210
0.0000000000000001
220
0.0
230
-1.0
100
AcDbArc
 50
270.0
 51
0.0
  0
LINE
  5
377
330
70
100
AcDbEntity
  8
Visible
100
AcDbLine
 10
9.779528
 20
7.527559
 30
1.338583
 11
9.779528
 21
7.409449
 31
1.338583
210
0.0
220
1.0
230
0.0
  0
LINE
  5
378
330
70
100
AcDbEntity
  8
Visible
100
AcDbLine
 10
7.220472
 20
7.527559
 30
1.338583
 11
7.220472
 21
7.409449
 31
1.338583
210
0.0
220
1.0
230
0.0
  0
ARC
  5
379
330
70
100
AcDbEntity
  8
Visible
100
AcDbCircle
 10
8.5
 20
6.937008
 30
1.554724
 40
0.2066929133858262
100
AcDbArc
 50
145.812149
 51
214.187851
  0
ARC
  5
37A
330
70
100
AcDbEntity
  8
Visible
100
AcDbCircle
 10
8.5
 20
6.937008
 30
1.554724
 40
0.2066929133858261
100
AcDbArc
 50
325.812149
 51
34.187851
  0
LINE
  5
37B
330
70
100
AcDbEntity
  8
Visible
100
AcDbLine
 10
8.414615
 20
6.968251
 30
1.655512
 11
8.484365
 21
7.026575
 31
1.655512
210
0.0
220
1.0
230
0.0
  0
LINE
  5
37C
330
70
100
AcDbEntity
  8
Visible
100
AcDbLine
 10
8.484365
 20
7.026575
 30
1.655512
 11
8.56975
 21
6.995332
 31
1.655512
210
0.0
220
1.0
230
0.0
  0
LINE
  5
37D
330
70
100
AcDbEntity
  8
Visible
100
AcDbLine
 10
8.56975
 20
6.995332
 30
1.655512
 11
8.585385
 21
6.905765
 31
1.655512
210
0.0
220
1.0
230
0.0
  0
LINE
  5
37E
330
70
100
AcDbEntity
  8
Visible
100
AcDbLine
 10
8.585385
 20
6.905765
 30
1.655512
 11
8.515635
 21
6.847441
 31
1.655512
210
0.0
220
1.0
230
0.0
  0
LINE
  5
37F
330
70
100
AcDbEntity
  8
Visible
100
AcDbLine
 10
8.515635
 20
6.847441
 30
1.655512
 11
8.43025
 21
6.878684
 31
1.655512
210
0.0
220
1.0
230
0.0
  0
LINE
  5
380
330
70
100
AcDbEntity
  8
Visible
100
AcDbLine
 10
8.43025
 20
6.878684
 30
1.655512
 11
8.414615
 21
6.968251
 31
1.655512
210
0.0
220
1.0
230
0.0
  0
ARC
  5
381
330
70
100
AcDbEntity
  8
Visible
100
AcDbCircle
 10
5.124763
 20
0.0
 30
15.000331
 40
0.9448818897637796
210
1.0
220
0.0
230
-0.0000000000002972
100
AcDbArc
 50
0.0
 51
180.0
  0
ARC
  5
382
330
70
100
AcDbEntity
  8
Visible
100
AcDbCircle
 10
-5.124763
 20
0.0
 30
-15.039701
 40
0.9842519685039372
210
-1.0
220
-0.0000000000000004
230
0.0000000000002972
100
AcDbArc
 50
0.0
 51
180.0
  0
ARC
  5
383
330
70
100
AcDbEntity
  8
Visible
100
AcDbCircle
 10
5.124763
 20
0.0
 30
15.197181
 40
0.9842519685039368
210
1.0
220
0.0
230
-0.0000000000002972
100
AcDbArc
 50
0.0
 51
180.0
  0
LINE
  5
384
330
70
100
AcDbEntity
  8
Visible
100
AcDbLine
 10
15.000331
 20
6.069645
 30
0.0
 11
15.039701
 21
6.109015
 31
0.0
210
0.0
220
1.0
230
0.0
  0
LINE
  5
385
330
70
100
AcDbEntity
  8
Visible
100
AcDbLine
 10
15.000331
 20
4.179881
 30
0.0
 11
15.039701
 21
4.140511
 31
0.0
210
0.0
220
1.0
230
0.0
  0
LINE
  5
386
330
70
100
AcDbEntity
  8
Visible
100
AcDbLine
 10
15.197181
 20
4.140511
 30
0.0
 11
15.039701
 21
4.140511
 31
0.0
210
0.0
220
1.0
230
0.0
  0
LINE
  5
387
330
70
100
AcDbEntity
  8
Visible
100
AcDbLine
 10
15.197181
 20
6.109015
 30
0.0
 11
15.039701
 21
6.109015
 31
0.0
210
0.0
220
1.0
230
0.0
  0
SPLINE
  5
388
330
70
100
AcDbEntity
  8
Visible
100
AcDbSpline
 70
     0
 71
     3
 72
    23
 73
    19
 74
     0
 42
0.000000001
 43
0.0000000001
 40
3.24869532119072
 40
3.24869532119072
 40
3.24869532119072
 40
3.24869532119072
 40
3.518792781857074
 40
3.518792781857074
 40
3.788890242523428
 40
3.788890242523428
 40
4.060242002055527
 40
4.060242002055527
 40
4.331593761587627
 40
4.331593761587627
 40
4.331593761587627
 40
4.602945521119726
 40
4.602945521119726
 40
4.874297280651826
 40
4.874297280651826
 40
5.14439474131818
 40
5.14439474131818
 40
5.414492201984534
 40
5.414492201984534
 40
5.414492201984534
 40
5.414492201984534
 10
11.77198417296495
 20
4.632636903856835
 30
0.000000000001819
 10
11.77198417296495
 20
4.632636903856835
 30
0.0354458609817812
 10
11.77923208258653
 20
4.636807489801578
 30
0.0727307919860323
 10
11.80762391425378
 20
4.651826220316699
 30
0.1404319974790269
 10
11.82872855041569
 20
4.662525288239724
 30
0.1708977214148035
 10
11.87678833604514
 20
4.68325005060515
 30
0.2189575070424325
 10
11.90722031160112
 20
4.694798048757276
 30
0.2399827445606206
 10
11.97475807555565
 20
4.711879442649179
 30
0.2683072379295481
 10
12.01196425701528
 20
4.717040148399985
 30
0.2755905511821766
 10
12.0475747241453
 20
4.717040148399985
 30
0.2755905511821766
 10
12.08318519127715
 20
4.717040148399985
 30
0.2755905511821766
 10
12.12039137273677
 20
4.71187944264918
 30
0.2683072379295481
 10
12.18792913669131
 20
4.694798048757277
 30
0.2399827445606206
 10
12.21836111224729
 20
4.683250050605151
 30
0.2189575070424325
 10
12.26642089787674
 20
4.662525288239725
 30
0.1708977214148035
 10
12.28752553403865
 20
4.6518262203167
 30
0.1404319974790269
 10
12.3159173657059
 20
4.636807489801579
 30
0.0727307919860323
 10
12.32316527532748
 20
4.632636903856836
 30
0.0354458609817812
 10
12.32316527532748
 20
4.632636903856836
 30
0.000000000001819
1001
ACAD_VIEW_EDGE_ID
1071
        1
1071
       -1
1071
        3
1071
        0
  0
SPLINE
  5
389
330
70
100
AcDbEntity
  8
Visible
100
AcDbSpline
 70
     0
 71
     3
 72
    14
 73
    10
 74
     0
 42
0.000000001
 43
0.0000000001
 40
0.0
 40
0.0
 40
0.0
 40
0.0
 40
0.2713517595320995
 40
0.2713517595320995
 40
0.5427035190641991
 40
0.5427035190641991
 40
0.812800979730553
 40
0.812800979730553
 40
1.082898440388991
 40
1.082898440388991
 40
1.082898440396907
 40
1.082898440396907
 10
12.0475747241453
 20
5.532485627817623
 30
0.2755905511821766
 10
12.01196425701528
 20
5.532485627817623
 30
0.2755905511821766
 10
11.97475807555565
 20
5.537646333568428
 30
0.2683072379295481
 10
11.90722031160112
 20
5.55472772746033
 30
0.2399827445606206
 10
11.87678833604514
 20
5.566275725612457
 30
0.2189575070424325
 10
11.82872855041569
 20
5.587000487977883
 30
0.1708977214148035
 10
11.80762391425378
 20
5.597699555900907
 30
0.1404319974790269
 10
11.77923208258653
 20
5.612718286415809
 30
0.0727307919878513
 10
11.77198417296495
 20
5.616888872360528
 30
0.0354458609836002
 10
11.77198417296495
 20
5.616888872360772
 30
0.000000000003638
1001
ACAD_VIEW_EDGE_ID
1071
        2
1071
       -1
1071
        3
1071
        0
  0
SPLINE
  5
38A
330
70
100
AcDbEntity
  8
Visible
100
AcDbSpline
 70
     0
 71
     3
 72
    14
 73
    10
 74
     0
 42
0.000000001
 43
0.0000000001
 40
3.248695321190721
 40
3.248695321190721
 40
3.248695321196104
 40
3.248695321196104
 40
3.518792781857075
 40
3.518792781857075
 40
3.788890242523429
 40
3.788890242523429
 40
4.060242002055528
 40
4.060242002055528
 40
4.331593761587628
 40
4.331593761587628
 40
4.331593761587628
 40
4.331593761587628
 10
12.32316527532748
 20
5.616888872360773
 30
0.000000000003638
 10
12.32316527532748
 20
5.616888872360606
 30
0.0354458609836002
 10
12.3159173657059
 20
5.612718286415879
 30
0.0727307919860323
 10
12.28752553403865
 20
5.597699555900908
 30
0.1404319974790269
 10
12.26642089787674
 20
5.587000487977883
 30
0.1708977214148035
 10
12.21836111224729
 20
5.566275725612457
 30
0.2189575070424325
 10
12.18792913669131
 20
5.55472772746033
 30
0.2399827445606206
 10
12.12039137273677
 20
5.537646333568428
 30
0.2683072379295481
 10
12.08318519127715
 20
5.532485627817623
 30
0.2755905511821766
 10
12.0475747241453
 20
5.532485627817623
 30
0.2755905511821766
1001
ACAD_VIEW_EDGE_ID
1071
        2
1071
       -1
1071
        3
1071
        0
  0
ARC
  5
38B
330
70
100
AcDbEntity
  8
Visible
100
AcDbCircle
 10
-5.124763
 20
0.0
 30
-11.654003
 40
0.4921259842519686
210
-1.0
220
-0.0000000000000014
230
0.0000000000002997
100
AcDbArc
 50
0.0
 51
180.0
  0
ARC
  5
38C
330
70
100
AcDbEntity
  8
Visible
100
AcDbCircle
 10
-13.149937
 20
5.124763
 30
0.0
 40
1.574803149606299
210
-0.0000000000002969
220
0.0
230
-1.0
100
AcDbArc
 50
341.790043
 51
18.209957
  0
LINE
  5
38D
330
70
100
AcDbEntity
  8
Visible
100
AcDbLine
 10
15.000331
 20
4.632637
 30
0.0
 11
12.323165
 21
4.632637
 31
0.0
210
0.0
220
1.0
230
0.0
  0
LINE
  5
38E
330
70
100
AcDbEntity
  8
Visible
100
AcDbLine
 10
11.771984
 20
4.632637
 30
0.0
 11
11.654003
 21
4.632637
 31
0.0
210
0.0
220
1.0
230
0.0
  0
LINE
  5
38F
330
70
100
AcDbEntity
  8
Visible
100
AcDbLine
 10
15.000331
 20
5.616889
 30
0.0
 11
12.323165
 21
5.616889
 31
0.0
210
0.0
220
1.0
230
0.0
  0
LINE
  5
390
330
70
100
AcDbEntity
  8
Visible
100
AcDbLine
 10
11.771984
 20
5.616889
 30
0.0
 11
11.654003
 21
5.616889
 31
0.0
210
0.0
220
1.0
230
0.0
  0
SPLINE
  5
391
330
70
100
AcDbEntity
  8
Visible
100
AcDbSpline
 70
     0
 71
     3
 72
    14
 73
    10
 74
     0
 42
0.000000001
 43
0.0000000001
 40
0.0
 40
0.0
 40
0.0
 40
0.0
 40
0.0935045380133793
 40
0.0935045380133793
 40
0.1870090760267587
 40
0.1870090760267587
 40
0.2804594942216247
 40
0.2804594942216247
 40
0.3739099124146343
 40
0.3739099124146343
 40
0.3739099124164908
 40
0.3739099124164908
 10
12.30560880847588
 20
6.937007848202712
 30
0.0967913385848078
 10
12.30560880847588
 20
6.949278784949875
 30
0.0967913385848078
 10
12.30657626421271
 20
6.962287667677989
 30
0.0943174551921402
 10
12.30997265301812
 20
6.986099068158384
 30
0.0844091555682098
 10
12.31234252796093
 20
6.996911958419424
 30
0.0769795135292952
 10
12.31671901826121
 20
7.013982420163673
 30
0.0599090517844161
 10
12.31902337929932
 20
7.021415852930767
 30
0.0490942170399649
 10
12.32226684768466
 20
7.031326997109191
 30
0.025275517749833
 10
12.32316527532748
 20
7.033799186785291
 30
0.0122638344109873
 10
12.32316527532748
 20
7.033799186785389
 30
0.000000000001819
1001
ACAD_VIEW_EDGE_ID
1071
        2
1071
       -1
1071
        4
1071
        0
  0
SPLINE
  5
392
330
70
100
AcDbEntity
  8
Visible
100
AcDbSpline
 70
     0
 71
     3
 72
    14
 73
    10
 74
     0
 42
0.000000001
 43
0.0000000001
 40
1.12172973724684
 40
1.12172973724684
 40
1.121729737249472
 40
1.121729737249472
 40
1.215180155444338
 40
1.215180155444338
 40
1.308630573639204
 40
1.308630573639204
 40
1.402135111652583
 40
1.402135111652583
 40
1.495639649665963
 40
1.495639649665963
 40
1.495639649665963
 40
1.495639649665963
 10
12.32316527532748
 20
6.840216509620034
 30
0.000000000001819
 10
12.32316527532748
 20
6.840216509620034
 30
0.0122638344109873
 10
12.32226684768466
 20
6.842688699296134
 30
0.025275517749833
 10
12.31902337929932
 20
6.852599843474658
 30
0.0490942170399649
 10
12.31671901826121
 20
6.860033276241751
 30
0.0599090517844161
 10
12.31234252796093
 20
6.877103737985999
 30
0.0769795135292952
 10
12.30997265301812
 20
6.887916628247038
 30
0.0844091555682098
 10
12.30657626421271
 20
6.911728028727435
 30
0.0943174551921402
 10
12.30560880847588
 20
6.92473691145555
 30
0.0967913385848078
 10
12.30560880847588
 20
6.937007848202712
 30
0.0967913385848078
1001
ACAD_VIEW_EDGE_ID
1071
        2
1071
       -1
1071
        4
1071
        0
  0
SPLINE
  5
393
330
70
100
AcDbEntity
  8
Visible
100
AcDbSpline
 70
     0
 71
     3
 72
    27
 73
    23
 74
     0
 42
0.000000001
 43
0.0000000001
 40
2.511535989560039
 40
2.511535989560039
 40
2.511535989560039
 40
2.511535989560039
 40
2.718606210395149
 40
2.718606210395149
 40
2.925676431230259
 40
2.925676431230259
 40
3.137195541988489
 40
3.137195541988489
 40
3.242955097367604
 40
3.242955097367604
 40
3.348714652746719
 40
3.348714652746719
 40
3.348714652746719
 40
3.454474208125834
 40
3.454474208125834
 40
3.560233763504948
 40
3.560233763504948
 40
3.771752874263178
 40
3.771752874263178
 40
3.978823095098288
 40
3.978823095098288
 40
4.185893315933398
 40
4.185893315933398
 40
4.185893315933398
 40
4.185893315933398
 10
11.77198417296495
 20
7.143700761588539
 30
0.000000000001819
 10
11.77198417296495
 20
7.143700761588539
 30
0.0271745696645667
 10
11.77631510570609
 20
7.138027592499947
 30
0.0554138554562087
 10
11.79184568439268
 20
7.116519679519644
 30
0.1060902055996848
 10
11.80293881217585
 20
7.100734782157162
 30
0.128580987404348
 10
11.82516029798535
 20
7.065211281442786
 30
0.1641044881180278
 10
11.83808210715688
 20
7.042765088477718
 30
0.1796635052196507
 10
11.85330386856549
 20
7.005157462930148
 30
0.1956092699601868
 10
11.85764910466605
 20
6.991949346176909
 30
0.1997376037415961
 10
11.86365478358675
 20
6.964817404215425
 30
0.2052810437835433
 10
11.86528870861912
 20
6.950887054945378
 30
0.2066929133870872
 10
11.86528870861912
 20
6.937007848202712
 30
0.2066929133870872
 10
11.86528870861912
 20
6.923128641460046
 30
0.2066929133870872
 10
11.86365478358675
 20
6.909198292189998
 30
0.2052810437835433
 10
11.85764910466605
 20
6.882066350228516
 30
0.1997376037415961
 10
11.85330386856549
 20
6.868858233475277
 30
0.1956092699601868
 10
11.83808210715688
 20
6.831250607927706
 30
0.1796635052196507
 10
11.82516029798535
 20
6.808804414962637
 30
0.1641044881180278
 10
11.80293881217585
 20
6.773280914248262
 30
0.128580987404348
 10
11.79184568439268
 20
6.757496016885779
 30
0.1060902055996848
 10
11.77631510570609
 20
6.735988103905476
 30
0.0554138554562087
 10
11.77198417296495
 20
6.730314934816885
 30
0.0271745696645667
 10
11.77198417296495
 20
6.730314934816885
 30
0.000000000001819
1001
ACAD_VIEW_EDGE_ID
1071
        5
1071
       -1
1071
        4
1071
        0
  0
LINE
  5
394
330
70
100
AcDbEntity
  8
Visible
100
AcDbLine
 10
12.126315
 20
7.108618
 30
0.264103
 11
12.126315
 21
6.743457
 31
0.264103
210
0.0
220
1.0
230
0.0
  0
ARC
  5
395
330
70
100
AcDbEntity
  8
Visible
100
AcDbCircle
 10
-12.047575
 20
0.0
 30
3.556844
 40
0.2755905511811029
210
0.0
220
1.0
230
0.0
100
AcDbArc
 50
0.0
 51
180.0
  0
LINE
  5
396
330
70
100
AcDbEntity
  8
Visible
100
AcDbLine
 10
11.968835
 20
6.743457
 30
0.264103
 11
11.968835
 21
7.108618
 31
0.264103
210
0.0
220
1.0
230
0.0
  0
SPLINE
  5
397
330
70
100
AcDbEntity
  8
Visible
100
AcDbSpline
 70
     0
 71
     3
 72
    14
 73
    10
 74
     0
 42
0.000000001
 43
0.0000000001
 40
2.53604769841391
 40
2.53604769841391
 40
2.53604769841391
 40
2.53604769841391
 40
2.622459047187773
 40
2.622459047187773
 40
2.921503126107184
 40
2.921503126107184
 40
3.203312789254864
 40
3.203312789254864
 40
3.485122452402544
 40
3.485122452402544
 40
3.485122452402544
 40
3.485122452402544
 10
11.96883456667092
 20
7.108618042825899
 30
0.2641025170323701
 10
11.95881699329038
 20
7.113214420722401
 30
0.2611158536928997
 10
11.94905270712115
 20
7.118381964541182
 30
0.2575852497466258
 10
11.90668090070176
 20
7.142875624927137
 30
0.2395326758178271
 10
11.87694701851796
 20
7.165351123978636
 30
0.2191161895170808
 10
11.82985577127692
 20
7.202438378736284
 30
0.1720249422742199
 10
11.80883179500597
 20
7.220190433031204
 30
0.142479200312664
 10
11.77985491510298
 20
7.245014481111111
 30
0.0749974707014189
 10
11.77198417296495
 20
7.251968478123972
 30
0.036982895428082
 10
11.77198417296495
 20
7.251968478123972
 30
0.000000000001819
1001
ACAD_VIEW_EDGE_ID
1071
       13
1071
       -1
1071
        4
1071
        0
  0
SPLINE
  5
398
330
70
100
AcDbEntity
  8
Visible
100
AcDbSpline
 70
     0
 71
     3
 72
    14
 73
    10
 74
     0
 42
0.000000001
 43
0.0000000001
 40
1.161707484134181
 40
1.161707484134181
 40
1.161707484134181
 40
1.161707484134181
 40
1.443517147281861
 40
1.443517147281861
 40
1.725326810429541
 40
1.725326810429541
 40
2.024370889348952
 40
2.024370889348952
 40
2.1107822380953
 40
2.1107822380953
 40
2.1107822380953
 40
2.1107822380953
 10
12.32316527532748
 20
7.251968478123972
 30
0.000000000001819
 10
12.32316527532748
 20
7.251968478123972
 30
0.036982895428082
 10
12.31529453318762
 20
7.245014481111111
 30
0.0749974707014189
 10
12.28631765328646
 20
7.220190433031204
 30
0.142479200312664
 10
12.2652936770155
 20
7.202438378736284
 30
0.1720249422742199
 10
12.21820242977446
 20
7.165351123978636
 30
0.2191161895170808
 10
12.18846854759067
 20
7.142875624927137
 30
0.2395326758178271
 10
12.14609674117491
 20
7.118381964542932
 30
0.2575852497448068
 10
12.13633245500205
 20
7.113214420725702
 30
0.2611158536910807
 10
12.12631488162697
 20
7.108618042830297
 30
0.2641025170287321
1001
ACAD_VIEW_EDGE_ID
1071
       19
1071
       -1
1071
        4
1071
        0
  0
SPLINE
  5
399
330
70
100
AcDbEntity
  8
Visible
100
AcDbSpline
 70
     0
 71
     3
 72
     8
 73
     4
 74
     0
 42
0.000000001
 43
0.0000000001
 40
-0.201295068634291
 40
-0.201295068634291
 40
-0.201295068634291
 40
-0.201295068634291
 40
0.0
 40
0.0
 40
0.0
 40
0.0
 10
12.12631488162697
 20
6.743456726663513
 30
0.2641025170287321
 10
12.10084062462192
 20
6.750326622891209
 30
0.2716974730738002
 10
12.07399139982044
 20
6.754274445504174
 30
0.2755905511821766
 10
12.0475747241453
 20
6.754274445504174
 30
0.2755905511821766
1001
ACAD_VIEW_EDGE_ID
1071
       20
1071
       -1
1071
        4
1071
        0
  0
SPLINE
  5
39A
330
70
100
AcDbEntity
  8
Visible
100
AcDbSpline
 70
     0
 71
     3
 72
     8
 73
     4
 74
     0
 42
0.000000001
 43
0.0000000001
 40
0.0
 40
0.0
 40
0.0
 40
0.0
 40
0.2012950771902999
 40
0.2012950771902999
 40
0.2012950771902999
 40
0.2012950771902999
 10
12.0475747241453
 20
6.754274445504174
 30
0.2755905511821766
 10
12.02115804734967
 20
6.754274445504174
 30
0.2755905511821766
 10
11.99430882545494
 20
6.750326623372398
 30
0.2716974736067641
 10
11.96883456666546
 20
6.743456726663513
 30
0.2641025170287321
1001
ACAD_VIEW_EDGE_ID
1071
       21
1071
       -1
1071
        4
1071
        0
  0
LINE
  5
39B
330
70
100
AcDbEntity
  8
Visible
100
AcDbLine
 10
11.771984
 20
3.556844
 30
0.0
 11
11.771984
 21
4.632637
 31
0.0
210
0.0
220
1.0
230
0.0
  0
LINE
  5
39C
330
70
100
AcDbEntity
  8
Visible
100
AcDbLine
 10
11.771984
 20
5.616889
 30
0.0
 11
11.771984
 21
6.730315
 31
0.0
210
0.0
220
1.0
230
0.0
  0
LINE
  5
39D
330
70
100
AcDbEntity
  8
Visible
100
AcDbLine
 10
11.771984
 20
7.143701
 30
0.0
 11
11.771984
 21
7.251968
 31
0.0
210
0.0
220
1.0
230
0.0
  0
LINE
  5
39E
330
70
100
AcDbEntity
  8
Visible
100
AcDbLine
 10
12.323165
 20
3.556844
 30
0.0
 11
12.323165
 21
4.632637
 31
0.0
210
0.0
220
1.0
230
0.0
  0
LINE
  5
39F
330
70
100
AcDbEntity
  8
Visible
100
AcDbLine
 10
12.323165
 20
5.616889
 30
0.0
 11
12.323165
 21
6.840217
 31
0.0
210
0.0
220
1.0
230
0.0
  0
LINE
  5
3A0
330
70
100
AcDbEntity
  8
Visible
100
AcDbLine
 10
12.323165
 20
7.033799
 30
0.0
 11
12.323165
 21
7.251968
 31
0.0
210
0.0
220
1.0
230
0.0
  0
LINE
  5
3A1
330
70
100
AcDbEntity
  8
Visible
100
AcDbLine
 10
12.323165
 20
7.251968
 30
0.0
 11
12.298896
 21
7.251968
 31
0.0
210
0.0
220
1.0
230
0.0
  0
LINE
  5
3A2
330
70
100
AcDbEntity
  8
Visible
100
AcDbLine
 10
11.796253
 20
7.251968
 30
0.0
 11
11.771984
 21
7.251968
 31
0.0
210
0.0
220
1.0
230
0.0
  0
ARC
  5
3A3
330
70
100
AcDbEntity
  8
Visible
100
AcDbCircle
 10
-12.047575
 20
3.964567
 30
0.0
 40
0.4921259842519688
210
-0.0000000000002969
220
0.0
230
-1.0
100
AcDbArc
 50
235.944202
 51
304.055798
  0
SPLINE
  5
3A4
330
70
100
AcDbEntity
  8
Visible
100
AcDbSpline
 70
     0
 71
     3
 72
    14
 73
    10
 74
     0
 42
0.000000001
 43
0.0000000001
 40
3.4162453220997
 40
3.4162453220997
 40
3.4162453220997
 40
3.4162453220997
 40
3.695487680410473
 40
3.695487680410473
 40
3.974730038721245
 40
3.974730038721245
 40
4.264861900760423
 40
4.264861900760423
 40
4.347705846620716
 40
4.347705846620716
 40
4.347705846620716
 40
4.347705846620716
 10
11.77198417296495
 20
7.271653517494049
 30
0.000000000001819
 10
11.77198417296495
 20
7.271653517494049
 30
0.0366459787819622
 10
11.77971665978475
 20
7.265201058947496
 30
0.0744966598613246
 10
11.80855590331339
 20
7.242119039025014
 30
0.1420129954876756
 10
11.829586260008
 20
7.225618919228129
 30
0.1717554310071137
 10
11.87672075878799
 20
7.191856368676452
 30
0.2188899297871103
 10
11.90647208310292
 20
7.171777769448882
 30
0.2394548080974346
 10
11.94909302597443
 20
7.150709729210776
 30
0.2575992428592144
 10
11.95884425122676
 20
7.146353287556078
 30
0.2611239804373326
 10
11.96883456666546
 20
7.142525692866305
 30
0.2641025170287321
1001
ACAD_VIEW_EDGE_ID
1071
        5
1071
       -1
1071
        5
1071
        0
  0
LINE
  5
3A5
330
70
100
AcDbEntity
  8
Visible
100
AcDbLine
 10
11.968835
 20
7.142526
 30
0.264103
 11
11.968835
 21
6.937008
 31
0.264103
210
0.0
220
1.0
230
0.0
  0
LINE
  5
3A6
330
70
100
AcDbEntity
  8
Visible
100
AcDbLine
 10
12.126315
 20
6.937008
 30
0.264103
 11
12.126315
 21
7.142526
 31
0.264103
210
0.0
220
1.0
230
0.0
  0
SPLINE
  5
3A7
330
70
100
AcDbEntity
  8
Visible
100
AcDbSpline
 70
     0
 71
     3
 72
    14
 73
    10
 74
     0
 42
0.000000001
 43
0.0000000001
 40
0.2072879161788844
 40
0.2072879161788844
 40
0.2072879161788844
 40
0.2072879161788844
 40
0.2901318620391773
 40
0.2901318620391773
 40
0.5802637240783546
 40
0.5802637240783546
 40
0.8595060823891273
 40
0.8595060823891273
 40
1.1387484406999
 40
1.1387484406999
 40
1.1387484406999
 40
1.1387484406999
 10
12.12631488162697
 20
7.142525692866305
 30
0.2641025170287321
 10
12.13630519706385
 20
7.146353287556078
 30
0.2611239804373326
 10
12.14605642231618
 20
7.150709729210776
 30
0.2575992428592144
 10
12.1886773651895
 20
7.171777769448882
 30
0.2394548080974346
 10
12.21842868950261
 20
7.191856368676452
 30
0.2188899297871103
 10
12.26556318828261
 20
7.225618919228129
 30
0.1717554310071137
 10
12.28659354497904
 20
7.242119039025014
 30
0.1420129954876756
 10
12.31543278850768
 20
7.265201058947496
 30
0.0744966598613246
 10
12.32316527532748
 20
7.271653517494049
 30
0.0366459787819622
 10
12.32316527532748
 20
7.271653517494049
 30
0.000000000001819
1001
ACAD_VIEW_EDGE_ID
1071
        9
1071
       -1
1071
        5
1071
        0
  0
ARC
  5
3A8
330
70
100
AcDbEntity
  8
Visible
100
AcDbCircle
 10
-12.047575
 20
0.826772
 30
7.330709
 40
0.3740157480314963
210
0.0
220
1.0
230
0.0
100
AcDbArc
 50
0.0
 51
180.0
  0
ARC
  5
3A9
330
70
100
AcDbEntity
  8
Visible
100
AcDbCircle
 10
11.673559
 20
7.409449
 30
0.826772
 40
0.0787401574803149
100
AcDbArc
 50
180.0
 51
270.0
  0
ARC
  5
3AA
330
70
100
AcDbEntity
  8
Visible
100
AcDbCircle
 10
12.42159
 20
7.409449
 30
0.826772
 40
0.0787401574803147
100
AcDbArc
 50
270.0
 51
0.0
  0
LINE
  5
3AB
330
70
100
AcDbEntity
  8
Visible
100
AcDbLine
 10
11.594819
 20
7.527559
 30
0.826772
 11
11.594819
 21
7.409449
 31
0.826772
210
0.0
220
1.0
230
0.0
  0
LINE
  5
3AC
330
70
100
AcDbEntity
  8
Visible
100
AcDbLine
 10
12.500331
 20
7.527559
 30
0.826772
 11
12.500331
 21
7.409449
 31
0.826772
210
0.0
220
1.0
230
0.0
  0
ARC
  5
3AD
330
70
100
AcDbEntity
  8
Visible
100
AcDbCircle
 10
-12.047575
 20
0.826772
 30
7.527559
 40
0.4527559055118111
210
0.0
220
1.0
230
0.0
100
AcDbArc
 50
0.0
 51
180.0
  0
ARC
  5
3AE
330
70
100
AcDbEntity
  8
Visible
100
AcDbCircle
 10
-12.362535
 20
7.291339
 30
0.0
 40
0.0393700787401575
210
-0.0000000000002969
220
0.0
230
-1.0
100
AcDbArc
 50
0.0
 51
90.0
  0
ARC
  5
3AF
330
70
100
AcDbEntity
  8
Visible
100
AcDbCircle
 10
-11.732614
 20
7.291339
 30
0.0
 40
0.0393700787401575
210
-0.0000000000002969
220
0.0
230
-1.0
100
AcDbArc
 50
90.0
 51
180.0
  0
LINE
  5
3B0
330
70
100
AcDbEntity
  8
Visible
100
AcDbLine
 10
12.323165
 20
7.291339
 30
0.0
 11
12.323165
 21
7.271654
 31
0.0
210
0.0
220
1.0
230
0.0
  0
LINE
  5
3B1
330
70
100
AcDbEntity
  8
Visible
100
AcDbLine
 10
11.771984
 20
7.291339
 30
0.0
 11
11.771984
 21
7.271654
 31
0.0
210
0.0
220
1.0
230
0.0
  0
ARC
  5
3B2
330
70
100
AcDbEntity
  8
Visible
100
AcDbCircle
 10
6.937008
 20
0.0
 30
11.860567
 40
0.2066929133858245
210
1.0
220
0.0
230
-0.0000000000002969
100
AcDbArc
 50
78.344277
 51
101.655723
  0
ARC
  5
3B3
330
70
100
AcDbEntity
  8
Visible
100
AcDbCircle
 10
6.937008
 20
0.0
 30
11.730646
 40
0.1059055118110237
210
1.0
220
0.0
230
-0.0000000000002969
100
AcDbArc
 50
0.0
 51
180.0
  0
ARC
  5
3B4
330
70
100
AcDbEntity
  8
Visible
100
AcDbCircle
 10
-11.831433
 20
6.831102
 30
0.0
 40
0.1007874015748032
210
-0.0000000000002969
220
0.0
230
-1.0
100
AcDbArc
 50
299.573698
 51
360.0
  0
ARC
  5
3B5
330
70
100
AcDbEntity
  8
Visible
100
AcDbCircle
 10
-11.831433
 20
7.042913
 30
0.0
 40
0.1007874015748032
210
-0.0000000000002969
220
0.0
230
-1.0
100
AcDbArc
 50
0.0
 51
60.426302
  0
ARC
  5
3B6
330
70
100
AcDbEntity
  8
Visible
100
AcDbCircle
 10
-6.725777
 20
-0.574816
 30
1.176617
 40
0.9448818897637794
210
-0.7071067811864427
220
0.4071957137923944
230
-0.5780931159158108
100
AcDbArc
 50
301.388166
 51
238.611834
  0
ARC
  5
3B7
330
70
100
AcDbEntity
  8
Visible
100
AcDbCircle
 10
6.725777
 20
-0.574816
 30
-1.215987
 40
0.9842519685039372
210
0.7071067811864426
220
-0.4071957137923946
230
0.5780931159158107
100
AcDbArc
 50
314.889207
 51
225.110793
  0
ARC
  5
3B8
330
70
100
AcDbEntity
  8
Visible
100
AcDbCircle
 10
-6.725777
 20
-0.574816
 30
1.373468
 40
0.9842519685039368
210
-0.7071067811864427
220
0.4071957137923944
230
-0.5780931159158106
100
AcDbArc
 50
360.0
 51
180.0
  0
LINE
  5
3B9
330
70
100
AcDbEntity
  8
Visible
100
AcDbLine
 10
2.814932
 20
5.370742
 30
-1.695457
 11
2.787201
 21
5.354648
 31
-1.740976
210
-0.0000000000000001
220
0.8175471248425399
230
0.5758617009853119
  0
LINE
  5
3BA
330
70
100
AcDbEntity
  8
Visible
100
AcDbLine
 10
3.480481
 20
6.526485
 30
-1.695457
 11
3.480481
 21
6.558548
 31
-1.740976
210
-0.0000000000000001
220
0.8175471248425399
230
0.5758617009853119
  0
LINE
  5
3BB
330
70
100
AcDbEntity
  8
Visible
100
AcDbLine
 10
3.164328
 20
7.074827
 30
-1.263025
 11
3.275683
 21
7.010701
 31
-1.171987
210
-0.0000000000000001
220
0.8175471248425399
230
0.5758617009853119
  0
LINE
  5
3BC
330
70
100
AcDbEntity
  8
Visible
100
AcDbLine
 10
2.181981
 20
5.368954
 30
-1.263025
 11
2.293336
 21
5.304828
 31
-1.171987
210
-0.0000000000000001
220
0.8175471248425399
230
0.5758617009853119
  0
SPLINE
  5
3BD
330
70
100
AcDbEntity
  8
Visible
100
AcDbSpline
 70
     0
 71
     3
 72
    22
 73
    18
 74
     0
 42
0.000000001
 43
0.0000000001
 40
0.5427035190640904
 40
0.5427035190640904
 40
0.5427035190641991
 40
0.5427035190641991
 40
0.812800979730553
 40
0.812800979730553
 40
1.082898440396907
 40
1.082898440396907
 40
1.352995901063261
 40
1.352995901063261
 40
1.623093361729615
 40
1.623093361729615
 40
1.894445121261714
 40
1.894445121261714
 40
2.165796880793814
 40
2.165796880793814
 40
2.437148640325914
 40
2.437148640325914
 40
2.708500399857908
 40
2.708500399857908
 40
2.708500399858013
 40
2.708500399858013
 10
5.175852740479127
 20
5.308832787335632
 30
0.8179722197528462
 10
5.175852740480946
 20
5.297760492740053
 30
0.8516443648150016
 10
5.169233451836658
 20
5.285508255368768
 30
0.8876180184252007
 10
5.141437527040649
 20
5.258658102463414
 30
0.9518174533950514
 10
5.120198145534301
 20
5.243934171186083
 30
0.9799632627091341
 10
5.070070128206749
 20
5.215067365860704
 30
1.0209452791496
 10
5.038580654614703
 20
5.199426768950615
 30
1.035907793717342
 10
4.970632616413309
 20
5.171141640465066
 30
1.049983560415057
 10
4.934166865079602
 20
5.158582853428015
 30
1.049233957362957
 10
4.866200064439068
 20
5.141639383544315
 30
1.037299360452379
 10
4.829814320132824
 20
5.136028734267711
 30
1.025211340091118
 10
4.76202946792007
 20
5.13803136550905
 30
0.9927058977700653
 10
4.730570644517753
 20
5.145996709038627
 30
0.9724358408602711
 10
4.680209838938095
 20
5.174997568202343
 30
0.9312635090554977
 10
4.659051175916898
 20
5.197332619906774
 30
0.9085162912233499
 10
4.631323206373123
 20
5.250332164668179
 30
0.8629355007287813
 10
4.624671638117503
 20
5.280726353961654
 30
0.8398384899464872
 10
4.624671638118412
 20
5.308832787335632
 30
0.8179722197528462
1001
ACAD_VIEW_EDGE_ID
1071
        2
1071
       -1
1071
        3
1071
        0
  0
CIRCLE
  5
3BE
330
70
100
AcDbEntity
  8
Visible
100
AcDbCircle
 10
6.725777
 20
-0.574816
 30
2.16971
 40
0.4921259842519686
210
0.7071067811864442
220
-0.4071957137923947
230
0.5780931159158086
  0
ARC
  5
3BF
330
70
100
AcDbEntity
  8
Visible
100
AcDbCircle
 10
6.725777
 20
-0.574816
 30
-1.176617
 40
0.4921259842519686
210
0.7071067811864439
220
-0.4071957137923955
230
0.5780931159158087
100
AcDbArc
 50
0.0
 51
180.0
  0
LINE
  5
3C0
330
70
100
AcDbEntity
  8
Visible
100
AcDbLine
 10
3.057935
 20
6.568202
 30
-1.149227
 11
4.624672
 21
5.665978
 31
0.131654
210
-0.0000000000000001
220
0.8175471248425399
230
0.5758617009853119
  0
LINE
  5
3C1
330
70
100
AcDbEntity
  8
Visible
100
AcDbLine
 10
5.175853
 20
5.348574
 30
0.58227
 11
5.424146
 21
5.205592
 31
0.785262
210
-0.0000000000000001
220
0.8175471248425399
230
0.5758617009853119
  0
LINE
  5
3C2
330
70
100
AcDbEntity
  8
Visible
100
AcDbLine
 10
2.566762
 20
5.715265
 30
-1.149227
 11
4.932972
 21
4.352655
 31
0.785262
210
-0.0000000000000001
220
0.8175471248425399
230
0.5758617009853119
  0
SPLINE
  5
3C3
330
70
100
AcDbEntity
  8
Visible
100
AcDbSpline
 70
     0
 71
     3
 72
    26
 73
    22
 74
     0
 42
0.000000001
 43
0.0000000001
 40
0.8371786631866797
 40
0.8371786631866797
 40
0.8371786631866797
 40
0.8371786631866797
 40
1.04424888402179
 40
1.04424888402179
 40
1.2513191048569
 40
1.2513191048569
 40
1.462838215615129
 40
1.462838215615129
 40
1.568597770994244
 40
1.568597770994244
 40
1.674357326373359
 40
1.674357326373359
 40
1.780116881752474
 40
1.780116881752474
 40
1.885876437131589
 40
1.885876437131589
 40
2.097395547889818
 40
2.097395547889818
 40
2.304465768724929
 40
2.304465768724929
 40
2.511535989560039
 40
2.511535989560039
 40
2.511535989560039
 40
2.511535989560039
 10
5.09513413687007
 20
6.139779044608985
 30
1.641633697176075
 10
5.075918814385728
 20
6.128713676317602
 30
1.657343128825232
 10
5.052888191996386
 20
6.123616380508792
 30
1.67443134394125
 10
5.00607282365952
 20
6.126888905432679
 30
1.707134455826235
 10
4.982325413450849
 20
6.135152727021704
 30
1.722813279000547
 10
4.941493541900014
 20
6.158778339442505
 30
1.750959705788773
 10
4.921354556509028
 20
6.17605530019864
 30
1.765410160400278
 10
4.899315787415686
 20
6.206506495283974
 30
1.787485492959604
 10
4.893324068691141
 20
6.217393074854953
 30
1.794966151803237
 10
4.885157608356236
 20
6.239762937685554
 30
1.810323180940031
 10
4.883003906315094
 20
6.251242074698893
 30
1.818216766849218
 10
4.883003906315094
 20
6.273935885833452
 30
1.834201774056055
 10
4.885157608356236
 20
6.28523418280838
 30
1.842352097397451
 10
4.893324068691141
 20
6.307227602261264
 30
1.858243560758637
 10
4.899315787415686
 20
6.317937538443402
 30
1.86597499907657
 10
4.921354556509028
 20
6.348978355635154
 30
1.887213248952321
 10
4.941493541900014
 20
6.36840303592271
 30
1.89861460006432
 10
4.982325413450849
 20
6.402861695249157
 30
1.911381420368343
 10
5.00607282365952
 20
6.420407668569168
 30
1.913882432883838
 10
5.052888191996386
 20
6.452302608482568
 30
1.905950487705922
 10
5.075918814385728
 20
6.466676070445828
 30
1.895396194193381
 10
5.09513413687007
 20
6.477741438737211
 30
1.879686762544224
1001
ACAD_VIEW_EDGE_ID
1071
        4
1071
       -1
1071
        4
1071
        0
  0
SPLINE
  5
3C4
330
70
100
AcDbEntity
  8
Visible
100
AcDbSpline
 70
     0
 71
     3
 72
    12
 73
     8
 74
     0
 42
0.000000001
 43
0.0000000001
 40
2.511535989560039
 40
2.511535989560039
 40
2.511535989560039
 40
2.511535989560039
 40
2.718606210395149
 40
2.718606210395149
 40
2.925676431230259
 40
2.925676431230259
 40
2.990386312975015
 40
2.990386312975015
 40
2.990386312975015
 40
2.990386312975015
 10
5.09513413687007
 20
6.477741438737211
 30
1.879686762544224
 10
5.114349459354412
 20
6.488806807028595
 30
1.863977330895068
 10
5.131255217923422
 20
6.497431177334874
 30
1.841881750975517
 10
5.156107031251009
 20
6.506806622558542
 30
1.791222397838282
 10
5.164166389699017
 20
6.507576949140457
 30
1.762717853056528
 10
5.170273446157876
 20
6.503987344436609
 30
1.727761728116092
 10
5.171457203132446
 20
6.502762058453299
 30
1.719234292200781
 10
5.172409723063607
 20
6.501128275433984
 30
1.710649117456341
1001
ACAD_VIEW_EDGE_ID
1071
        5
1071
       -1
1071
        4
1071
        0
  0
SPLINE
  5
3C5
330
70
100
AcDbEntity
  8
Visible
100
AcDbSpline
 70
     0
 71
     3
 72
     8
 73
     4
 74
     0
 42
0.000000001
 43
0.0000000001
 40
3.992126931659398
 40
3.992126931659398
 40
3.992126931659398
 40
3.992126931659398
 40
4.185893315933398
 40
4.185893315933398
 40
4.185893315933398
 40
4.185893315933398
 10
5.14123120739539
 20
6.186778498949024
 30
1.599945167588884
 10
5.129073363949897
 20
6.166473018124634
 30
1.612362826384924
 10
5.113114914335779
 20
6.150133485704827
 30
1.626933564257342
 10
5.09513413687007
 20
6.139779044608985
 30
1.641633697176075
1001
ACAD_VIEW_EDGE_ID
1071
        5
1071
       -1
1071
        4
1071
        0
  0
LINE
  5
3C6
330
70
100
AcDbEntity
  8
Visible
100
AcDbLine
 10
4.657836
 20
6.187264
 30
1.597041
 11
4.657836
 21
6.27216
 31
1.656841
210
-0.0000000000000001
220
0.8175471248425399
230
0.5758617009853119
  0
ARC
  5
3C7
330
70
100
AcDbEntity
  8
Visible
100
AcDbCircle
 10
8.079435
 20
0.773617
 30
1.697399
 40
0.3937007874015757
210
0.7071067811864423
220
-0.4071957137923947
230
0.578093115915811
100
AcDbArc
 50
182.758792
 51
208.716805
  0
ARC
  5
3C8
330
70
100
AcDbEntity
  8
Visible
100
AcDbCircle
 10
-4.900262
 20
-2.388423
 30
2.791442
 40
0.2755905511811029
210
-0.0000000000000001
220
0.8175471248425399
230
0.5758617009853119
100
AcDbArc
 50
0.0
 51
180.0
  0
LINE
  5
3C9
330
70
100
AcDbEntity
  8
Visible
100
AcDbLine
 10
4.769191
 20
6.336286
 30
1.838216
 11
4.769191
 21
6.123138
 31
1.68808
210
-0.0000000000000001
220
0.8175471248425399
230
0.5758617009853119
  0
SPLINE
  5
3CA
330
70
100
AcDbEntity
  8
Visible
100
AcDbSpline
 70
     0
 71
     3
 72
     8
 73
     4
 74
     0
 42
0.000000001
 43
0.0000000001
 40
2.008562787254438
 40
2.008562787254438
 40
2.008562787254438
 40
2.008562787254438
 40
2.209857864444705
 40
2.209857864444705
 40
2.209857864444705
 40
2.209857864444705
 10
4.76919120788723
 20
6.123138302386905
 30
1.688079541308979
 10
4.745807741452223
 20
6.136035141915272
 30
1.681699750186453
 10
4.724069653027141
 20
6.148610316120539
 30
1.670702360757786
 10
4.705390241728379
 20
6.159367073683824
 30
1.655431061755734
1001
ACAD_VIEW_EDGE_ID
1071
       16
1071
       -1
1071
        4
1071
        0
  0
SPLINE
  5
3CB
330
70
100
AcDbEntity
  8
Visible
100
AcDbSpline
 70
     0
 71
     3
 72
     8
 73
     4
 74
     0
 42
0.000000001
 43
0.0000000001
 40
2.209857864444705
 40
2.209857864444705
 40
2.209857864444705
 40
2.209857864444705
 40
2.411152941634972
 40
2.411152941634972
 40
2.411152941634972
 40
2.411152941634972
 10
4.705390241728379
 20
6.159367073683824
 30
1.655431061755734
 10
4.686710830428706
 20
6.170123831248929
 30
1.640159762753683
 10
4.670478385111051
 20
6.179414433191595
 30
1.620114451494373
 10
4.657835809274798
 20
6.187263611645903
 30
1.597041255337899
1001
ACAD_VIEW_EDGE_ID
1071
       17
1071
       -1
1071
        4
1071
        0
  0
LINE
  5
3CC
330
70
100
AcDbEntity
  8
Visible
100
AcDbLine
 10
4.624672
 20
3.657536
 30
-0.345164
 11
4.624672
 21
4.530194
 31
0.269516
210
-0.0000000000000001
220
0.8175471248425399
230
0.5758617009853119
  0
LINE
  5
3CD
330
70
100
AcDbEntity
  8
Visible
100
AcDbLine
 10
4.624672
 20
5.308833
 30
0.817972
 11
4.624672
 21
6.253062
 31
1.483066
210
-0.0000000000000001
220
0.8175471248425399
230
0.5758617009853119
  0
LINE
  5
3CE
330
70
100
AcDbEntity
  8
Visible
100
AcDbLine
 10
5.175853
 20
3.657536
 30
-0.345164
 11
5.175853
 21
4.375241
 31
0.160371
210
-0.0000000000000001
220
0.8175471248425399
230
0.5758617009853119
  0
LINE
  5
3CF
330
70
100
AcDbEntity
  8
Visible
100
AcDbLine
 10
5.175853
 20
5.308833
 30
0.817972
 11
5.175853
 21
6.225163
 31
1.463414
210
-0.0000000000000001
220
0.8175471248425399
230
0.5758617009853119
  0
LINE
  5
3D0
330
70
100
AcDbEntity
  8
Visible
100
AcDbLine
 10
5.175853
 20
6.498369
 30
1.655855
 11
5.175853
 21
6.570466
 31
1.706638
210
-0.0000000000000001
220
0.8175471248425399
230
0.5758617009853119
  0
ARC
  5
3D1
330
70
100
AcDbEntity
  8
Visible Narrow
100
AcDbCircle
 10
4.900262
 20
-2.388423
 30
-6.171606
 40
0.2755905511810972
210
0.0000000000000001
220
-0.8175471248425399
230
-0.5758617009853119
100
AcDbArc
 50
118.39845
 51
132.646828
  0
LINE
  5
3D2
330
70
100
AcDbEntity
  8
Visible
100
AcDbLine
 10
4.769191
 20
6.281375
 30
1.799538
 11
4.769191
 21
6.336286
 31
1.838216
210
-0.0000000000000001
220
0.8175471248425399
230
0.5758617009853119
  0
ARC
  5
3D3
330
70
100
AcDbEntity
  8
Visible
100
AcDbCircle
 10
-8.009703
 20
0.704155
 30
-1.697399
 40
0.2641025170275344
210
-0.7071067811864423
220
0.4071957137923947
230
-0.578093115915811
100
AcDbArc
 50
12.194196
 51
25.253947
  0
ARC
  5
3D4
330
70
100
AcDbEntity
  8
Visible Narrow
100
AcDbCircle
 10
3.18968
 20
6.212283
 30
5.98065
 40
0.0787401574803157
210
0.7071067811866528
220
0.4071957137922735
230
-0.5780931159156389
100
AcDbArc
 50
134.889207
 51
180.0
  0
ARC
  5
3D5
330
70
100
AcDbEntity
  8
Visible Narrow
100
AcDbCircle
 10
5.484878
 20
-2.973038
 30
-6.644047
 40
0.4527559055118107
210
0.0000000000000001
220
-0.8175471248425399
230
-0.5758617009853119
100
AcDbArc
 50
0.0
 51
45.0
  0
ARC
  5
3D6
330
70
100
AcDbEntity
  8
Visible Narrow
100
AcDbCircle
 10
3.18968
 20
6.212283
 30
4.327107
 40
0.0787401574803143
210
0.7071067811866528
220
0.4071957137922735
230
-0.5780931159156389
100
AcDbArc
 50
134.889207
 51
180.0
  0
LINE
  5
3D7
330
70
100
AcDbEntity
  8
Visible Narrow
100
AcDbLine
 10
5.805025
 20
6.95952
 30
1.657188
 11
4.635793
 21
6.286204
 31
2.61309
210
-0.0000000000000001
220
0.8175471248425399
230
0.5758617009853119
  0
ARC
  5
3D8
330
70
100
AcDbEntity
  8
Visible Narrow
100
AcDbCircle
 10
4.315646
 20
-1.803807
 30
-6.644047
 40
0.4527559055118111
210
0.0000000000000001
220
-0.8175471248425399
230
-0.5758617009853119
100
AcDbArc
 50
45.0
 51
180.0
  0
LINE
  5
3D9
330
70
100
AcDbEntity
  8
Visible Narrow
100
AcDbLine
 10
5.805025
 20
7.056081
 30
1.725203
 11
5.805025
 21
6.95952
 31
1.657188
210
-0.0000000000000001
220
0.8175471248425399
230
0.5758617009853119
  0
LINE
  5
3DA
330
70
100
AcDbEntity
  8
Visible
100
AcDbLine
 10
4.635793
 20
6.382765
 30
2.681105
 11
5.805025
 21
7.056081
 31
1.725203
210
-0.0000000000000001
220
0.8175471248425399
230
0.5758617009853119
  0
LINE
  5
3DB
330
70
100
AcDbEntity
  8
Visible Narrow
100
AcDbLine
 10
4.635793
 20
6.382765
 30
2.681105
 11
4.635793
 21
6.286204
 31
2.61309
210
-0.0000000000000001
220
0.8175471248425399
230
0.5758617009853119
  0
ARC
  5
3DC
330
70
100
AcDbEntity
  8
Visible
100
AcDbCircle
 10
-5.484878
 20
-2.973038
 30
6.762157
 40
0.4527559055118111
210
-0.0000000000000001
220
0.8175471248425399
230
0.5758617009853119
100
AcDbArc
 50
135.0
 51
315.0
  0
LINE
  5
3DD
330
70
100
AcDbEntity
  8
Visible
100
AcDbLine
 10
5.164731
 20
7.424801
 30
1.201733
 11
3.9955
 21
6.751485
 31
2.157635
210
-0.0000000000000001
220
0.8175471248425399
230
0.5758617009853119
  0
ARC
  5
3DE
330
70
100
AcDbEntity
  8
Visible
100
AcDbCircle
 10
-4.315646
 20
-1.803807
 30
6.762157
 40
0.4527559055118111
210
-0.0000000000000001
220
0.8175471248425399
230
0.5758617009853119
100
AcDbArc
 50
315.0
 51
135.0
  0
ARC
  5
3DF
330
70
100
AcDbEntity
  8
Visible
100
AcDbCircle
 10
-4.900262
 20
6.42098
 30
-1.601343
 40
0.2755905511811024
210
-0.0000000000000005
220
-0.0000000000000015
230
-1.0
100
AcDbArc
 50
298.39845
 51
320.43264
  0
SPLINE
  5
3E0
330
70
100
AcDbEntity
  8
Visible
100
AcDbSpline
 70
     0
 71
     3
 72
    16
 73
    12
 74
     0
 42
0.000000001
 43
0.0000000001
 40
4.712388980384689
 40
4.712388980384689
 40
4.712388980384689
 40
4.712388980384689
 40
4.869468613064208
 40
4.869468613064208
 40
5.026548245743727
 40
5.026548245743727
 40
5.183627878423246
 40
5.183627878423246
 40
5.340707511102765
 40
5.340707511102765
 40
5.497787143782286
 40
5.497787143782286
 40
5.497787143782286
 40
5.497787143782286
 10
5.788640978643412
 20
6.923347616908358
 30
1.611668803381689
 10
5.805578659021263
 20
6.933101378342144
 30
1.600347763800527
 10
5.821554604971494
 20
6.943829348550934
 30
1.588135862852141
 10
5.851191367105526
 20
6.967319613189829
 30
1.562230543720943
 10
5.864856558861971
 20
6.980085232523379
 30
1.548537388089243
 10
5.889341550199857
 20
7.007757979339658
 30
1.520006703916806
 10
5.900163376361048
 20
7.022675863800941
 30
1.505169464531718
 10
5.918167272350798
 20
7.054584530124884
 30
1.474715935451968
 10
5.925337063128678
 20
7.071588775986128
 30
1.459099954394332
 10
5.935082841852887
 20
7.107022943017
 30
1.42747344736199
 10
5.937633937524038
 20
7.125443400494077
 30
1.411463241911405
 10
5.937633937524948
 20
7.143880142629313
 30
1.39545287419969
1001
ACAD_VIEW_EDGE_ID
1071
   -16385
1071
       -1
1071
        5
1071
        0
  0
LINE
  5
3E1
330
70
100
AcDbEntity
  8
Visible
100
AcDbLine
 10
4.619409
 20
6.250032
 30
2.567571
 11
5.788641
 21
6.923348
 31
1.611669
210
-0.0000000000000001
220
0.8175471248425399
230
0.5758617009853119
  0
SPLINE
  5
3E2
330
70
100
AcDbEntity
  8
Visible
100
AcDbSpline
 70
     0
 71
     3
 72
    22
 73
    18
 74
     0
 42
0.000000001
 43
0.0000000001
 40
2.356194490192493
 40
2.356194490192493
 40
2.356194490192493
 40
2.356194490192493
 40
2.600254424245886
 40
2.600254424245886
 40
2.869043843895497
 40
2.869043843895497
 40
3.191654430236694
 40
3.191654430236694
 40
3.541263691000747
 40
3.541263691000747
 40
3.888655472293527
 40
3.888655472293527
 40
4.233097232703636
 40
4.233097232703636
 40
4.579459620891311
 40
4.579459620891311
 40
4.712388980384689
 40
4.712388980384689
 40
4.712388980384689
 40
4.712388980384689
 10
3.86289044107441
 20
6.47056439541393
 30
2.35135487689331
 10
3.862890441073501
 20
6.441918606059516
 30
2.376230726304129
 10
3.869139605994019
 20
6.413403260628001
 30
2.401105108880074
 10
3.892890680384949
 20
6.358479518249623
 30
2.451828271907288
 10
3.911240801619966
 20
6.332546574831212
 30
2.477515442957155
 10
3.960106242156212
 20
6.282574176148045
 30
2.530039150946322
 10
3.992353318370147
 20
6.259762202986166
 30
2.556061013947328
 10
4.067392307294609
 20
6.220673682811138
 30
2.602024138910564
 10
4.110933428323802
 20
6.205108635132091
 30
2.621256877084306
 10
4.202775195180107
 20
6.183632405201024
 30
2.647985197520029
 10
4.251040447634364
 20
6.177692260467665
 30
2.655548676120815
 10
4.3476937191336
 20
6.175557510842736
 30
2.658251240431127
 10
4.396055208813846
 20
6.179283208090055
 30
2.65349565485485
 10
4.489111738555108
 20
6.19621904750511
 30
2.632277619262822
 10
4.53377297334107
 20
6.209458015490781
 30
2.615754442460456
 10
4.590051486805419
 20
6.234221693761355
 30
2.58609401994181
 10
4.605075703523722
 20
6.24177770435017
 30
2.577151287736342
 10
4.619409293217428
 20
6.250031869692975
 30
2.567570806075309
1001
ACAD_VIEW_EDGE_ID
1071
   -22529
1071
       -1
1071
        5
1071
        0
  0
LINE
  5
3E3
330
70
100
AcDbEntity
  8
Visible
100
AcDbLine
 10
5.937634
 20
7.240441
 30
1.463468
 11
5.937634
 21
7.14388
 31
1.395453
210
-0.0000000000000001
220
0.8175471248425399
230
0.5758617009853119
  0
LINE
  5
3E4
330
70
100
AcDbEntity
  8
Visible
100
AcDbLine
 10
3.86289
 20
6.567125
 30
2.41937
 11
3.86289
 21
6.470564
 31
2.351355
210
-0.0000000000000001
220
0.8175471248425399
230
0.5758617009853119
  0
ARC
  5
3E5
330
70
100
AcDbEntity
  8
Visible
100
AcDbCircle
 10
-8.009703
 20
0.704155
 30
-1.963147
 40
0.2066929133858262
210
-0.7071067811864423
220
0.4071957137923947
230
-0.578093115915811
100
AcDbArc
 50
33.45507
 51
56.766516
  0
CIRCLE
  5
3E6
330
70
100
AcDbEntity
  8
Visible Narrow
100
AcDbCircle
 10
-8.009703
 20
0.704155
 30
-2.093068
 40
0.1059055118110237
210
-0.7071067811864426
220
0.4071957137923944
230
-0.578093115915811
  0
ARC
  5
3E7
330
70
100
AcDbEntity
  8
Visible Narrow
100
AcDbCircle
 10
8.009703
 20
0.704155
 30
1.992281
 40
0.2066929133858257
210
0.7071067811864423
220
-0.4071957137923947
230
0.578093115915811
100
AcDbArc
 50
100.701356
 51
169.077058
  0
LINE
  5
3E8
330
70
100
AcDbEntity
  8
Visible
100
AcDbLine
 10
5.063989
 20
6.282702
 30
1.85191
 11
5.113309
 21
6.358786
 31
1.845174
210
-0.0000000000000001
220
0.8175471248425399
230
0.5758617009853119
  0
LINE
  5
3E9
330
70
100
AcDbEntity
  8
Visible
100
AcDbLine
 10
5.113309
 20
6.358786
 30
1.845174
 11
5.173685
 21
6.368012
 31
1.777822
210
-0.0000000000000001
220
0.8175471248425399
230
0.5758617009853119
  0
LINE
  5
3EA
330
70
100
AcDbEntity
  8
Visible
100
AcDbLine
 10
5.173685
 20
6.368012
 30
1.777822
 11
5.184741
 21
6.301153
 31
1.717206
210
-0.0000000000000001
220
0.8175471248425399
230
0.5758617009853119
  0
LINE
  5
3EB
330
70
100
AcDbEntity
  8
Visible
100
AcDbLine
 10
5.184741
 20
6.301153
 30
1.717206
 11
5.135421
 21
6.225069
 31
1.723941
210
-0.0000000000000001
220
0.8175471248425399
230
0.5758617009853119
  0
LINE
  5
3EC
330
70
100
AcDbEntity
  8
Visible
100
AcDbLine
 10
5.135421
 20
6.225069
 30
1.723941
 11
5.075044
 21
6.215843
 31
1.791293
210
-0.0000000000000001
220
0.8175471248425399
230
0.5758617009853119
  0
LINE
  5
3ED
330
70
100
AcDbEntity
  8
Visible
100
AcDbLine
 10
5.075044
 20
6.215843
 30
1.791293
 11
5.063989
 21
6.282702
 31
1.85191
210
-0.0000000000000001
220
0.8175471248425399
230
0.5758617009853119
  0
SPLINE
  5
3EE
330
70
100
AcDbEntity
  8
Visible
100
AcDbSpline
210
0.2429817162301127
220
0.9076871389777657
230
0.3421460847536135
 70
    12
 71
     2
 72
     6
 73
     3
 74
     0
 42
0.000000001
 43
0.0000000001
 40
0.2075438923916649
 40
0.2075438923916649
 40
0.2075438923916649
 40
0.2336872276155822
 40
0.2336872276155822
 40
0.2336872276155822
 10
5.067996634633415
 20
6.258464577591439
 30
1.683226892120728
 41
1.030741341635295
 10
5.07250406361261
 20
6.25850669306601
 30
1.679914124404604
 41
1.017306842463903
 10
5.077515762504004
 20
6.258413870808908
 30
1.676601218954601
 41
1.0
1001
ACAD_VIEW_EDGE_ID
1071
       13
1071
       -1
1071
        6
1071
        0
  0
LINE
  5
3EF
330
70
100
AcDbEntity
  8
Visible
100
AcDbLine
 10
5.077516
 20
6.258414
 30
1.676601
 11
5.135421
 21
6.225069
 31
1.723941
210
-0.0000000000000001
220
0.8175471248425399
230
0.5758617009853119
  0
SPLINE
  5
3F0
330
70
100
AcDbEntity
  8
Visible
100
AcDbSpline
210
-0.4535916713639499
220
0.365969913539062
230
0.8126011432760048
 70
    12
 71
     2
 72
     6
 73
     3
 74
     0
 42
0.000000001
 43
0.0000000001
 40
0.0
 40
0.0
 40
0.0
 40
0.2336872276155824
 40
0.2336872276155824
 40
0.2336872276155824
 10
5.077515762504004
 20
6.258413870808908
 30
1.676601218954601
 41
1.0
 10
5.092896384812844
 20
6.301799755951833
 30
1.665647005404025
 41
1.154700538379252
 10
5.126836240222543
 20
6.334498089549924
 30
1.669865839514386
 41
1.0
1001
ACAD_VIEW_EDGE_ID
1071
       22
1071
       -1
1071
        6
1071
        0
  0
LINE
  5
3F1
330
70
100
AcDbEntity
  8
Visible
100
AcDbLine
 10
5.126836
 20
6.334498
 30
1.669866
 11
5.184741
 21
6.301153
 31
1.717206
210
-0.0000000000000001
220
0.8175471248425399
230
0.5758617009853119
  0
SPLINE
  5
3F2
330
70
100
AcDbEntity
  8
Visible
100
AcDbSpline
210
-0.6965733864896536
220
-0.5417172264813221
230
0.47045506030621
 70
    12
 71
     2
 72
     6
 73
     3
 74
     0
 42
0.000000001
 43
0.0000000001
 40
0.0
 40
0.0
 40
0.0
 40
0.0763030073803099
 40
0.0763030073803099
 40
0.0763030073803099
 10
5.126836240222543
 20
6.334498089549924
 30
1.669865839514386
 41
1.0
 10
5.121521834195005
 20
6.348413797544708
 30
1.678020720308268
 41
1.050512458220899
 10
5.118691791210109
 20
6.359608442236094
 30
1.686720805806544
 41
1.068038496843658
1001
ACAD_VIEW_EDGE_ID
1071
       24
1071
       -1
1071
        6
1071
        0
  0
SPLINE
  5
3F3
330
70
100
AcDbEntity
  8
Visible
100
AcDbSpline
 70
     0
 71
     3
 72
    26
 73
    22
 74
     0
 42
0.000000001
 43
0.0000000001
 40
5.543991194724768
 40
5.543991194724768
 40
5.543991194724768
 40
5.543991194724768
 40
5.692897695817585
 40
5.692897695817585
 40
5.905383667119576
 40
5.905383667119576
 40
6.16665956691015
 40
6.16665956691015
 40
6.512115540972913
 40
6.512115540972913
 40
6.920262835945453
 40
6.920262835945453
 40
7.33032383936777
 40
7.33032383936777
 40
7.741719914553939
 40
7.741719914553939
 40
8.138282661474619
 40
8.138282661474619
 40
8.427640428956641
 40
8.427640428956641
 40
8.609073413219814
 40
8.609073413219814
 40
8.609073413219814
 40
8.609073413219814
 10
5.165815231933335
 20
6.506029114299963
 30
1.722135020045243
 10
5.175401296099222
 20
6.49939148598878
 30
1.717850697012181
 10
5.184017702736197
 20
6.491570908242465
 30
1.71358180432071
 10
5.201843342412827
 20
6.471073903887372
 30
1.703373235868639
 10
5.209718471382144
 20
6.457833630862296
 30
1.697498946577979
 10
5.222310825321143
 20
6.42839988076048
 30
1.684980593347063
 10
5.226010705737349
 20
6.412222406574983
 30
1.678471055525733
 10
5.229901190205124
 20
6.376035679293636
 30
1.664780899276593
 10
5.22863253901785
 20
6.356341636796969
 30
1.658066891737689
 10
5.221173782410984
 20
6.315037205504268
 30
1.646636735813444
 10
5.21405749900448
 20
6.293674324402672
 30
1.64251662766037
 10
5.195079541682458
 20
6.253094669142228
 30
1.639078785787205
 10
5.183176952316058
 20
6.233912124027483
 30
1.639785561832468
 10
5.154947679449902
 20
6.198809669136608
 30
1.645952650718754
 10
5.138651668329726
 20
6.18286873512352
 30
1.651425729254697
 10
5.101287997692521
 20
6.156482317541303
 30
1.665970533311337
 10
5.080323292363642
 20
6.145641013808017
 30
1.674897502316525
 10
5.037264240742912
 20
6.135392758344096
 30
1.692244806294183
 10
5.016771740229229
 20
6.13384835697434
 30
1.700143219464735
 10
4.982078551388509
 20
6.139787816198804
 30
1.71340709425749
 10
4.968487823953251
 20
6.144170689174643
 30
1.718617635846385
 10
4.955820589336395
 20
6.15065993677399
 30
1.723841758228445
1001
ACAD_VIEW_EDGE_ID
1071
   -10241
1071
       -1
1071
        6
1071
        0
  0
ENDSEC
  0
SECTION
  2
OBJECTS
  0
DICTIONARY
  5
C
330
0
100
AcDbDictionary
281
     1
  3
ACAD_COLOR
350
63
  3
ACAD_DETAILVIEWSTYLE
350
6A
  3
ACAD_GROUP
350
D
  3
ACAD_IMAGE_DICT
350
175
  3
ACAD_IMAGE_VARS
350
177
  3
ACAD_LAYOUT
350
62
  3
ACAD_MATERIAL
350
10
  3
ACAD_MLEADERSTYLE
350
66
  3
ACAD_MLINESTYLE
350
5F
  3
ACAD_PLOTSETTINGS
350
61
  3
ACAD_PLOTSTYLENAME
350
E
  3
ACAD_SCALELIST
350
42
  3
ACAD_SECTIONVIEWSTYLE
350
68
  3
ACAD_TABLESTYLE
350
64
  3
ACAD_VISUALSTYLE
350
29
  3
ACDB_RECOMPOSE_DATA
350
445
  3
AcDbVariableDictionary
350
43C
  0
DICTIONARY
  5
B2
330
70
100
AcDbDictionary
280
     1
281
     1
  3
ACAD_SORTENTS
360
16B
  0
DICTIONARY
  5
16F
330
16E
100
AcDbDictionary
280
     1
281
     1
  3
ACAD_SORTENTS
360
34F
  0
IMAGEDEF_REACTOR
  5
176
330
173
100
AcDbRasterImageDefReactor
 90
        2
330
173
  0
DICTIONARY
  5
63
102
{ACAD_REACTORS
330
C
102
}
330
C
100
AcDbDictionary
281
     1
  0
DICTIONARY
  5
6A
102
{ACAD_REACTORS
330
C
102
}
330
C
100
AcDbDictionary
281
     1
  3
Imperial24
350
6B
  0
DICTIONARY
  5
D
102
{ACAD_REACTORS
330
C
102
}
330
C
100
AcDbDictionary
281
     1
  0
DICTIONARY
  5
175
102
{ACAD_REACTORS
330
C
102
}
330
C
100
AcDbDictionary
281
     1
  3
morse_logo-16 (1)_01-2018(B)_1_1
350
174
  0
RASTERVARIABLES
  5
177
102
{ACAD_REACTORS
330
C
102
}
330
C
100
AcDbRasterVariables
 90
        0
 70
     0
 71
     1
 72
     5
  0
DICTIONARY
  5
62
102
{ACAD_REACTORS
330
C
102
}
330
C
100
AcDbDictionary
281
     1
  3
Model
350
73
  3
Sheet1
350
6F
  3
Sheet2
350
77
  0
DICTIONARY
  5
10
102
{ACAD_REACTORS
330
C
102
}
330
C
100
AcDbDictionary
281
     1
  3
ByBlock
350
19
  3
ByLayer
350
11
  3
Global
350
21
  0
DICTIONARY
  5
66
102
{ACAD_REACTORS
330
C
102
}
330
C
100
AcDbDictionary
281
     1
  3
Standard
350
67
  0
DICTIONARY
  5
5F
102
{ACAD_REACTORS
330
C
102
}
330
C
100
AcDbDictionary
281
     1
  3
Standard
350
60
  0
DICTIONARY
  5
61
102
{ACAD_REACTORS
330
C
102
}
330
C
100
AcDbDictionary
281
     1
  0
ACDBDICTIONARYWDFLT
  5
E
102
{ACAD_REACTORS
330
C
102
}
330
C
100
AcDbDictionary
281
     1
  3
Normal
350
F
100
AcDbDictionaryWithDefault
340
F
  0
DICTIONARY
  5
42
102
{ACAD_REACTORS
330
C
102
}
330
C
100
AcDbDictionary
281
     1
  3
*A1
350
A2
  3
*A10
350
AB
  3
*A11
350
AC
  3
*A12
350
AD
  3
*A13
350
AE
  3
*A14
350
AF
  3
*A15
350
B0
  3
*A16
350
B1
  3
*A2
350
A3
  3
*A3
350
A4
  3
*A4
350
A5
  3
*A5
350
A6
  3
*A6
350
A7
  3
*A7
350
A8
  3
*A8
350
A9
  3
*A9
350
AA
  3
A0
350
43
  3
A1
350
44
  3
A2
350
45
  3
A3
350
46
  3
A4
350
47
  3
A5
350
48
  3
A6
350
49
  3
A7
350
4A
  3
A8
350
4B
  3
A9
350
4C
  3
B0
350
4D
  3
B1
350
4E
  3
B2
350
4F
  3
B3
350
50
  3
B4
350
51
  3
B5
350
52
  3
B6
350
53
  0
DICTIONARY
  5
68
102
{ACAD_REACTORS
330
C
102
}
330
C
100
AcDbDictionary
281
     1
  3
Imperial24
350
69
  0
DICTIONARY
  5
64
102
{ACAD_REACTORS
330
C
102
}
330
C
100
AcDbDictionary
281
     1
  3
Standard
350
65
  0
DICTIONARY
  5
29
102
{ACAD_REACTORS
330
C
102
}
330
C
100
AcDbDictionary
281
     1
  3
2dWireframe
350
2F
  3
Basic
350
2E
  3
Brighten
350
35
  3
ColorChange
350
39
  3
Conceptual
350
32
  3
Dim
350
34
  3
EdgeColorOff
350
41
  3
Facepattern
350
38
  3
Flat
350
2A
  3
FlatWithEdges
350
2B
  3
Gouraud
350
2C
  3
GouraudWithEdges
350
2D
  3
Hidden
350
31
  3
JitterOff
350
3F
  3
Linepattern
350
37
  3
OverhangOff
350
40
  3
Realistic
350
33
  3
Shaded
350
3E
  3
Shaded with edges
350
3D
  3
Shades of Gray
350
3A
  3
Sketchy
350
3B
  3
Thicken
350
36
  3
Wireframe
350
30
  3
X-Ray
350
3C
  0
XRECORD
  5
445
102
{ACAD_REACTORS
330
C
102
}
330
C
100
AcDbXrecord
280
     1
 90
        1
330
65
330
17B
330
185
330
186
330
187
330
18A
  0
DICTIONARY
  5
43C
102
{ACAD_REACTORS
330
C
102
}
330
C
100
AcDbDictionary
281
     1
  3
ANNOALLVISIBLE
350
441
  3
CANNOSCALE
350
442
  3
CMLEADERSTYLE
350
43E
  3
CTABLESTYLE
350
43D
  3
CVIEWDETAILSTYLE
350
43F
  3
CVIEWSECTIONSTYLE
350
440
  0
SORTENTSTABLE
  5
16B
102
{ACAD_REACTORS
330
B2
102
}
330
B2
100
AcDbSortentsTable
330
70
  0
SORTENTSTABLE
  5
34F
102
{ACAD_REACTORS
330
16F
102
}
330
16F
100
AcDbSortentsTable
330
16E
  0
ACDBDETAILVIEWSTYLE
  5
6B
102
{ACAD_XDICTIONARY
360
448
102
}
102
{ACAD_REACTORS
330
6A
102
}
330
6A
100
AcDbModelDocViewStyle
 70
     0
  3
Imperial24
290
     0
100
AcDbDetailViewStyle
 70
     0
 71
     0
 90
        3
 71
     1
340
55
 62
   256
 40
0.24
340
0
 62
   256
 40
0.24
300

 40
0.36
280
     3
 71
     2
340
5D
 90
       25
 62
   256
 71
     3
340
55
 62
   256
 40
0.24
 90
        1
 40
0.75
 90
        1
300
%<\AcVar ViewType \f "%tc1">% %<\AcVar ViewDetailId>%\PSCALE %<\AcVar ViewScale \f "%sn">%
 71
     4
340
5D
 90
       25
 62
   256
340
5D
 90
       25
 62
   256
280
     0
  0
IMAGEDEF
  5
174
102
{ACAD_REACTORS
330
175
330
176
330
3F4
102
}
330
175
100
AcDbRasterImageDef
 90
        0
  1
morse_logo-16 (1)_01-2018(B)_1_1.jpg
 10
948.0
 20
333.0
 11
0.264583
 21
0.264583
280
     1
281
     5
  0
LAYOUT
  5
73
102
{ACAD_REACTORS
330
62
102
}
330
62
100
AcDbPlotSettings
  1

  2
AutoCAD PDF (High Quality Print).pc3
  4
ANSI_full_bleed_B_(17.00_x_11.00_Inches)
  6

 40
0.0
 41
0.0
 42
0.0
 43
0.0
 44
431.799988
 45
279.399994
 46
0.0
 47
0.0
 48
0.0
 49
0.0
140
0.0
141
0.0
142
1.0
143
2.616564
 70
 11952
 72
     0
 73
     0
 74
     0
  7

 75
     0
147
0.382181
 76
     0
 77
     2
 78
   300
148
336.74757
149
117.914804
100
AcDbLayout
  1
Model
 70
     1
 71
     0
 10
0.0
 20
0.0
 11
12.0
 21
9.0
 12
0.0
 22
0.0
 32
0.0
 14
0.0
 24
0.0
 34
0.0
 15
0.0
 25
0.0
 35
0.0
146
0.0
 13
0.0
 23
0.0
 33
0.0
 16
1.0
 26
0.0
 36
0.0
 17
0.0
 27
1.0
 37
0.0
 76
     0
330
70
1001
ACAD_PSEXT
1000
AutoCAD PDF (High Quality Print).pc3
1000
DWG To PDF
1000
File
1000

1070
     0
  0
LAYOUT
  5
6F
102
{ACAD_REACTORS
330
62
102
}
330
62
100
AcDbPlotSettings
  1

  2
None
  4

  6

 40
0.0
 41
0.0
 42
0.0
 43
0.0
 44
0.0
 45
0.0
 46
0.0
 47
0.0
 48
0.0
 49
0.0
140
0.0
141
0.0
142
1.0
143
1.0
 70
   688
 72
     0
 73
     0
 74
     5
  7

 75
    16
147
1.0
 76
     0
 77
     2
 78
   300
148
0.0
149
0.0
100
AcDbLayout
  1
Sheet1
 70
     1
 71
     1
 10
0.0
 20
0.0
 11
12.0
 21
9.0
 12
0.0
 22
0.0
 32
0.0
 14
0.0
 24
0.0
 34
0.0
 15
0.0
 25
0.0
 35
0.0
146
0.0
 13
0.0
 23
0.0
 33
0.0
 16
1.0
 26
0.0
 36
0.0
 17
0.0
 27
1.0
 37
0.0
 76
     0
330
6C
  0
LAYOUT
  5
77
102
{ACAD_REACTORS
330
62
102
}
330
62
100
AcDbPlotSettings
  1

  2
None
  4

  6

 40
0.0
 41
0.0
 42
0.0
 43
0.0
 44
0.0
 45
0.0
 46
0.0
 47
0.0
 48
0.0
 49
0.0
140
0.0
141
0.0
142
1.0
143
1.0
 70
   688
 72
     0
 73
     0
 74
     5
  7

 75
    16
147
1.0
 76
     0
 77
     2
 78
   300
148
0.0
149
0.0
100
AcDbLayout
  1
Sheet2
 70
     1
 71
     2
 10
0.0
 20
0.0
 11
12.0
 21
9.0
 12
0.0
 22
0.0
 32
0.0
 14
0.0
 24
0.0
 34
0.0
 15
0.0
 25
0.0
 35
0.0
146
0.0
 13
0.0
 23
0.0
 33
0.0
 16
1.0
 26
0.0
 36
0.0
 17
0.0
 27
1.0
 37
0.0
 76
     0
330
74
  0
MATERIAL
  5
19
102
{ACAD_XDICTIONARY
360
1A
102
}
102
{ACAD_REACTORS
330
10
102
}
330
10
100
AcDbMaterial
  1
ByBlock
 72
     0
 43
0.020833
 43
0.0
 43
0.0
 43
0.0
 43
0.0
 43
0.020833
 43
0.0
 43
0.0
 43
0.0
 43
0.0
 43
1.0
 43
0.0
 43
0.0
 43
0.0
 43
0.0
 43
1.0
 77
     0
 47
0.020833
 47
0.0
 47
0.0
 47
0.0
 47
0.0
 47
0.020833
 47
0.0
 47
0.0
 47
0.0
 47
0.0
 47
1.0
 47
0.0
 47
0.0
 47
0.0
 47
0.0
 47
1.0
171
     0
 49
0.020833
 49
0.0
 49
0.0
 49
0.0
 49
0.0
 49
0.020833
 49
0.0
 49
0.0
 49
0.0
 49
0.0
 49
1.0
 49
0.0
 49
0.0
 49
0.0
 49
0.0
 49
1.0
175
     0
142
0.020833
142
0.0
142
0.0
142
0.0
142
0.0
142
0.020833
142
0.0
142
0.0
142
0.0
142
0.0
142
1.0
142
0.0
142
0.0
142
0.0
142
0.0
142
1.0
179
     0
144
0.020833
144
0.0
144
0.0
144
0.0
144
0.0
144
0.020833
144
0.0
144
0.0
144
0.0
144
0.0
144
1.0
144
0.0
144
0.0
144
0.0
144
0.0
144
1.0
147
0.020833
147
0.0
147
0.0
147
0.0
147
0.0
147
0.020833
147
0.0
147
0.0
147
0.0
147
0.0
147
1.0
147
0.0
147
0.0
147
0.0
147
0.0
147
1.0
  0
MATERIAL
  5
11
102
{ACAD_XDICTIONARY
360
12
102
}
102
{ACAD_REACTORS
330
10
102
}
330
10
100
AcDbMaterial
  1
ByLayer
 72
     0
 43
0.020833
 43
0.0
 43
0.0
 43
0.0
 43
0.0
 43
0.020833
 43
0.0
 43
0.0
 43
0.0
 43
0.0
 43
1.0
 43
0.0
 43
0.0
 43
0.0
 43
0.0
 43
1.0
 77
     0
 47
0.020833
 47
0.0
 47
0.0
 47
0.0
 47
0.0
 47
0.020833
 47
0.0
 47
0.0
 47
0.0
 47
0.0
 47
1.0
 47
0.0
 47
0.0
 47
0.0
 47
0.0
 47
1.0
171
     0
 49
0.020833
 49
0.0
 49
0.0
 49
0.0
 49
0.0
 49
0.020833
 49
0.0
 49
0.0
 49
0.0
 49
0.0
 49
1.0
 49
0.0
 49
0.0
 49
0.0
 49
0.0
 49
1.0
175
     0
142
0.020833
142
0.0
142
0.0
142
0.0
142
0.0
142
0.020833
142
0.0
142
0.0
142
0.0
142
0.0
142
1.0
142
0.0
142
0.0
142
0.0
142
0.0
142
1.0
179
     0
144
0.020833
144
0.0
144
0.0
144
0.0
144
0.0
144
0.020833
144
0.0
144
0.0
144
0.0
144
0.0
144
1.0
144
0.0
144
0.0
144
0.0
144
0.0
144
1.0
147
0.020833
147
0.0
147
0.0
147
0.0
147
0.0
147
0.020833
147
0.0
147
0.0
147
0.0
147
0.0
147
1.0
147
0.0
147
0.0
147
0.0
147
0.0
147
1.0
  0
MATERIAL
  5
21
102
{ACAD_XDICTIONARY
360
22
102
}
102
{ACAD_REACTORS
330
10
102
}
330
10
100
AcDbMaterial
  1
Global
 72
     0
 43
0.020833
 43
0.0
 43
0.0
 43
0.0
 43
0.0
 43
0.020833
 43
0.0
 43
0.0
 43
0.0
 43
0.0
 43
1.0
 43
0.0
 43
0.0
 43
0.0
 43
0.0
 43
1.0
 77
     0
 47
0.020833
 47
0.0
 47
0.0
 47
0.0
 47
0.0
 47
0.020833
 47
0.0
 47
0.0
 47
0.0
 47
0.0
 47
1.0
 47
0.0
 47
0.0
 47
0.0
 47
0.0
 47
1.0
171
     0
 49
0.020833
 49
0.0
 49
0.0
 49
0.0
 49
0.0
 49
0.020833
 49
0.0
 49
0.0
 49
0.0
 49
0.0
 49
1.0
 49
0.0
 49
0.0
 49
0.0
 49
0.0
 49
1.0
175
     0
142
0.020833
142
0.0
142
0.0
142
0.0
142
0.0
142
0.020833
142
0.0
142
0.0
142
0.0
142
0.0
142
1.0
142
0.0
142
0.0
142
0.0
142
0.0
142
1.0
179
     0
144
0.020833
144
0.0
144
0.0
144
0.0
144
0.0
144
0.020833
144
0.0
144
0.0
144
0.0
144
0.0
144
1.0
144
0.0
144
0.0
144
0.0
144
0.0
144
1.0
147
0.020833
147
0.0
147
0.0
147
0.0
147
0.0
147
0.020833
147
0.0
147
0.0
147
0.0
147
0.0
147
1.0
147
0.0
147
0.0
147
0.0
147
0.0
147
1.0
  0
MLEADERSTYLE
  5
67
102
{ACAD_REACTORS
330
66
102
}
330
66
100
AcDbMLeaderStyle
179
     2
170
     2
171
     1
172
     0
 90
        2
 40
0.0
 41
0.0
173
     1
 91
-1056964608
340
5B
 92
       -2
290
     1
 42
0.09
291
     1
 43
0.36
  3
Standard
 44
0.18
300

342
55
174
     1
178
     6
175
     1
176
     0
 93
-1056964608
 45
0.18
292
     0
297
     0
 46
0.18
 94
-1056964608
 47
1.0
 49
1.0
140
1.0
293
     1
141
0.0
294
     1
177
     0
142
1.0
295
     0
296
     0
143
0.125
271
     0
272
     9
273
     9
298
     1
  0
MLINESTYLE
  5
60
102
{ACAD_REACTORS
330
5F
102
}
330
5F
100
AcDbMlineStyle
  2
STANDARD
 70
     0
  3

 62
   256
 51
90.0
 52
90.0
 71
     0
  0
ACDBPLACEHOLDER
  5
F
102
{ACAD_REACTORS
330
E
102
}
330
E
  0
SCALE
  5
A2
102
{ACAD_REACTORS
330
42
102
}
330
42
100
AcDbScale
 70
     0
300
1:2
140
1.0
141
2.0
290
     0
  0
SCALE
  5
AB
102
{ACAD_REACTORS
330
42
102
}
330
42
100
AcDbScale
 70
     0
300
1:50
140
1.0
141
50.0
290
     0
  0
SCALE
  5
AC
102
{ACAD_REACTORS
330
42
102
}
330
42
100
AcDbScale
 70
     0
300
1:100
140
1.0
141
100.0
290
     0
  0
SCALE
  5
AD
102
{ACAD_REACTORS
330
42
102
}
330
42
100
AcDbScale
 70
     0
300
2:1
140
2.0
141
1.0
290
     0
  0
SCALE
  5
AE
102
{ACAD_REACTORS
330
42
102
}
330
42
100
AcDbScale
 70
     0
300
4:1
140
4.0
141
1.0
290
     0
  0
SCALE
  5
AF
102
{ACAD_REACTORS
330
42
102
}
330
42
100
AcDbScale
 70
     0
300
8:1
140
8.0
141
1.0
290
     0
  0
SCALE
  5
B0
102
{ACAD_REACTORS
330
42
102
}
330
42
100
AcDbScale
 70
     0
300
10:1
140
10.0
141
1.0
290
     0
  0
SCALE
  5
B1
102
{ACAD_REACTORS
330
42
102
}
330
42
100
AcDbScale
 70
     0
300
100:1
140
100.0
141
1.0
290
     0
  0
SCALE
  5
A3
102
{ACAD_REACTORS
330
42
102
}
330
42
100
AcDbScale
 70
     0
300
1:4
140
1.0
141
4.0
290
     0
  0
SCALE
  5
A4
102
{ACAD_REACTORS
330
42
102
}
330
42
100
AcDbScale
 70
     0
300
1:5
140
1.0
141
5.0
290
     0
  0
SCALE
  5
A5
102
{ACAD_REACTORS
330
42
102
}
330
42
100
AcDbScale
 70
     0
300
1:8
140
1.0
141
8.0
290
     0
  0
SCALE
  5
A6
102
{ACAD_REACTORS
330
42
102
}
330
42
100
AcDbScale
 70
     0
300
1:10
140
1.0
141
10.0
290
     0
  0
SCALE
  5
A7
102
{ACAD_REACTORS
330
42
102
}
330
42
100
AcDbScale
 70
     0
300
1:16
140
1.0
141
16.0
290
     0
  0
SCALE
  5
A8
102
{ACAD_REACTORS
330
42
102
}
330
42
100
AcDbScale
 70
     0
300
1:20
140
1.0
141
20.0
290
     0
  0
SCALE
  5
A9
102
{ACAD_REACTORS
330
42
102
}
330
42
100
AcDbScale
 70
     0
300
1:30
140
1.0
141
30.0
290
     0
  0
SCALE
  5
AA
102
{ACAD_REACTORS
330
42
102
}
330
42
100
AcDbScale
 70
     0
300
1:40
140
1.0
141
40.0
290
     0
  0
SCALE
  5
43
102
{ACAD_REACTORS
330
42
102
}
330
42
100
AcDbScale
 70
     0
300
1:1
140
1.0
141
1.0
290
     1
  0
SCALE
  5
44
102
{ACAD_REACTORS
330
42
102
}
330
42
100
AcDbScale
 70
     0
300
1/128" = 1'-0"
140
0.007813
141
12.0
290
     0
  0
SCALE
  5
45
102
{ACAD_REACTORS
330
42
102
}
330
42
100
AcDbScale
 70
     0
300
1/64" = 1'-0"
140
0.015625
141
12.0
290
     0
  0
SCALE
  5
46
102
{ACAD_REACTORS
330
42
102
}
330
42
100
AcDbScale
 70
     0
300
1/32" = 1'-0"
140
0.03125
141
12.0
290
     0
  0
SCALE
  5
47
102
{ACAD_REACTORS
330
42
102
}
330
42
100
AcDbScale
 70
     0
300
1/16" = 1'-0"
140
0.0625
141
12.0
290
     0
  0
SCALE
  5
48
102
{ACAD_REACTORS
330
42
102
}
330
42
100
AcDbScale
 70
     0
300
3/32" = 1'-0"
140
0.09375
141
12.0
290
     0
  0
SCALE
  5
49
102
{ACAD_REACTORS
330
42
102
}
330
42
100
AcDbScale
 70
     0
300
1/8" = 1'-0"
140
0.125
141
12.0
290
     0
  0
SCALE
  5
4A
102
{ACAD_REACTORS
330
42
102
}
330
42
100
AcDbScale
 70
     0
300
3/16" = 1'-0"
140
0.1875
141
12.0
290
     0
  0
SCALE
  5
4B
102
{ACAD_REACTORS
330
42
102
}
330
42
100
AcDbScale
 70
     0
300
1/4" = 1'-0"
140
0.25
141
12.0
290
     0
  0
SCALE
  5
4C
102
{ACAD_REACTORS
330
42
102
}
330
42
100
AcDbScale
 70
     0
300
3/8" = 1'-0"
140
0.375
141
12.0
290
     0
  0
SCALE
  5
4D
102
{ACAD_REACTORS
330
42
102
}
330
42
100
AcDbScale
 70
     0
300
1/2" = 1'-0"
140
0.5
141
12.0
290
     0
  0
SCALE
  5
4E
102
{ACAD_REACTORS
330
42
102
}
330
42
100
AcDbScale
 70
     0
300
3/4" = 1'-0"
140
0.75
141
12.0
290
     0
  0
SCALE
  5
4F
102
{ACAD_REACTORS
330
42
102
}
330
42
100
AcDbScale
 70
     0
300
1" = 1'-0"
140
1.0
141
12.0
290
     0
  0
SCALE
  5
50
102
{ACAD_REACTORS
330
42
102
}
330
42
100
AcDbScale
 70
     0
300
1-1/2" = 1'-0"
140
1.5
141
12.0
290
     0
  0
SCALE
  5
51
102
{ACAD_REACTORS
330
42
102
}
330
42
100
AcDbScale
 70
     0
300
3" = 1'-0"
140
3.0
141
12.0
290
     0
  0
SCALE
  5
52
102
{ACAD_REACTORS
330
42
102
}
330
42
100
AcDbScale
 70
     0
300
6" = 1'-0"
140
6.0
141
12.0
290
     0
  0
SCALE
  5
53
102
{ACAD_REACTORS
330
42
102
}
330
42
100
AcDbScale
 70
     0
300
1'-0" = 1'-0"
140
12.0
141
12.0
290
     0
  0
ACDBSECTIONVIEWSTYLE
  5
69
102
{ACAD_XDICTIONARY
360
446
102
}
102
{ACAD_REACTORS
330
68
102
}
330
68
100
AcDbModelDocViewStyle
 70
     0
  3
Imperial24
290
     0
100
AcDbSectionViewStyle
 70
     0
 71
     0
 90
       78
 71
     1
340
55
 62
   256
 40
0.24
340
0
340
0
 62
   256
 40
0.24
300
I, O, Q, S, X, Z
 40
0.48
 90
        3
 40
0.18
 90
        1
 71
     2
340
5D
 90
       25
 62
   256
340
5D
 90
       50
 62
   256
 40
0.24
 40
0.0
 40
0.24
 71
     3
340
55
 62
   256
 40
0.24
 90
        1
 40
0.75
 90
        1
300
%<\AcVar ViewType \f "%tc1">% %<\AcVar ViewSectionStartId>%-%<\AcVar ViewSectionEndId>%\PSCALE %<\AcVar ViewScale \f "%sn">%
 71
     4
 62
   256
 62
   257
300
ANSI31
 40
1.0
 90
        0
290
     0
290
     0
 90
        6
 40
0.0
 40
1.570796
 40
0.261799
 40
1.308997
 40
-0.261799
 40
1.832596
  0
TABLESTYLE
  5
65
102
{ACAD_XDICTIONARY
360
443
102
}
102
{ACAD_REACTORS
330
64
102
}
330
64
100
AcDbTableStyle
280
     0
  3
Standard
 70
     0
 71
     0
 40
0.06
 41
0.06
280
     0
281
     0
  7
Standard
140
0.18
170
     2
 62
     0
 63
     7
283
     0
 90
      512
 91
        0
  1

274
    -2
284
     1
 64
     0
275
    -2
285
     1
 65
     0
276
    -2
286
     1
 66
     0
277
    -2
287
     1
 67
     0
278
    -2
288
     1
 68
     0
279
    -2
289
     1
 69
     0
  7
Standard
140
0.25
170
     5
 62
     0
 63
     7
283
     0
 90
      512
 91
        0
  1

274
    -2
284
     1
 64
     0
275
    -2
285
     1
 65
     0
276
    -2
286
     1
 66
     0
277
    -2
287
     1
 67
     0
278
    -2
288
     1
 68
     0
279
    -2
289
     1
 69
     0
  7
Standard
140
0.18
170
     5
 62
     0
 63
     7
283
     0
 90
      512
 91
        0
  1

274
    -2
284
     1
 64
     0
275
    -2
285
     1
 65
     0
276
    -2
286
     1
 66
     0
277
    -2
287
     1
 67
     0
278
    -2
288
     1
 68
     0
279
    -2
289
     1
 69
     0
  0
VISUALSTYLE
  5
2F
102
{ACAD_REACTORS
330
29
102
}
330
29
100
AcDbVisualStyle
  2
2dWireframe
 70
     4
177
     3
291
     0
 70
    58
 90
        0
176
     1
 90
        2
176
     1
 90
        0
176
     1
 90
        0
176
     1
 40
0.6
176
     1
 40
30.0
176
     1
 62
     7
420
 16777215
176
     1
 90
        1
176
     1
 90
        4
176
     1
 62
     7
176
     1
 62
   257
176
     1
 90
        1
176
     1
 90
        1
176
     1
 40
1.0
176
     1
 90
        0
176
     1
 62
   257
176
     1
 40
1.0
176
     1
 90
        1
176
     1
 90
        6
176
     1
 90
        2
176
     1
 62
     7
176
     1
 90
        5
176
     1
 90
        0
176
     1
 90
        0
176
     1
290
     0
176
     1
 90
        1
176
     1
 40
0.0
176
     1
 90
        0
176
     1
290
     1
176
     1
290
     1
176
     1
290
     0
176
     1
290
     0
176
     1
290
     0
176
     1
290
     0
176
     1
290
     0
176
     1
290
     0
176
     1
290
     0
176
     1
 90
       50
176
     1
 40
0.0
176
     1
 40
1.0
176
     1
 90
        0
176
     1
 62
    18
420
        0
176
     1
 90
       50
176
     1
 90
        3
176
     1
 62
     5
420
      255
176
     1
290
     0
176
     1
 90
       50
176
     1
 90
       50
176
     1
 90
       50
176
     1
290
     0
176
     1
 90
       50
176
     1
 62
   256
176
     0
 40
1.0
176
     0
 90
        2
176
     1
  1
strokes_ogs.tif
176
     1
290
     0
176
     1
 40
1.0
176
     1
 40
1.0
176
     1
1001
ACAD
1000
AcDbSavedByObjectVersion
1070
     0
  0
VISUALSTYLE
  5
2E
102
{ACAD_REACTORS
330
29
102
}
330
29
100
AcDbVisualStyle
  2
Basic
 70
     7
177
     3
291
     1
 70
    58
 90
        1
176
     1
 90
        0
176
     1
 90
        1
176
     1
 90
        0
176
     1
 40
0.6
176
     1
 40
30.0
176
     1
 62
     7
420
 16777215
176
     1
 90
        0
176
     1
 90
        4
176
     1
 62
     7
176
     1
 62
   257
176
     1
 90
        1
176
     1
 90
        1
176
     1
 40
1.0
176
     1
 90
        8
176
     1
 62
     7
176
     1
 40
1.0
176
     1
 90
        1
176
     1
 90
        6
176
     1
 90
        2
176
     1
 62
     7
176
     1
 90
        5
176
     1
 90
        0
176
     1
 90
        0
176
     1
290
     0
176
     1
 90
        1
176
     1
 40
0.0
176
     1
 90
        0
176
     1
290
     0
176
     1
290
     1
176
     1
290
     1
176
     1
290
     0
176
     1
290
     0
176
     1
290
     0
176
     1
290
     0
176
     1
290
     0
176
     1
290
     0
176
     1
 90
       50
176
     1
 40
0.0
176
     1
 40
1.0
176
     1
 90
        0
176
     1
 62
    18
420
        0
176
     1
 90
       50
176
     1
 90
        3
176
     1
 62
     5
420
      255
176
     1
290
     0
176
     1
 90
       50
176
     1
 90
       50
176
     1
 90
       50
176
     1
290
     0
176
     1
 90
       50
176
     1
 62
   256
176
     0
 40
1.0
176
     0
 90
        2
176
     1
  1
strokes_ogs.tif
176
     1
290
     0
176
     1
 40
1.0
176
     1
 40
1.0
176
     1
1001
ACAD
1000
AcDbSavedByObjectVersion
1070
     0
  0
VISUALSTYLE
  5
35
102
{ACAD_REACTORS
330
29
102
}
330
29
100
AcDbVisualStyle
  2
Brighten
 70
    12
177
     3
291
     1
 70
    58
 90
        2
176
     1
 90
        2
176
     1
 90
        0
176
     1
 90
        0
176
     1
 40
0.6
176
     1
 40
30.0
176
     1
 62
     7
420
 16777215
176
     1
 90
        1
176
     1
 90
        4
176
     1
 62
     7
176
     1
 62
   257
176
     1
 90
        1
176
     1
 90
        1
176
     1
 40
1.0
176
     1
 90
        8
176
     1
 62
     7
176
     1
 40
1.0
176
     1
 90
        1
176
     1
 90
        6
176
     1
 90
        2
176
     1
 62
     7
176
     1
 90
        5
176
     1
 90
        0
176
     1
 90
        0
176
     1
290
     0
176
     1
 90
        1
176
     1
 40
50.0
176
     1
 90
        0
176
     1
290
     0
176
     1
290
     1
176
     1
290
     1
176
     1
290
     0
176
     1
290
     0
176
     1
290
     0
176
     1
290
     0
176
     1
290
     0
176
     1
290
     0
176
     1
 90
       50
176
     1
 40
0.0
176
     1
 40
1.0
176
     1
 90
        0
176
     1
 62
    18
420
        0
176
     1
 90
       50
176
     1
 90
        3
176
     1
 62
     5
420
      255
176
     1
290
     0
176
     1
 90
       50
176
     1
 90
       50
176
     1
 90
       50
176
     1
290
     0
176
     1
 90
       50
176
     1
 62
   256
176
     0
 40
1.0
176
     0
 90
        2
176
     1
  1
strokes_ogs.tif
176
     1
290
     0
176
     1
 40
1.0
176
     1
 40
1.0
176
     1
1001
ACAD
1000
AcDbSavedByObjectVersion
1070
     0
  0
VISUALSTYLE
  5
39
102
{ACAD_REACTORS
330
29
102
}
330
29
100
AcDbVisualStyle
  2
ColorChange
 70
    16
177
     3
291
     1
 70
    58
 90
        2
176
     1
 90
        2
176
     1
 90
        3
176
     1
 90
        0
176
     1
 40
0.6
176
     1
 40
30.0
176
     1
 62
     8
420
  8421504
176
     1
 90
        1
176
     1
 90
        4
176
     1
 62
     7
176
     1
 62
   257
176
     1
 90
        1
176
     1
 90
        1
176
     1
 40
1.0
176
     1
 90
        8
176
     1
 62
     8
420
  8421504
176
     1
 40
1.0
176
     1
 90
        1
176
     1
 90
        6
176
     1
 90
        2
176
     1
 62
     7
176
     1
 90
        5
176
     1
 90
        0
176
     1
 90
        0
176
     1
290
     0
176
     1
 90
        1
176
     1
 40
0.0
176
     1
 90
        0
176
     1
290
     0
176
     1
290
     1
176
     1
290
     1
176
     1
290
     0
176
     1
290
     0
176
     1
290
     0
176
     1
290
     0
176
     1
290
     0
176
     1
290
     0
176
     1
 90
       50
176
     1
 40
0.0
176
     1
 40
1.0
176
     1
 90
        0
176
     1
 62
    18
420
        0
176
     1
 90
       50
176
     1
 90
        3
176
     1
 62
     5
420
      255
176
     1
290
     0
176
     1
 90
       50
176
     1
 90
       50
176
     1
 90
       50
176
     1
290
     0
176
     1
 90
       50
176
     1
 62
   256
176
     0
 40
1.0
176
     0
 90
        2
176
     1
  1
strokes_ogs.tif
176
     1
290
     0
176
     1
 40
1.0
176
     1
 40
1.0
176
     1
1001
ACAD
1000
AcDbSavedByObjectVersion
1070
     0
  0
VISUALSTYLE
  5
32
102
{ACAD_REACTORS
330
29
102
}
330
29
100
AcDbVisualStyle
  2
Conceptual
 70
     9
177
     3
291
     0
 70
    58
 90
        3
176
     1
 90
        2
176
     1
 90
        0
176
     1
 90
        0
176
     1
 40
0.6
176
     1
 40
30.0
176
     1
 62
     7
420
 16777215
176
     1
 90
        2
176
     1
 90
        2
176
     1
 62
     7
176
     1
 62
   257
176
     1
 90
        1
176
     1
 90
        1
176
     1
 40
179.0
176
     1
 90
        8
176
     1
 62
     7
176
     1
 40
1.0
176
     1
 90
        1
176
     1
 90
        6
176
     1
 90
        2
176
     1
 62
     7
176
     1
 90
        3
176
     1
 90
        0
176
     1
 90
        0
176
     1
290
     0
176
     1
 90
        1
176
     1
 40
0.0
176
     1
 90
        0
176
     1
290
     0
176
     1
290
     1
176
     1
290
     1
176
     1
290
     0
176
     1
290
     0
176
     1
290
     0
176
     1
290
     0
176
     1
290
     0
176
     1
290
     0
176
     1
 90
       50
176
     1
 40
0.0
176
     1
 40
1.0
176
     1
 90
        0
176
     1
 62
    18
420
        0
176
     1
 90
       50
176
     1
 90
        3
176
     1
 62
     5
420
      255
176
     1
290
     0
176
     1
 90
       50
176
     1
 90
       50
176
     1
 90
       50
176
     1
290
     0
176
     1
 90
       50
176
     1
 62
   256
176
     0
 40
1.0
176
     0
 90
        2
176
     1
  1
strokes_ogs.tif
176
     1
290
     0
176
     1
 40
1.0
176
     1
 40
1.0
176
     1
1001
ACAD
1000
AcDbSavedByObjectVersion
1070
     0
  0
VISUALSTYLE
  5
34
102
{ACAD_REACTORS
330
29
102
}
330
29
100
AcDbVisualStyle
  2
Dim
 70
    11
177
     3
291
     1
 70
    58
 90
        2
176
     1
 90
        2
176
     1
 90
        0
176
     1
 90
        0
176
     1
 40
0.6
176
     1
 40
30.0
176
     1
 62
     7
420
 16777215
176
     1
 90
        1
176
     1
 90
        4
176
     1
 62
     7
176
     1
 62
   257
176
     1
 90
        1
176
     1
 90
        1
176
     1
 40
1.0
176
     1
 90
        8
176
     1
 62
     7
176
     1
 40
1.0
176
     1
 90
        1
176
     1
 90
        6
176
     1
 90
        2
176
     1
 62
     7
176
     1
 90
        5
176
     1
 90
        0
176
     1
 90
        0
176
     1
290
     0
176
     1
 90
        1
176
     1
 40
-50.0
176
     1
 90
        0
176
     1
290
     0
176
     1
290
     1
176
     1
290
     1
176
     1
290
     0
176
     1
290
     0
176
     1
290
     0
176
     1
290
     0
176
     1
290
     0
176
     1
290
     0
176
     1
 90
       50
176
     1
 40
0.0
176
     1
 40
1.0
176
     1
 90
        0
176
     1
 62
    18
420
        0
176
     1
 90
       50
176
     1
 90
        3
176
     1
 62
     5
420
      255
176
     1
290
     0
176
     1
 90
       50
176
     1
 90
       50
176
     1
 90
       50
176
     1
290
     0
176
     1
 90
       50
176
     1
 62
   256
176
     0
 40
1.0
176
     0
 90
        2
176
     1
  1
strokes_ogs.tif
176
     1
290
     0
176
     1
 40
1.0
176
     1
 40
1.0
176
     1
1001
ACAD
1000
AcDbSavedByObjectVersion
1070
     0
  0
VISUALSTYLE
  5
41
102
{ACAD_REACTORS
330
29
102
}
330
29
100
AcDbVisualStyle
  2
EdgeColorOff
 70
    22
177
     3
291
     1
 70
    58
 90
        2
176
     0
 90
        2
176
     0
 90
        0
176
     0
 90
        0
176
     0
 40
0.6
176
     0
 40
30.0
176
     0
 62
     7
420
 16777215
176
     0
 90
        1
176
     0
 90
        4
176
     0
 62
     7
176
     0
 62
   257
176
     0
 90
        1
176
     0
 90
        1
176
     0
 40
1.0
176
     0
 90
        8
176
     2
 62
     7
176
     0
 40
1.0
176
     0
 90
        1
176
     0
 90
        6
176
     0
 90
        2
176
     0
 62
     7
176
     0
 90
        5
176
     0
 90
        0
176
     0
 90
        0
176
     0
290
     0
176
     0
 90
        1
176
     0
 40
0.0
176
     0
 90
        0
176
     0
290
     0
176
     0
290
     1
176
     0
290
     1
176
     0
290
     0
176
     0
290
     0
176
     0
290
     0
176
     0
290
     0
176
     0
290
     0
176
     0
290
     0
176
     0
 90
       50
176
     0
 40
0.0
176
     0
 40
1.0
176
     0
 90
        0
176
     0
 62
    18
420
        0
176
     0
 90
       50
176
     0
 90
        3
176
     0
 62
     5
420
      255
176
     0
290
     0
176
     0
 90
       50
176
     0
 90
       50
176
     0
 90
       50
176
     0
290
     0
176
     0
 90
       50
176
     0
 62
   256
176
     0
 40
1.0
176
     0
 90
        2
176
     0
  1
strokes_ogs.tif
176
     0
290
     0
176
     0
 40
1.0
176
     0
 40
1.0
176
     0
1001
ACAD
1000
AcDbSavedByObjectVersion
1070
     0
  0
VISUALSTYLE
  5
38
102
{ACAD_REACTORS
330
29
102
}
330
29
100
AcDbVisualStyle
  2
Facepattern
 70
    15
177
     3
291
     1
 70
    58
 90
        2
176
     1
 90
        2
176
     1
 90
        0
176
     1
 90
        0
176
     1
 40
0.6
176
     1
 40
30.0
176
     1
 62
     7
420
 16777215
176
     1
 90
        1
176
     1
 90
        4
176
     1
 62
     7
176
     1
 62
   257
176
     1
 90
        1
176
     1
 90
        1
176
     1
 40
1.0
176
     1
 90
        8
176
     1
 62
     7
176
     1
 40
1.0
176
     1
 90
        1
176
     1
 90
        6
176
     1
 90
        2
176
     1
 62
     7
176
     1
 90
        5
176
     1
 90
        0
176
     1
 90
        0
176
     1
290
     0
176
     1
 90
        1
176
     1
 40
0.0
176
     1
 90
        0
176
     1
290
     0
176
     1
290
     1
176
     1
290
     1
176
     1
290
     0
176
     1
290
     0
176
     1
290
     0
176
     1
290
     0
176
     1
290
     0
176
     1
290
     0
176
     1
 90
       50
176
     1
 40
0.0
176
     1
 40
1.0
176
     1
 90
        0
176
     1
 62
    18
420
        0
176
     1
 90
       50
176
     1
 90
        3
176
     1
 62
     5
420
      255
176
     1
290
     0
176
     1
 90
       50
176
     1
 90
       50
176
     1
 90
       50
176
     1
290
     0
176
     1
 90
       50
176
     1
 62
   256
176
     0
 40
1.0
176
     0
 90
        2
176
     1
  1
strokes_ogs.tif
176
     1
290
     0
176
     1
 40
1.0
176
     1
 40
1.0
176
     1
1001
ACAD
1000
AcDbSavedByObjectVersion
1070
     0
  0
VISUALSTYLE
  5
2A
102
{ACAD_REACTORS
330
29
102
}
330
29
100
AcDbVisualStyle
  2
Flat
 70
     0
177
     3
291
     1
 70
    58
 90
        2
176
     1
 90
        1
176
     1
 90
        1
176
     1
 90
        2
176
     1
 40
0.6
176
     1
 40
30.0
176
     1
 62
     7
420
 16777215
176
     1
 90
        0
176
     1
 90
        0
176
     1
 62
     7
176
     1
 62
   257
176
     1
 90
        1
176
     1
 90
        1
176
     1
 40
1.0
176
     1
 90
        8
176
     1
 62
     7
176
     1
 40
1.0
176
     1
 90
        1
176
     1
 90
        6
176
     1
 90
        2
176
     1
 62
     7
176
     1
 90
        5
176
     1
 90
        0
176
     1
 90
        0
176
     1
290
     0
176
     1
 90
       13
176
     1
 40
0.0
176
     1
 90
        0
176
     1
290
     0
176
     1
290
     1
176
     1
290
     1
176
     1
290
     0
176
     1
290
     0
176
     1
290
     0
176
     1
290
     0
176
     1
290
     0
176
     1
290
     0
176
     1
 90
       50
176
     1
 40
0.0
176
     1
 40
1.0
176
     1
 90
        0
176
     1
 62
    18
420
        0
176
     1
 90
       50
176
     1
 90
        3
176
     1
 62
     5
420
      255
176
     1
290
     0
176
     1
 90
       50
176
     1
 90
       50
176
     1
 90
       50
176
     1
290
     0
176
     1
 90
       50
176
     1
 62
   256
176
     0
 40
1.0
176
     0
 90
        2
176
     1
  1
strokes_ogs.tif
176
     1
290
     0
176
     1
 40
1.0
176
     1
 40
1.0
176
     1
1001
ACAD
1000
AcDbSavedByObjectVersion
1070
     0
  0
VISUALSTYLE
  5
2B
102
{ACAD_REACTORS
330
29
102
}
330
29
100
AcDbVisualStyle
  2
FlatWithEdges
 70
     1
177
     3
291
     1
 70
    58
 90
        2
176
     1
 90
        1
176
     1
 90
        1
176
     1
 90
        2
176
     1
 40
0.6
176
     1
 40
30.0
176
     1
 62
     7
420
 16777215
176
     1
 90
        1
176
     1
 90
        0
176
     1
 62
     7
176
     1
 62
   257
176
     1
 90
        1
176
     1
 90
        1
176
     1
 40
1.0
176
     1
 90
        0
176
     1
 62
   257
176
     1
 40
1.0
176
     1
 90
        1
176
     1
 90
        6
176
     1
 90
        2
176
     1
 62
     7
176
     1
 90
        5
176
     1
 90
        0
176
     1
 90
        0
176
     1
290
     0
176
     1
 90
       13
176
     1
 40
0.0
176
     1
 90
        0
176
     1
290
     0
176
     1
290
     1
176
     1
290
     1
176
     1
290
     0
176
     1
290
     0
176
     1
290
     0
176
     1
290
     0
176
     1
290
     0
176
     1
290
     0
176
     1
 90
       50
176
     1
 40
0.0
176
     1
 40
1.0
176
     1
 90
        0
176
     1
 62
    18
420
        0
176
     1
 90
       50
176
     1
 90
        3
176
     1
 62
     5
420
      255
176
     1
290
     0
176
     1
 90
       50
176
     1
 90
       50
176
     1
 90
       50
176
     1
290
     0
176
     1
 90
       50
176
     1
 62
   256
176
     0
 40
1.0
176
     0
 90
        2
176
     1
  1
strokes_ogs.tif
176
     1
290
     0
176
     1
 40
1.0
176
     1
 40
1.0
176
     1
1001
ACAD
1000
AcDbSavedByObjectVersion
1070
     0
  0
VISUALSTYLE
  5
2C
102
{ACAD_REACTORS
330
29
102
}
330
29
100
AcDbVisualStyle
  2
Gouraud
 70
     2
177
     3
291
     1
 70
    58
 90
        2
176
     1
 90
        2
176
     1
 90
        1
176
     1
 90
        2
176
     1
 40
0.6
176
     1
 40
30.0
176
     1
 62
     7
420
 16777215
176
     1
 90
        0
176
     1
 90
        0
176
     1
 62
     7
176
     1
 62
   257
176
     1
 90
        1
176
     1
 90
        1
176
     1
 40
1.0
176
     1
 90
        0
176
     1
 62
     7
176
     1
 40
1.0
176
     1
 90
        1
176
     1
 90
        6
176
     1
 90
        2
176
     1
 62
     7
176
     1
 90
        5
176
     1
 90
        0
176
     1
 90
        0
176
     1
290
     0
176
     1
 90
       13
176
     1
 40
0.0
176
     1
 90
        0
176
     1
290
     0
176
     1
290
     1
176
     1
290
     1
176
     1
290
     0
176
     1
290
     0
176
     1
290
     0
176
     1
290
     0
176
     1
290
     0
176
     1
290
     0
176
     1
 90
       50
176
     1
 40
0.0
176
     1
 40
1.0
176
     1
 90
        0
176
     1
 62
    18
420
        0
176
     1
 90
       50
176
     1
 90
        3
176
     1
 62
     5
420
      255
176
     1
290
     0
176
     1
 90
       50
176
     1
 90
       50
176
     1
 90
       50
176
     1
290
     0
176
     1
 90
       50
176
     1
 62
   256
176
     0
 40
1.0
176
     0
 90
        2
176
     1
  1
strokes_ogs.tif
176
     1
290
     0
176
     1
 40
1.0
176
     1
 40
1.0
176
     1
1001
ACAD
1000
AcDbSavedByObjectVersion
1070
     0
  0
VISUALSTYLE
  5
2D
102
{ACAD_REACTORS
330
29
102
}
330
29
100
AcDbVisualStyle
  2
GouraudWithEdges
 70
     3
177
     3
291
     1
 70
    58
 90
        2
176
     1
 90
        2
176
     1
 90
        1
176
     1
 90
        2
176
     1
 40
0.6
176
     1
 40
30.0
176
     1
 62
     7
420
 16777215
176
     1
 90
        1
176
     1
 90
        0
176
     1
 62
     7
176
     1
 62
   257
176
     1
 90
        1
176
     1
 90
        1
176
     1
 40
1.0
176
     1
 90
        0
176
     1
 62
   257
176
     1
 40
1.0
176
     1
 90
        1
176
     1
 90
        6
176
     1
 90
        2
176
     1
 62
     7
176
     1
 90
        5
176
     1
 90
        0
176
     1
 90
        0
176
     1
290
     0
176
     1
 90
       13
176
     1
 40
0.0
176
     1
 90
        0
176
     1
290
     0
176
     1
290
     1
176
     1
290
     1
176
     1
290
     0
176
     1
290
     0
176
     1
290
     0
176
     1
290
     0
176
     1
290
     0
176
     1
290
     0
176
     1
 90
       50
176
     1
 40
0.0
176
     1
 40
1.0
176
     1
 90
        0
176
     1
 62
    18
420
        0
176
     1
 90
       50
176
     1
 90
        3
176
     1
 62
     5
420
      255
176
     1
290
     0
176
     1
 90
       50
176
     1
 90
       50
176
     1
 90
       50
176
     1
290
     0
176
     1
 90
       50
176
     1
 62
   256
176
     0
 40
1.0
176
     0
 90
        2
176
     1
  1
strokes_ogs.tif
176
     1
290
     0
176
     1
 40
1.0
176
     1
 40
1.0
176
     1
1001
ACAD
1000
AcDbSavedByObjectVersion
1070
     0
  0
VISUALSTYLE
  5
31
102
{ACAD_REACTORS
330
29
102
}
330
29
100
AcDbVisualStyle
  2
Hidden
 70
     6
177
     3
291
     0
 70
    58
 90
        1
176
     1
 90
        2
176
     1
 90
        2
176
     1
 90
        0
176
     1
 40
0.6
176
     1
 40
30.0
176
     1
 62
     7
420
 16777215
176
     1
 90
        2
176
     1
 90
        2
176
     1
 62
     7
176
     1
 62
   257
176
     1
 90
        2
176
     1
 90
        1
176
     1
 40
40.0
176
     1
 90
        0
176
     1
 62
   257
176
     1
 40
1.0
176
     1
 90
        1
176
     1
 90
        6
176
     1
 90
        2
176
     1
 62
     7
176
     1
 90
        3
176
     1
 90
        0
176
     1
 90
        0
176
     1
290
     0
176
     1
 90
        1
176
     1
 40
0.0
176
     1
 90
        0
176
     1
290
     0
176
     1
290
     1
176
     1
290
     1
176
     1
290
     0
176
     1
290
     0
176
     1
290
     0
176
     1
290
     0
176
     1
290
     0
176
     1
290
     0
176
     1
 90
       50
176
     1
 40
0.0
176
     1
 40
1.0
176
     1
 90
        0
176
     1
 62
    18
420
        0
176
     1
 90
       50
176
     1
 90
        3
176
     1
 62
     5
420
      255
176
     1
290
     0
176
     1
 90
       50
176
     1
 90
       50
176
     1
 90
       50
176
     1
290
     0
176
     1
 90
       50
176
     1
 62
   256
176
     0
 40
1.0
176
     0
 90
        2
176
     1
  1
strokes_ogs.tif
176
     1
290
     0
176
     1
 40
1.0
176
     1
 40
1.0
176
     1
1001
ACAD
1000
AcDbSavedByObjectVersion
1070
     0
  0
VISUALSTYLE
  5
3F
102
{ACAD_REACTORS
330
29
102
}
330
29
100
AcDbVisualStyle
  2
JitterOff
 70
    20
177
     3
291
     1
 70
    58
 90
        2
176
     0
 90
        2
176
     0
 90
        0
176
     0
 90
        0
176
     0
 40
0.6
176
     0
 40
30.0
176
     0
 62
     7
420
 16777215
176
     0
 90
        1
176
     0
 90
        4
176
     0
 62
     7
176
     0
 62
   257
176
     0
 90
        1
176
     0
 90
        1
176
     0
 40
1.0
176
     0
 90
       10
176
     2
 62
     7
176
     0
 40
1.0
176
     0
 90
        1
176
     0
 90
        6
176
     0
 90
        2
176
     0
 62
     7
176
     0
 90
        5
176
     0
 90
        0
176
     0
 90
        0
176
     0
290
     0
176
     0
 90
        1
176
     0
 40
0.0
176
     0
 90
        0
176
     0
290
     0
176
     0
290
     1
176
     0
290
     1
176
     0
290
     0
176
     0
290
     0
176
     0
290
     0
176
     0
290
     0
176
     0
290
     0
176
     0
290
     0
176
     0
 90
       50
176
     0
 40
0.0
176
     0
 40
1.0
176
     0
 90
        0
176
     0
 62
    18
420
        0
176
     0
 90
       50
176
     0
 90
        3
176
     0
 62
     5
420
      255
176
     0
290
     0
176
     0
 90
       50
176
     0
 90
       50
176
     0
 90
       50
176
     0
290
     0
176
     0
 90
       50
176
     0
 62
   256
176
     0
 40
1.0
176
     0
 90
        2
176
     0
  1
strokes_ogs.tif
176
     0
290
     0
176
     0
 40
1.0
176
     0
 40
1.0
176
     0
1001
ACAD
1000
AcDbSavedByObjectVersion
1070
     0
  0
VISUALSTYLE
  5
37
102
{ACAD_REACTORS
330
29
102
}
330
29
100
AcDbVisualStyle
  2
Linepattern
 70
    14
177
     3
291
     1
 70
    58
 90
        2
176
     1
 90
        2
176
     1
 90
        0
176
     1
 90
        0
176
     1
 40
0.6
176
     1
 40
30.0
176
     1
 62
     7
420
 16777215
176
     1
 90
        1
176
     1
 90
        4
176
     1
 62
     7
176
     1
 62
   257
176
     1
 90
        7
176
     1
 90
        7
176
     1
 40
1.0
176
     1
 90
        8
176
     1
 62
     7
176
     1
 40
1.0
176
     1
 90
        1
176
     1
 90
        6
176
     1
 90
        2
176
     1
 62
     7
176
     1
 90
        5
176
     1
 90
        0
176
     1
 90
        0
176
     1
290
     0
176
     1
 90
        1
176
     1
 40
0.0
176
     1
 90
        0
176
     1
290
     0
176
     1
290
     1
176
     1
290
     1
176
     1
290
     0
176
     1
290
     0
176
     1
290
     0
176
     1
290
     0
176
     1
290
     0
176
     1
290
     0
176
     1
 90
       50
176
     1
 40
0.0
176
     1
 40
1.0
176
     1
 90
        0
176
     1
 62
    18
420
        0
176
     1
 90
       50
176
     1
 90
        3
176
     1
 62
     5
420
      255
176
     1
290
     0
176
     1
 90
       50
176
     1
 90
       50
176
     1
 90
       50
176
     1
290
     0
176
     1
 90
       50
176
     1
 62
   256
176
     0
 40
1.0
176
     0
 90
        2
176
     1
  1
strokes_ogs.tif
176
     1
290
     0
176
     1
 40
1.0
176
     1
 40
1.0
176
     1
1001
ACAD
1000
AcDbSavedByObjectVersion
1070
     0
  0
VISUALSTYLE
  5
40
102
{ACAD_REACTORS
330
29
102
}
330
29
100
AcDbVisualStyle
  2
OverhangOff
 70
    21
177
     3
291
     1
 70
    58
 90
        2
176
     0
 90
        2
176
     0
 90
        0
176
     0
 90
        0
176
     0
 40
0.6
176
     0
 40
30.0
176
     0
 62
     7
420
 16777215
176
     0
 90
        1
176
     0
 90
        4
176
     0
 62
     7
176
     0
 62
   257
176
     0
 90
        1
176
     0
 90
        1
176
     0
 40
1.0
176
     0
 90
        9
176
     2
 62
     7
176
     0
 40
1.0
176
     0
 90
        1
176
     0
 90
        6
176
     0
 90
        2
176
     0
 62
     7
176
     0
 90
        5
176
     0
 90
        0
176
     0
 90
        0
176
     0
290
     0
176
     0
 90
        1
176
     0
 40
0.0
176
     0
 90
        0
176
     0
290
     0
176
     0
290
     1
176
     0
290
     1
176
     0
290
     0
176
     0
290
     0
176
     0
290
     0
176
     0
290
     0
176
     0
290
     0
176
     0
290
     0
176
     0
 90
       50
176
     0
 40
0.0
176
     0
 40
1.0
176
     0
 90
        0
176
     0
 62
    18
420
        0
176
     0
 90
       50
176
     0
 90
        3
176
     0
 62
     5
420
      255
176
     0
290
     0
176
     0
 90
       50
176
     0
 90
       50
176
     0
 90
       50
176
     0
290
     0
176
     0
 90
       50
176
     0
 62
   256
176
     0
 40
1.0
176
     0
 90
        2
176
     0
  1
strokes_ogs.tif
176
     0
290
     0
176
     0
 40
1.0
176
     0
 40
1.0
176
     0
1001
ACAD
1000
AcDbSavedByObjectVersion
1070
     0
  0
VISUALSTYLE
  5
33
102
{ACAD_REACTORS
330
29
102
}
330
29
100
AcDbVisualStyle
  2
Realistic
 70
     8
177
     3
291
     0
 70
    58
 90
        2
176
     1
 90
        3
176
     1
 90
        0
176
     1
 90
        2
176
     1
 40
0.6
176
     1
 40
30.0
176
     1
 62
     7
420
 16777215
176
     1
 90
        0
176
     1
 90
        0
176
     1
 62
     7
176
     1
 62
   257
176
     1
 90
        1
176
     1
 90
        1
176
     1
 40
1.0
176
     1
 90
        8
176
     1
 62
   257
176
     1
 40
1.0
176
     1
 90
        1
176
     1
 90
        6
176
     1
 90
        2
176
     1
 62
     7
176
     1
 90
        3
176
     1
 90
        0
176
     1
 90
        0
176
     1
290
     0
176
     1
 90
       13
176
     1
 40
0.0
176
     1
 90
        0
176
     1
290
     0
176
     1
290
     1
176
     1
290
     1
176
     1
290
     0
176
     1
290
     0
176
     1
290
     0
176
     1
290
     0
176
     1
290
     0
176
     1
290
     0
176
     1
 90
       50
176
     1
 40
0.0
176
     1
 40
1.0
176
     1
 90
        0
176
     1
 62
    18
420
        0
176
     1
 90
       50
176
     1
 90
        3
176
     1
 62
     5
420
      255
176
     1
290
     0
176
     1
 90
       50
176
     1
 90
       50
176
     1
 90
       50
176
     1
290
     0
176
     1
 90
       50
176
     1
 62
   256
176
     0
 40
1.0
176
     0
 90
        2
176
     1
  1
strokes_ogs.tif
176
     1
290
     0
176
     1
 40
1.0
176
     1
 40
1.0
176
     1
1001
ACAD
1000
AcDbSavedByObjectVersion
1070
     0
  0
VISUALSTYLE
  5
3E
102
{ACAD_REACTORS
330
29
102
}
330
29
100
AcDbVisualStyle
  2
Shaded
 70
    27
177
     3
291
     0
 70
    58
 90
        2
176
     1
 90
        2
176
     1
 90
        1
176
     1
 90
        2
176
     1
 40
0.6
176
     1
 40
30.0
176
     1
 62
     7
420
 16777215
176
     1
 90
        0
176
     1
 90
        4
176
     1
 62
     7
176
     1
 62
   257
176
     1
 90
        1
176
     1
 90
        1
176
     1
 40
1.0
176
     1
 90
        8
176
     1
 62
   257
176
     1
 40
1.0
176
     1
 90
        1
176
     1
 90
        6
176
     1
 90
        2
176
     1
 62
     8
420
  7895160
176
     1
 90
        3
176
     1
 90
        0
176
     1
 90
        0
176
     1
290
     0
176
     1
 90
        5
176
     1
 40
0.0
176
     1
 90
        0
176
     1
290
     0
176
     1
290
     1
176
     1
290
     1
176
     1
290
     0
176
     1
290
     0
176
     1
290
     0
176
     1
290
     0
176
     1
290
     0
176
     1
290
     0
176
     1
 90
       50
176
     1
 40
0.0
176
     1
 40
1.0
176
     1
 90
        0
176
     1
 62
    18
420
        0
176
     1
 90
       50
176
     1
 90
        3
176
     1
 62
     5
420
      255
176
     1
290
     0
176
     1
 90
       50
176
     1
 90
       50
176
     1
 90
       50
176
     1
290
     0
176
     1
 90
       50
176
     1
 62
   256
176
     0
 40
1.0
176
     0
 90
        2
176
     1
  1
strokes_ogs.tif
176
     1
290
     0
176
     1
 40
1.0
176
     1
 40
1.0
176
     1
1001
ACAD
1000
AcDbSavedByObjectVersion
1070
     0
  0
VISUALSTYLE
  5
3D
102
{ACAD_REACTORS
330
29
102
}
330
29
100
AcDbVisualStyle
  2
Shaded with edges
 70
    26
177
     3
291
     0
 70
    58
 90
        2
176
     1
 90
        2
176
     1
 90
        1
176
     1
 90
        2
176
     1
 40
0.6
176
     1
 40
30.0
176
     1
 62
     7
420
 16777215
176
     1
 90
        1
176
     1
 90
        2
176
     1
 62
     7
176
     1
 62
   257
176
     1
 90
        2
176
     1
 90
        1
176
     1
 40
1.0
176
     1
 90
        8
176
     1
 62
   257
176
     1
 40
1.0
176
     1
 90
        1
176
     1
 90
        6
176
     1
 90
        2
176
     1
 62
     7
176
     1
 90
        3
176
     1
 90
        0
176
     1
 90
        0
176
     1
290
     0
176
     1
 90
        5
176
     1
 40
0.0
176
     1
 90
        0
176
     1
290
     0
176
     1
290
     1
176
     1
290
     1
176
     1
290
     0
176
     1
290
     0
176
     1
290
     0
176
     1
290
     0
176
     1
290
     0
176
     1
290
     0
176
     1
 90
       50
176
     1
 40
0.0
176
     1
 40
1.0
176
     1
 90
        0
176
     1
 62
    18
420
        0
176
     1
 90
       50
176
     1
 90
        3
176
     1
 62
     5
420
      255
176
     1
290
     0
176
     1
 90
       50
176
     1
 90
       50
176
     1
 90
       50
176
     1
290
     0
176
     1
 90
       50
176
     1
 62
   256
176
     0
 40
1.0
176
     0
 90
        2
176
     1
  1
strokes_ogs.tif
176
     1
290
     0
176
     1
 40
1.0
176
     1
 40
1.0
176
     1
1001
ACAD
1000
AcDbSavedByObjectVersion
1070
     0
  0
VISUALSTYLE
  5
3A
102
{ACAD_REACTORS
330
29
102
}
330
29
100
AcDbVisualStyle
  2
Shades of Gray
 70
    23
177
     3
291
     0
 70
    58
 90
        2
176
     1
 90
        2
176
     1
 90
        3
176
     1
 90
        0
176
     1
 40
0.6
176
     1
 40
30.0
176
     1
 62
     7
420
 16777215
176
     1
 90
        2
176
     1
 90
        2
176
     1
 62
     7
176
     1
 62
     7
176
     1
 90
        1
176
     1
 90
        1
176
     1
 40
40.0
176
     1
 90
        8
176
     1
 62
     7
176
     1
 40
1.0
176
     1
 90
        1
176
     1
 90
        6
176
     1
 90
        2
176
     1
 62
     7
176
     1
 90
        3
176
     1
 90
        0
176
     1
 90
        0
176
     1
290
     0
176
     1
 90
        1
176
     1
 40
0.0
176
     1
 90
        0
176
     1
290
     0
176
     1
290
     1
176
     1
290
     1
176
     1
290
     0
176
     1
290
     0
176
     1
290
     0
176
     1
290
     0
176
     1
290
     0
176
     1
290
     0
176
     1
 90
       50
176
     1
 40
0.0
176
     1
 40
1.0
176
     1
 90
        0
176
     1
 62
    18
420
        0
176
     1
 90
       50
176
     1
 90
        3
176
     1
 62
     5
420
      255
176
     1
290
     0
176
     1
 90
       50
176
     1
 90
       50
176
     1
 90
       50
176
     1
290
     0
176
     1
 90
       50
176
     1
 62
   256
176
     0
 40
1.0
176
     0
 90
        2
176
     1
  1
strokes_ogs.tif
176
     1
290
     0
176
     1
 40
1.0
176
     1
 40
1.0
176
     1
1001
ACAD
1000
AcDbSavedByObjectVersion
1070
     0
  0
VISUALSTYLE
  5
3B
102
{ACAD_REACTORS
330
29
102
}
330
29
100
AcDbVisualStyle
  2
Sketchy
 70
    24
177
     3
291
     0
 70
    58
 90
        1
176
     1
 90
        2
176
     1
 90
        2
176
     1
 90
        0
176
     1
 40
0.6
176
     1
 40
30.0
176
     1
 62
     7
420
 16777215
176
     1
 90
        2
176
     1
 90
        2
176
     1
 62
     7
176
     1
 62
     7
176
     1
 90
        1
176
     1
 90
        1
176
     1
 40
40.0
176
     1
 90
       11
176
     1
 62
     7
176
     1
 40
1.0
176
     1
 90
        1
176
     1
 90
        6
176
     1
 90
        2
176
     1
 62
     7
176
     1
 90
        6
176
     1
 90
        0
176
     1
 90
        0
176
     1
290
     0
176
     1
 90
        1
176
     1
 40
0.0
176
     1
 90
        0
176
     1
290
     0
176
     1
290
     1
176
     1
290
     1
176
     1
290
     0
176
     1
290
     0
176
     1
290
     0
176
     1
290
     0
176
     1
290
     0
176
     1
290
     0
176
     1
 90
       50
176
     1
 40
0.0
176
     1
 40
1.0
176
     1
 90
        0
176
     1
 62
    18
420
        0
176
     1
 90
       50
176
     1
 90
        3
176
     1
 62
     5
420
      255
176
     1
290
     0
176
     1
 90
       50
176
     1
 90
       50
176
     1
 90
       50
176
     1
290
     0
176
     1
 90
       50
176
     1
 62
   256
176
     0
 40
1.0
176
     0
 90
        2
176
     1
  1
strokes_ogs.tif
176
     1
290
     0
176
     1
 40
1.0
176
     1
 40
1.0
176
     1
1001
ACAD
1000
AcDbSavedByObjectVersion
1070
     0
  0
VISUALSTYLE
  5
36
102
{ACAD_REACTORS
330
29
102
}
330
29
100
AcDbVisualStyle
  2
Thicken
 70
    13
177
     3
291
     1
 70
    58
 90
        2
176
     1
 90
        2
176
     1
 90
        0
176
     1
 90
        0
176
     1
 40
0.6
176
     1
 40
30.0
176
     1
 62
     7
420
 16777215
176
     1
 90
        1
176
     1
 90
        4
176
     1
 62
     7
176
     1
 62
   257
176
     1
 90
        1
176
     1
 90
        1
176
     1
 40
1.0
176
     1
 90
       12
176
     1
 62
     7
176
     1
 40
1.0
176
     1
 90
        1
176
     1
 90
        6
176
     1
 90
        2
176
     1
 62
     7
176
     1
 90
        5
176
     1
 90
        0
176
     1
 90
        0
176
     1
290
     0
176
     1
 90
        1
176
     1
 40
0.0
176
     1
 90
        0
176
     1
290
     0
176
     1
290
     1
176
     1
290
     1
176
     1
290
     0
176
     1
290
     0
176
     1
290
     0
176
     1
290
     0
176
     1
290
     0
176
     1
290
     0
176
     1
 90
       50
176
     1
 40
0.0
176
     1
 40
1.0
176
     1
 90
        0
176
     1
 62
    18
420
        0
176
     1
 90
       50
176
     1
 90
        3
176
     1
 62
     5
420
      255
176
     1
290
     0
176
     1
 90
       50
176
     1
 90
       50
176
     1
 90
       50
176
     1
290
     0
176
     1
 90
       50
176
     1
 62
   256
176
     0
 40
1.0
176
     0
 90
        2
176
     1
  1
strokes_ogs.tif
176
     1
290
     0
176
     1
 40
1.0
176
     1
 40
1.0
176
     1
1001
ACAD
1000
AcDbSavedByObjectVersion
1070
     0
  0
VISUALSTYLE
  5
30
102
{ACAD_REACTORS
330
29
102
}
330
29
100
AcDbVisualStyle
  2
Wireframe
 70
     5
177
     3
291
     0
 70
    58
 90
        0
176
     1
 90
        2
176
     1
 90
        0
176
     1
 90
        0
176
     1
 40
0.6
176
     1
 40
30.0
176
     1
 62
     7
420
 16777215
176
     1
 90
        1
176
     1
 90
        4
176
     1
 62
     7
176
     1
 62
   257
176
     1
 90
        1
176
     1
 90
        1
176
     1
 40
1.0
176
     1
 90
        0
176
     1
 62
   257
176
     1
 40
1.0
176
     1
 90
        1
176
     1
 90
        6
176
     1
 90
        2
176
     1
 62
     7
176
     1
 90
        3
176
     1
 90
        0
176
     1
 90
        0
176
     1
290
     0
176
     1
 90
        1
176
     1
 40
0.0
176
     1
 90
        0
176
     1
290
     0
176
     1
290
     1
176
     1
290
     1
176
     1
290
     0
176
     1
290
     0
176
     1
290
     0
176
     1
290
     0
176
     1
290
     0
176
     1
290
     0
176
     1
 90
       50
176
     1
 40
0.0
176
     1
 40
1.0
176
     1
 90
        0
176
     1
 62
    18
420
        0
176
     1
 90
       50
176
     1
 90
        3
176
     1
 62
     5
420
      255
176
     1
290
     0
176
     1
 90
       50
176
     1
 90
       50
176
     1
 90
       50
176
     1
290
     0
176
     1
 90
       50
176
     1
 62
   256
176
     0
 40
1.0
176
     0
 90
        2
176
     1
  1
strokes_ogs.tif
176
     1
290
     0
176
     1
 40
1.0
176
     1
 40
1.0
176
     1
1001
ACAD
1000
AcDbSavedByObjectVersion
1070
     0
  0
VISUALSTYLE
  5
3C
102
{ACAD_REACTORS
330
29
102
}
330
29
100
AcDbVisualStyle
  2
X-Ray
 70
    25
177
     3
291
     0
 70
    58
 90
        2
176
     1
 90
        2
176
     1
 90
        1
176
     1
 90
        1
176
     1
 40
0.5
176
     1
 40
30.0
176
     1
 62
     7
420
 16777215
176
     1
 90
        1
176
     1
 90
        0
176
     1
 62
     7
176
     1
 62
   257
176
     1
 90
        1
176
     1
 90
        1
176
     1
 40
1.0
176
     1
 90
        8
176
     1
 62
     7
176
     1
 40
1.0
176
     1
 90
        1
176
     1
 90
        6
176
     1
 90
        2
176
     1
 62
     7
176
     1
 90
        3
176
     1
 90
        0
176
     1
 90
        0
176
     1
290
     0
176
     1
 90
       13
176
     1
 40
0.0
176
     1
 90
        0
176
     1
290
     0
176
     1
290
     1
176
     1
290
     1
176
     1
290
     0
176
     1
290
     0
176
     1
290
     0
176
     1
290
     0
176
     1
290
     0
176
     1
290
     0
176
     1
 90
       50
176
     1
 40
0.0
176
     1
 40
1.0
176
     1
 90
        0
176
     1
 62
    18
420
        0
176
     1
 90
       50
176
     1
 90
        3
176
     1
 62
     5
420
      255
176
     1
290
     0
176
     1
 90
       50
176
     1
 90
       50
176
     1
 90
       50
176
     1
290
     0
176
     1
 90
       50
176
     1
 62
   256
176
     0
 40
1.0
176
     0
 90
        2
176
     1
  1
strokes_ogs.tif
176
     1
290
     0
176
     1
 40
1.0
176
     1
 40
1.0
176
     1
1001
ACAD
1000
AcDbSavedByObjectVersion
1070
     0
  0
DICTIONARYVAR
  5
441
102
{ACAD_REACTORS
330
43C
102
}
330
43C
100
DictionaryVariables
280
     0
  1
0
  0
DICTIONARYVAR
  5
442
102
{ACAD_REACTORS
330
43C
102
}
330
43C
100
DictionaryVariables
280
     0
  1
1:1
  0
DICTIONARYVAR
  5
43E
102
{ACAD_REACTORS
330
43C
102
}
330
43C
100
DictionaryVariables
280
     0
  1
STANDARD
  0
DICTIONARYVAR
  5
43D
102
{ACAD_REACTORS
330
43C
102
}
330
43C
100
DictionaryVariables
280
     0
  1
STANDARD
  0
DICTIONARYVAR
  5
43F
102
{ACAD_REACTORS
330
43C
102
}
330
43C
100
DictionaryVariables
280
     0
  1
Imperial24
  0
DICTIONARYVAR
  5
440
102
{ACAD_REACTORS
330
43C
102
}
330
43C
100
DictionaryVariables
280
     0
  1
Imperial24
  0
DICTIONARY
  5
448
330
6B
100
AcDbDictionary
280
     1
281
     1
  3
ACAD_XREC_ROUNDTRIP
360
449
  0
DICTIONARY
  5
1A
330
19
100
AcDbDictionary
280
     1
281
     1
  3
BUMPTILE
360
1C
  3
DIFFUSETILE
360
1B
  3
OPACITYTILE
360
1F
  3
REFLECTIONTILE
360
1E
  3
REFRACTIONTILE
360
20
  3
SPECULARTILE
360
1D
  0
DICTIONARY
  5
12
330
11
100
AcDbDictionary
280
     1
281
     1
  3
BUMPTILE
360
14
  3
DIFFUSETILE
360
13
  3
OPACITYTILE
360
17
  3
REFLECTIONTILE
360
16
  3
REFRACTIONTILE
360
18
  3
SPECULARTILE
360
15
  0
DICTIONARY
  5
22
330
21
100
AcDbDictionary
280
     1
281
     1
  3
BUMPTILE
360
24
  3
DIFFUSETILE
360
23
  3
OPACITYTILE
360
27
  3
REFLECTIONTILE
360
26
  3
REFRACTIONTILE
360
28
  3
SPECULARTILE
360
25
  0
DICTIONARY
  5
446
330
69
100
AcDbDictionary
280
     1
281
     1
  3
ACAD_XREC_ROUNDTRIP
360
447
  0
DICTIONARY
  5
443
330
65
100
AcDbDictionary
280
     1
281
     1
  3
ACAD_ROUNDTRIP_2008_TABLESTYLE_CELLSTYLEMAP
360
444
  0
XRECORD
  5
449
102
{ACAD_REACTORS
330
448
102
}
330
448
100
AcDbXrecord
280
     1
102
DISPLAYNAME
  1
Imperial24
102
FLAGS
 90
        0
  0
XRECORD
  5
1C
102
{ACAD_REACTORS
330
1A
102
}
330
1A
100
AcDbXrecord
280
     1
270
     1
271
     1
  0
XRECORD
  5
1B
102
{ACAD_REACTORS
330
1A
102
}
330
1A
100
AcDbXrecord
280
     1
270
     1
271
     1
  0
XRECORD
  5
1F
102
{ACAD_REACTORS
330
1A
102
}
330
1A
100
AcDbXrecord
280
     1
270
     1
271
     1
  0
XRECORD
  5
1E
102
{ACAD_REACTORS
330
1A
102
}
330
1A
100
AcDbXrecord
280
     1
270
     1
271
     1
  0
XRECORD
  5
20
102
{ACAD_REACTORS
330
1A
102
}
330
1A
100
AcDbXrecord
280
     1
270
     1
271
     1
  0
XRECORD
  5
1D
102
{ACAD_REACTORS
330
1A
102
}
330
1A
100
AcDbXrecord
280
     1
270
     1
271
     1
  0
XRECORD
  5
14
102
{ACAD_REACTORS
330
12
102
}
330
12
100
AcDbXrecord
280
     1
270
     1
271
     1
  0
XRECORD
  5
13
102
{ACAD_REACTORS
330
12
102
}
330
12
100
AcDbXrecord
280
     1
270
     1
271
     1
  0
XRECORD
  5
17
102
{ACAD_REACTORS
330
12
102
}
330
12
100
AcDbXrecord
280
     1
270
     1
271
     1
  0
XRECORD
  5
16
102
{ACAD_REACTORS
330
12
102
}
330
12
100
AcDbXrecord
280
     1
270
     1
271
     1
  0
XRECORD
  5
18
102
{ACAD_REACTORS
330
12
102
}
330
12
100
AcDbXrecord
280
     1
270
     1
271
     1
  0
XRECORD
  5
15
102
{ACAD_REACTORS
330
12
102
}
330
12
100
AcDbXrecord
280
     1
270
     1
271
     1
  0
XRECORD
  5
24
102
{ACAD_REACTORS
330
22
102
}
330
22
100
AcDbXrecord
280
     1
270
     1
271
     1
  0
XRECORD
  5
23
102
{ACAD_REACTORS
330
22
102
}
330
22
100
AcDbXrecord
280
     1
270
     1
271
     1
  0
XRECORD
  5
27
102
{ACAD_REACTORS
330
22
102
}
330
22
100
AcDbXrecord
280
     1
270
     1
271
     1
  0
XRECORD
  5
26
102
{ACAD_REACTORS
330
22
102
}
330
22
100
AcDbXrecord
280
     1
270
     1
271
     1
  0
XRECORD
  5
28
102
{ACAD_REACTORS
330
22
102
}
330
22
100
AcDbXrecord
280
     1
270
     1
271
     1
  0
XRECORD
  5
25
102
{ACAD_REACTORS
330
22
102
}
330
22
100
AcDbXrecord
280
     1
270
     1
271
     1
  0
XRECORD
  5
447
102
{ACAD_REACTORS
330
446
102
}
330
446
100
AcDbXrecord
280
     1
102
DISPLAYNAME
  1
Imperial24
102
FLAGS
 90
        0
  0
CELLSTYLEMAP
  5
444
102
{ACAD_REACTORS
330
443
102
}
330
443
100
AcDbCellStyleMap
 90
        3
300
CELLSTYLE
  1
TABLEFORMAT_BEGIN
 90
        5
170
     1
 91
        0
 92
    32768
 62
   257
 93
        1
300
CONTENTFORMAT
  1
CONTENTFORMAT_BEGIN
 90
        0
 91
        0
 92
      512
 93
        0
300

 40
0.0
140
1.0
 94
        5
 62
     0
340
55
144
0.25
309
CONTENTFORMAT_END
171
     0
 94
        0
309
TABLEFORMAT_END
  1
CELLSTYLE_BEGIN
 90
        1
 91
        1
300
_TITLE
309
CELLSTYLE_END
300
CELLSTYLE
  1
TABLEFORMAT_BEGIN
 90
        5
170
     1
 91
        0
 92
        0
 62
   257
 93
        1
300
CONTENTFORMAT
  1
CONTENTFORMAT_BEGIN
 90
        0
 91
        0
 92
      512
 93
        0
300

 40
0.0
140
1.0
 94
        5
 62
     0
340
55
144
0.18
309
CONTENTFORMAT_END
171
     0
 94
        0
309
TABLEFORMAT_END
  1
CELLSTYLE_BEGIN
 90
        2
 91
        1
300
_HEADER
309
CELLSTYLE_END
300
CELLSTYLE
  1
TABLEFORMAT_BEGIN
 90
        5
170
     1
 91
        0
 92
        0
 62
   257
 93
        1
300
CONTENTFORMAT
  1
CONTENTFORMAT_BEGIN
 90
        0
 91
        0
 92
      512
 93
        0
300

 40
0.0
140
1.0
 94
        2
 62
     0
340
55
144
0.18
309
CONTENTFORMAT_END
171
     0
 94
        0
309
TABLEFORMAT_END
  1
CELLSTYLE_BEGIN
 90
        3
 91
        2
300
_DATA
309
CELLSTYLE_END
  0
ENDSEC
  0
EOF
