  0
SECTION
  2
HEADER
  9
$ACADVER
  1
AC1027
  9
$ACADMAINTVER
 70
   125
  9
$DWGCODEPAGE
  3
ANSI_1252
  9
$LASTSAVEDBY
  1
Administrator
  9
$REQUIREDVERSIONS
160
                 0
  9
$INSBASE
 10
0.0
 20
0.0
 30
0.0
  9
$EXTMIN
 10
0.0
 20
0.0
 30
-2.145924
  9
$EXTMAX
 10
17.0
 20
11.0
 30
2.782039
  9
$LIMMIN
 10
0.0
 20
0.0
  9
$LIMMAX
 10
17.0
 20
11.0
  9
$ORTHOMODE
 70
     0
  9
$REGENMODE
 70
     1
  9
$FILLMODE
 70
     1
  9
$QTEXTMODE
 70
     0
  9
$MIRRTEXT
 70
     0
  9
$LTSCALE
 40
0.75
  9
$ATTMODE
 70
     1
  9
$TEXTSIZE
 40
0.12
  9
$TRACEWID
 40
0.05
  9
$TEXTSTYLE
  7
Standard
  9
$CLAYER
  8
Titleblock
  9
$CELTYPE
  6
ByLayer
  9
$CECOLOR
 62
   256
  9
$CELTSCALE
 40
1.0
  9
$DISPSILH
 70
     0
  9
$DIMSCALE
 40
1.0
  9
$DIMASZ
 40
0.12
  9
$DIMEXO
 40
0.05
  9
$DIMDLI
 40
0.339411
  9
$DIMRND
 40
0.0
  9
$DIMDLE
 40
0.0
  9
$DIMEXE
 40
0.1
  9
$DIMTP
 40
0.01
  9
$DIMTM
 40
0.01
  9
$DIMTXT
 40
0.12
  9
$DIMCEN
 40
0.0
  9
$DIMTSZ
 40
0.0
  9
$DIMTOL
 70
     0
  9
$DIMLIM
 70
     0
  9
$DIMTIH
 70
     1
  9
$DIMTOH
 70
     1
  9
$DIMSE1
 70
     0
  9
$DIMSE2
 70
     0
  9
$DIMTAD
 70
     0
  9
$DIMZIN
 70
    12
  9
$DIMBLK
  1

  9
$DIMASO
 70
     1
  9
$DIMSHO
 70
     1
  9
$DIMPOST
  1
in
  9
$DIMAPOST
  1
mm
  9
$DIMALT
 70
     0
  9
$DIMALTD
 70
     2
  9
$DIMALTF
 40
25.4
  9
$DIMLFAC
 40
1.0
  9
$DIMTOFL
 70
     0
  9
$DIMTVP
 40
0.0
  9
$DIMTIX
 70
     0
  9
$DIMSOXD
 70
     0
  9
$DIMSAH
 70
     0
  9
$DIMBLK1
  1

  9
$DIMBLK2
  1

  9
$DIMSTYLE
  2
Standard
  9
$DIMCLRD
 70
   256
  9
$DIMCLRE
 70
   256
  9
$DIMCLRT
 70
   256
  9
$DIMTFAC
 40
1.0
  9
$DIMGAP
 40
0.06
  9
$DIMJUST
 70
     0
  9
$DIMSD1
 70
     0
  9
$DIMSD2
 70
     0
  9
$DIMTOLJ
 70
     1
  9
$DIMTZIN
 70
    12
  9
$DIMALTZ
 70
    12
  9
$DIMALTTZ
 70
    12
  9
$DIMUPT
 70
     0
  9
$DIMDEC
 70
     2
  9
$DIMTDEC
 70
     2
  9
$DIMALTU
 70
     2
  9
$DIMALTTD
 70
     2
  9
$DIMTXSTY
  7
Standard
  9
$DIMAUNIT
 70
     0
  9
$DIMADEC
 70
     2
  9
$DIMALTRND
 40
0.0
  9
$DIMAZIN
 70
     3
  9
$DIMDSEP
 70
    46
  9
$DIMATFIT
 70
     3
  9
$DIMFRAC
 70
     0
  9
$DIMLDRBLK
  1

  9
$DIMLUNIT
 70
     2
  9
$DIMLWD
 70
    -2
  9
$DIMLWE
 70
    -2
  9
$DIMTMOVE
 70
     0
  9
$DIMFXL
 40
1.0
  9
$DIMFXLON
 70
     0
  9
$DIMJOGANG
 40
0.785398
  9
$DIMTFILL
 70
     0
  9
$DIMTFILLCLR
 70
     0
  9
$DIMARCSYM
 70
     1
  9
$DIMLTYPE
  6

  9
$DIMLTEX1
  6

  9
$DIMLTEX2
  6

  9
$DIMTXTDIRECTION
 70
     0
  9
$LUNITS
 70
     2
  9
$LUPREC
 70
     4
  9
$SKETCHINC
 40
0.1
  9
$FILLETRAD
 40
0.0
  9
$AUNITS
 70
     0
  9
$AUPREC
 70
     0
  9
$MENU
  1
.
  9
$ELEVATION
 40
0.0
  9
$PELEVATION
 40
0.0
  9
$THICKNESS
 40
0.0
  9
$LIMCHECK
 70
     0
  9
$CHAMFERA
 40
0.0
  9
$CHAMFERB
 40
0.0
  9
$CHAMFERC
 40
0.0
  9
$CHAMFERD
 40
0.0
  9
$SKPOLY
 70
     0
  9
$TDCREATE
 40
2458891.572928241
  9
$TDUCREATE
 40
2458891.906261574
  9
$TDUPDATE
 40
2458891.572928241
  9
$TDUUPDATE
 40
2458891.906261574
  9
$TDINDWG
 40
0.0000000000
  9
$TDUSRTIMER
 40
0.0000000000
  9
$USRTIMER
 70
     1
  9
$ANGBASE
 50
0.0
  9
$ANGDIR
 70
     0
  9
$PDMODE
 70
     0
  9
$PDSIZE
 40
0.0
  9
$PLINEWID
 40
0.0
  9
$SPLFRAME
 70
     0
  9
$SPLINETYPE
 70
     6
  9
$SPLINESEGS
 70
     8
  9
$HANDSEED
  5
461
  9
$SURFTAB1
 70
     6
  9
$SURFTAB2
 70
     6
  9
$SURFTYPE
 70
     6
  9
$SURFU
 70
     6
  9
$SURFV
 70
     6
  9
$UCSBASE
  2

  9
$UCSNAME
  2

  9
$UCSORG
 10
0.0
 20
0.0
 30
0.0
  9
$UCSXDIR
 10
1.0
 20
0.0
 30
0.0
  9
$UCSYDIR
 10
0.0
 20
1.0
 30
0.0
  9
$UCSORTHOREF
  2

  9
$UCSORTHOVIEW
 70
     0
  9
$UCSORGTOP
 10
0.0
 20
0.0
 30
0.0
  9
$UCSORGBOTTOM
 10
0.0
 20
0.0
 30
0.0
  9
$UCSORGLEFT
 10
0.0
 20
0.0
 30
0.0
  9
$UCSORGRIGHT
 10
0.0
 20
0.0
 30
0.0
  9
$UCSORGFRONT
 10
0.0
 20
0.0
 30
0.0
  9
$UCSORGBACK
 10
0.0
 20
0.0
 30
0.0
  9
$PUCSBASE
  2

  9
$PUCSNAME
  2

  9
$PUCSORG
 10
0.0
 20
0.0
 30
0.0
  9
$PUCSXDIR
 10
1.0
 20
0.0
 30
0.0
  9
$PUCSYDIR
 10
0.0
 20
1.0
 30
0.0
  9
$PUCSORTHOREF
  2

  9
$PUCSORTHOVIEW
 70
     0
  9
$PUCSORGTOP
 10
0.0
 20
0.0
 30
0.0
  9
$PUCSORGBOTTOM
 10
0.0
 20
0.0
 30
0.0
  9
$PUCSORGLEFT
 10
0.0
 20
0.0
 30
0.0
  9
$PUCSORGRIGHT
 10
0.0
 20
0.0
 30
0.0
  9
$PUCSORGFRONT
 10
0.0
 20
0.0
 30
0.0
  9
$PUCSORGBACK
 10
0.0
 20
0.0
 30
0.0
  9
$USERI1
 70
     0
  9
$USERI2
 70
     0
  9
$USERI3
 70
     0
  9
$USERI4
 70
     0
  9
$USERI5
 70
     0
  9
$USERR1
 40
0.0
  9
$USERR2
 40
0.0
  9
$USERR3
 40
0.0
  9
$USERR4
 40
0.0
  9
$USERR5
 40
0.0
  9
$WORLDVIEW
 70
     1
  9
$SHADEDGE
 70
     3
  9
$SHADEDIF
 70
    70
  9
$TILEMODE
 70
     1
  9
$MAXACTVP
 70
    64
  9
$PINSBASE
 10
0.0
 20
0.0
 30
0.0
  9
$PLIMCHECK
 70
     0
  9
$PEXTMIN
 10
1.000000E+20
 20
1.000000E+20
 30
1.000000E+20
  9
$PEXTMAX
 10
-1.000000E+20
 20
-1.000000E+20
 30
-1.000000E+20
  9
$PLIMMIN
 10
0.0
 20
0.0
  9
$PLIMMAX
 10
12.0
 20
9.0
  9
$UNITMODE
 70
     0
  9
$VISRETAIN
 70
     1
  9
$PLINEGEN
 70
     0
  9
$PSLTSCALE
 70
     1
  9
$TREEDEPTH
 70
  3020
  9
$CMLSTYLE
  2
Standard
  9
$CMLJUST
 70
     0
  9
$CMLSCALE
 40
1.0
  9
$PROXYGRAPHICS
 70
     1
  9
$MEASUREMENT
 70
     0
  9
$CELWEIGHT
370
    -1
  9
$ENDCAPS
280
     0
  9
$JOINSTYLE
280
     0
  9
$LWDISPLAY
290
     0
  9
$INSUNITS
 70
     1
  9
$HYPERLINKBASE
  1

  9
$STYLESHEET
  1

  9
$XEDIT
290
     1
  9
$CEPSNTYPE
380
     0
  9
$PSTYLEMODE
290
     1
  9
$FINGERPRINTGUID
  2
{60C8DBCF-DCB9-184D-A37B-D740430C5857}
  9
$VERSIONGUID
  2
{D1FC4509-0D9C-A046-B457-2DD5296A838D}
  9
$EXTNAMES
290
     1
  9
$PSVPSCALE
 40
0.0
  9
$OLESTARTUP
290
     0
  9
$SORTENTS
280
   127
  9
$INDEXCTL
280
     0
  9
$HIDETEXT
280
     1
  9
$XCLIPFRAME
280
     2
  9
$HALOGAP
280
     0
  9
$OBSCOLOR
 70
   257
  9
$OBSLTYPE
280
     0
  9
$INTERSECTIONDISPLAY
280
     0
  9
$INTERSECTIONCOLOR
 70
   257
  9
$DIMASSOC
280
     2
  9
$PROJECTNAME
  1

  9
$CAMERADISPLAY
290
     0
  9
$LENSLENGTH
 40
50.0
  9
$CAMERAHEIGHT
 40
0.0
  9
$STEPSPERSEC
 40
2.0
  9
$STEPSIZE
 40
6.0
  9
$3DDWFPREC
 40
2.0
  9
$PSOLWIDTH
 40
0.25
  9
$PSOLHEIGHT
 40
4.0
  9
$LOFTANG1
 40
1.570796
  9
$LOFTANG2
 40
1.570796
  9
$LOFTMAG1
 40
0.0
  9
$LOFTMAG2
 40
0.0
  9
$LOFTPARAM
 70
     7
  9
$LOFTNORMALS
280
     1
  9
$LATITUDE
 40
37.795
  9
$LONGITUDE
 40
-122.394
  9
$NORTHDIRECTION
 40
0.0
  9
$TIMEZONE
 70
 -8000
  9
$LIGHTGLYPHDISPLAY
280
     1
  9
$TILEMODELIGHTSYNCH
280
     1
  9
$CMATERIAL
347
11
  9
$SOLIDHIST
280
     0
  9
$SHOWHIST
280
     1
  9
$DWFFRAME
280
     2
  9
$DGNFRAME
280
     0
  9
$REALWORLDSCALE
290
     1
  9
$INTERFERECOLOR
 62
     1
  9
$INTERFEREOBJVS
345
33
  9
$INTERFEREVPVS
346
30
  9
$CSHADOW
280
     0
  9
$SHADOWPLANELOCATION
 40
0.0
  0
ENDSEC
  0
SECTION
  2
CLASSES
  0
CLASS
  1
ACDBDICTIONARYWDFLT
  2
AcDbDictionaryWithDefault
  3
ObjectDBX Classes
 90
        0
 91
        1
280
     0
281
     0
  0
CLASS
  1
MATERIAL
  2
AcDbMaterial
  3
ObjectDBX Classes
 90
     1153
 91
        3
280
     0
281
     0
  0
CLASS
  1
VISUALSTYLE
  2
AcDbVisualStyle
  3
ObjectDBX Classes
 90
     4095
 91
       24
280
     0
281
     0
  0
CLASS
  1
SCALE
  2
AcDbScale
  3
ObjectDBX Classes
 90
     1153
 91
       33
280
     0
281
     0
  0
CLASS
  1
TABLESTYLE
  2
AcDbTableStyle
  3
ObjectDBX Classes
 90
     4095
 91
        1
280
     0
281
     0
  0
CLASS
  1
MLEADERSTYLE
  2
AcDbMLeaderStyle
  3
ACDB_MLEADERSTYLE_CLASS
 90
     4095
 91
        1
280
     0
281
     0
  0
CLASS
  1
ACDBSECTIONVIEWSTYLE
  2
AcDbSectionViewStyle
  3
ObjectDBX Classes
 90
     1025
 91
        1
280
     0
281
     0
  0
CLASS
  1
ACDBDETAILVIEWSTYLE
  2
AcDbDetailViewStyle
  3
ObjectDBX Classes
 90
     1025
 91
        1
280
     0
281
     0
  0
CLASS
  1
ACMESCOPE
  2
AcMeScope
  3
AcMeServices
 90
     1024
 91
        1
280
     0
281
     0
  0
CLASS
  1
ACMECOMMANDHISTORY
  2
AcMeCommandHistory
  3
AcMeServices
 90
     1024
 91
        1
280
     0
281
     0
  0
CLASS
  1
ACIMSYSVARMAN
  2
AcImSysVarManager
  3
AcMeServices
 90
     1024
 91
        1
280
     0
281
     0
  0
CLASS
  1
ACIMINTSYSVAR
  2
AcImIntSysVar
  3
AcMeServices
 90
     1024
 91
        1
280
     0
281
     0
  0
CLASS
  1
ACMESTATEMGR
  2
AcMeStateMgr
  3
AcMeServices
 90
     1024
 91
        1
280
     0
281
     0
  0
CLASS
  1
ACGREFMASTER
  2
AcGrefMaster
  3
AcAttribServices
 90
     1024
 91
        1
280
     0
281
     0
  0
CLASS
  1
SORTENTSTABLE
  2
AcDbSortentsTable
  3
ObjectDBX Classes
 90
        0
 91
        6
280
     0
281
     0
  0
CLASS
  1
IMAGE
  2
AcDbRasterImage
  3
ISM
 90
     2175
 91
        1
280
     0
281
     1
  0
CLASS
  1
IMAGEDEF
  2
AcDbRasterImageDef
  3
ISM
 90
        0
 91
        1
280
     0
281
     0
  0
CLASS
  1
IMAGEDEF_REACTOR
  2
AcDbRasterImageDefReactor
  3
ISM
 90
        1
 91
        2
280
     0
281
     0
  0
CLASS
  1
RASTERVARIABLES
  2
AcDbRasterVariables
  3
ISM
 90
        0
 91
        1
280
     0
281
     0
  0
CLASS
  1
DICTIONARYVAR
  2
AcDbDictionaryVar
  3
ObjectDBX Classes
 90
        0
 91
        6
280
     0
281
     0
  0
CLASS
  1
CELLSTYLEMAP
  2
AcDbCellStyleMap
  3
ObjectDBX Classes
 90
     1152
 91
        1
280
     0
281
     0
  0
ENDSEC
  0
SECTION
  2
TABLES
  0
TABLE
  2
VPORT
  5
8
330
0
100
AcDbSymbolTable
 70
     1
1001
ACAD
1000
DbSaveVer
1071
      251
  0
VPORT
  5
57
330
8
100
AcDbSymbolTableRecord
100
AcDbViewportTableRecord
  2
*Active
 70
     0
 10
0.0
 20
0.0
 11
1.0
 21
1.0
 12
8.5
 22
5.5
 13
0.0
 23
0.0
 14
0.5
 24
0.5
 15
0.0
 25
0.0
 16
0.0
 26
0.0
 36
1.0
 17
0.0
 27
0.0
 37
0.0
 40
11.0
 41
1.777518
 42
50.0
 43
0.0
 44
0.0
 50
0.0
 51
0.0
 71
     0
 72
 20000
 73
     1
 74
     0
 75
     0
 76
     0
 77
     0
 78
     0
281
     0
 65
     1
110
0.0
120
0.0
130
0.0
111
1.0
121
0.0
131
0.0
112
0.0
122
1.0
132
0.0
 79
     0
146
0.0
348
2F
 60
     3
 61
     5
292
     1
282
     1
141
0.0
142
0.0
 63
   250
421
  3355443
  0
ENDTAB
  0
TABLE
  2
LTYPE
  5
5
330
0
100
AcDbSymbolTable
 70
    10
  0
LTYPE
  5
5B
330
5
100
AcDbSymbolTableRecord
100
AcDbLinetypeTableRecord
  2
ByBlock
 70
     0
  3

 72
    65
 73
     0
 40
0.0
  0
LTYPE
  5
5C
330
5
100
AcDbSymbolTableRecord
100
AcDbLinetypeTableRecord
  2
ByLayer
 70
     0
  3

 72
    65
 73
     0
 40
0.0
  0
LTYPE
  5
5D
330
5
100
AcDbSymbolTableRecord
100
AcDbLinetypeTableRecord
  2
Continuous
 70
     0
  3
Solid line
 72
    65
 73
     0
 40
0.0
  0
LTYPE
  5
81
330
5
100
AcDbSymbolTableRecord
100
AcDbLinetypeTableRecord
  2
HIDDEN
 70
     0
  3
Hidden __ __ __ __ __ __ __ __ __ __ __ __ __ _
 72
    65
 73
     2
 40
0.375
 49
0.25
 74
     0
 49
-0.125
 74
     0
  0
LTYPE
  5
82
330
5
100
AcDbSymbolTableRecord
100
AcDbLinetypeTableRecord
  2
PHANTOM2
 70
     0
  3
Phantom (.5x) ___ _ _ ___ _ _ ___ _ _ ___ _ _
 72
    65
 73
     6
 40
1.25
 49
0.625
 74
     0
 49
-0.125
 74
     0
 49
0.125
 74
     0
 49
-0.125
 74
     0
 49
0.125
 74
     0
 49
-0.125
 74
     0
  0
LTYPE
  5
83
330
5
100
AcDbSymbolTableRecord
100
AcDbLinetypeTableRecord
  2
CENTER
 70
     0
  3
Center ____ _ ____ _ ____ _ ____ _ ____ _ ____
 72
    65
 73
     4
 40
2.0
 49
1.25
 74
     0
 49
-0.25
 74
     0
 49
0.25
 74
     0
 49
-0.25
 74
     0
  0
LTYPE
  5
9A
330
5
100
AcDbSymbolTableRecord
100
AcDbLinetypeTableRecord
  2
CENTER2
 70
     0
  3
Center (.5x) ___ _ ___ _ ___ _ ___ _ ___ _ ___
 72
    65
 73
     4
 40
1.125
 49
0.75
 74
     0
 49
-0.125
 74
     0
 49
0.125
 74
     0
 49
-0.125
 74
     0
  0
LTYPE
  5
9B
330
5
100
AcDbSymbolTableRecord
100
AcDbLinetypeTableRecord
  2
HIDDEN2
 70
     0
  3
Hidden (.5x) _ _ _ _ _ _ _ _ _ _ _ _ _ _ _ _ _
 72
    65
 73
     2
 40
0.1875
 49
0.125
 74
     0
 49
-0.0625
 74
     0
  0
LTYPE
  5
9C
330
5
100
AcDbSymbolTableRecord
100
AcDbLinetypeTableRecord
  2
Amconstr
 70
     0
  3
_______________________
 72
    65
 73
     2
 40
9999.0
 49
9999.0
 74
     0
 49
0.0
 74
     0
  0
LTYPE
  5
9D
330
5
100
AcDbSymbolTableRecord
100
AcDbLinetypeTableRecord
  2
Amzigzag2
 70
     0
  3
/\/-/\/-/\/-/\/-/\/-/\/
 72
    65
 73
     2
 40
0.4401
 49
0.0001
 74
     4
 75
   136
340
97
 46
0.0016
 50
0.0
 44
0.0
 45
0.0
 49
-0.44
 74
     0
  0
LTYPE
  5
9E
330
5
100
AcDbSymbolTableRecord
100
AcDbLinetypeTableRecord
  2
ACANSTGB
 70
     0
  3
__ . . __ . .
 72
    65
 73
     6
 40
0.354331
 49
0.15748
 74
     0
 49
-0.03937
 74
     0
 49
0.03937
 74
     0
 49
-0.03937
 74
     0
 49
0.03937
 74
     0
 49
-0.03937
 74
     0
  0
LTYPE
  5
9F
330
5
100
AcDbSymbolTableRecord
100
AcDbLinetypeTableRecord
  2
ACANSTGL
 70
     0
  3
_ _ _ _ _
 72
    65
 73
     2
 40
0.11811
 49
0.07874
 74
     0
 49
-0.03937
 74
     0
  0
ENDTAB
  0
TABLE
  2
LAYER
  5
2
330
0
100
AcDbSymbolTable
 70
    10
  0
LAYER
  5
54
330
2
100
AcDbSymbolTableRecord
100
AcDbLayerTableRecord
  2
0
 70
     0
 62
     7
  6
Continuous
370
    -3
390
F
347
21
348
0
1001
AcAecLayerStandard
1000

1000

  0
LAYER
  5
79
330
2
100
AcDbSymbolTableRecord
100
AcDbLayerTableRecord
  2
Defpoints
 70
     0
 62
     7
  6
Continuous
290
     0
370
    -3
390
F
347
21
348
0
1001
AcAecLayerStandard
1000

1000

  0
LAYER
  5
B9
330
2
100
AcDbSymbolTableRecord
100
AcDbLayerTableRecord
  2
Visible
 70
     0
 62
     7
  6
Continuous
370
    50
390
F
347
21
348
0
  0
LAYER
  5
14C
330
2
100
AcDbSymbolTableRecord
100
AcDbLayerTableRecord
  2
Visible Narrow
 70
     0
 62
     7
  6
Continuous
370
    35
390
F
347
21
348
0
  0
LAYER
  5
178
330
2
100
AcDbSymbolTableRecord
100
AcDbLayerTableRecord
  2
Titleblock
 70
     0
 62
     7
  6
Continuous
370
    -3
390
F
347
21
348
0
1001
AcAecLayerStandard
1000

1000

1001
AcCmTransparency
1071
        0
  0
LAYER
  5
19D
330
2
100
AcDbSymbolTableRecord
100
AcDbLayerTableRecord
  2
Border
 70
     0
 62
     7
  6
Continuous
370
    -3
390
F
347
21
348
0
1001
AcAecLayerStandard
1000

1000

1001
AcCmTransparency
1071
        0
  0
LAYER
  5
1BE
330
2
100
AcDbSymbolTableRecord
100
AcDbLayerTableRecord
  2
Dimensions
 70
     0
 62
     7
  6
Continuous
370
    25
390
F
347
21
348
0
  0
ENDTAB
  0
TABLE
  2
STYLE
  5
3
330
0
100
AcDbSymbolTable
 70
     4
  0
STYLE
  5
55
330
3
100
AcDbSymbolTableRecord
100
AcDbTextStyleTableRecord
  2
Standard
 70
     0
 40
0.0
 41
1.0
 50
0.0
 71
     0
 42
0.12
  3
arial.ttf
  4

1001
ACAD
1000
Arial
1071
       34
  0
STYLE
  5
5A
330
3
100
AcDbSymbolTableRecord
100
AcDbTextStyleTableRecord
  2
Annotative
 70
     0
 40
0.0
 41
1.0
 50
0.0
 71
     0
 42
0.2
  3
txt
  4

1001
AcadAnnotative
1000
AnnotativeData
1002
{
1070
     1
1070
     1
1002
}
  0
STYLE
  5
97
330
3
100
AcDbSymbolTableRecord
100
AcDbTextStyleTableRecord
  2

 70
     1
 40
0.0
 41
1.0
 50
0.0
 71
     0
 42
0.12
  3
genltshp.shx
  4

  0
STYLE
  5
98
330
3
100
AcDbSymbolTableRecord
100
AcDbTextStyleTableRecord
  2
ACANSGDT
 70
     0
 40
0.0
 41
1.0
 50
0.0
 71
     0
 42
0.12
  3
amgdt.shx
  4

  0
ENDTAB
  0
TABLE
  2
VIEW
  5
6
330
0
100
AcDbSymbolTable
 70
     0
  0
ENDTAB
  0
TABLE
  2
UCS
  5
7
330
0
100
AcDbSymbolTable
 70
     0
  0
ENDTAB
  0
TABLE
  2
APPID
  5
9
330
0
100
AcDbSymbolTable
 70
    24
  0
APPID
  5
56
330
9
100
AcDbSymbolTableRecord
100
AcDbRegAppTableRecord
  2
ACAD
 70
     0
  0
APPID
  5
5E
330
9
100
AcDbSymbolTableRecord
100
AcDbRegAppTableRecord
  2
AcadAnnotative
 70
     0
  0
APPID
  5
78
330
9
100
AcDbSymbolTableRecord
100
AcDbRegAppTableRecord
  2
ACAD_PSEXT
 70
     0
  0
APPID
  5
7A
330
9
100
AcDbSymbolTableRecord
100
AcDbRegAppTableRecord
  2
MCAD_NO_VIS
 70
     0
  0
APPID
  5
7B
330
9
100
AcDbSymbolTableRecord
100
AcDbRegAppTableRecord
  2
ACAD_TEMP_GRAPHIC
 70
     0
  0
APPID
  5
84
330
9
100
AcDbSymbolTableRecord
100
AcDbRegAppTableRecord
  2
ACAD_DSTYLE_DIMJAG
 70
     0
  0
APPID
  5
85
330
9
100
AcDbSymbolTableRecord
100
AcDbRegAppTableRecord
  2
ACAD_DSTYLE_DIMTALN
 70
     0
  0
APPID
  5
86
330
9
100
AcDbSymbolTableRecord
100
AcDbRegAppTableRecord
  2
ACAD_NAV_VCDISPLAY
 70
     0
  0
APPID
  5
87
330
9
100
AcDbSymbolTableRecord
100
AcDbRegAppTableRecord
  2
AcAecLayerStandard
 70
     0
  0
APPID
  5
88
330
9
100
AcDbSymbolTableRecord
100
AcDbRegAppTableRecord
  2
AcCmTransparency
 70
     0
  0
APPID
  5
89
330
9
100
AcDbSymbolTableRecord
100
AcDbRegAppTableRecord
  2
ACAD_DSTYLE_DIMBREAK
 70
     0
  0
APPID
  5
8A
330
9
100
AcDbSymbolTableRecord
100
AcDbRegAppTableRecord
  2
ACAD_DSTYLE_DIMRADIAL_EXTENSION
 70
     0
  0
APPID
  5
8B
330
9
100
AcDbSymbolTableRecord
100
AcDbRegAppTableRecord
  2
FUSIONTITLEBLOCK
 70
     0
  0
APPID
  5
8C
330
9
100
AcDbSymbolTableRecord
100
AcDbRegAppTableRecord
  2
FUSIONCURRENTTITLEBLOCK
 70
     0
  0
APPID
  5
8D
330
9
100
AcDbSymbolTableRecord
100
AcDbRegAppTableRecord
  2
AcSynergy
 70
     0
  0
APPID
  5
8E
330
9
100
AcDbSymbolTableRecord
100
AcDbRegAppTableRecord
  2
ACAD_VIEW_EDGE_ID
 70
     0
  0
APPID
  5
8F
330
9
100
AcDbSymbolTableRecord
100
AcDbRegAppTableRecord
  2
GENIUS_GENSCREG_15
 70
     0
  0
APPID
  5
90
330
9
100
AcDbSymbolTableRecord
100
AcDbRegAppTableRecord
  2
GENIUS_GENOBJ-N-SDF_13
 70
     0
  0
APPID
  5
91
330
9
100
AcDbSymbolTableRecord
100
AcDbRegAppTableRecord
  2
GENIUS_GENODEF_13
 70
     0
  0
APPID
  5
92
330
9
100
AcDbSymbolTableRecord
100
AcDbRegAppTableRecord
  2
ACAD_DIMASSOC_CALC_DIMLFAC
 70
     0
  0
APPID
  5
93
330
9
100
AcDbSymbolTableRecord
100
AcDbRegAppTableRecord
  2
ACAD_DIMASSOC_DIMLFAC
 70
     0
  0
APPID
  5
94
330
9
100
AcDbSymbolTableRecord
100
AcDbRegAppTableRecord
  2
ACAD_DIMASSOC_OVERRIDDEN_DIMLFAC
 70
     0
  0
APPID
  5
95
330
9
100
AcDbSymbolTableRecord
100
AcDbRegAppTableRecord
  2
FD_ATT_APPNAME
 70
     0
  0
APPID
  5
96
330
9
100
AcDbSymbolTableRecord
100
AcDbRegAppTableRecord
  2
ACATTRIBSERVICES
 70
     0
  0
ENDTAB
  0
TABLE
  2
DIMSTYLE
  5
A
330
0
100
AcDbSymbolTable
 70
     2
100
AcDbDimStyleTable
 71
     1
340
58
  0
DIMSTYLE
105
58
102
{ACAD_REACTORS
330
1E0
330
1EE
330
1FC
330
20A
330
1BD
330
1C8
330
1D2
102
}
330
A
100
AcDbSymbolTableRecord
100
AcDbDimStyleTableRecord
  2
Standard
 70
     0
  3
in
  4
mm
 41
0.12
 42
0.05
 43
0.339411
 44
0.1
 47
0.01
 48
0.01
 78
    12
 79
     3
 90
     1
140
0.12
141
0.0
147
0.06
176
   256
177
   256
178
   256
179
     2
271
     2
272
     2
284
    12
285
    12
286
    12
340
55
  0
DIMSTYLE
105
59
330
A
100
AcDbSymbolTableRecord
100
AcDbDimStyleTableRecord
  2
Annotative
 70
     0
  3
in
 40
0.0
 43
0.339411
 78
    12
 79
     3
140
0.12
179
     2
271
     2
272
     2
284
    12
285
    12
286
    12
340
55
1001
AcadAnnotative
1000
AnnotativeData
1002
{
1070
     1
1070
     1
1002
}
  0
ENDTAB
  0
TABLE
  2
BLOCK_RECORD
  5
1
330
0
100
AcDbSymbolTable
 70
    20
  0
BLOCK_RECORD
  5
70
102
{ACAD_XDICTIONARY
360
B2
102
}
330
1
100
AcDbSymbolTableRecord
100
AcDbBlockTableRecord
  2
*Model_Space
340
73
 70
     0
280
     1
281
     0
  0
BLOCK_RECORD
  5
6C
330
1
100
AcDbSymbolTableRecord
100
AcDbBlockTableRecord
  2
*Paper_Space
340
6F
 70
     0
280
     1
281
     0
  0
BLOCK_RECORD
  5
74
330
1
100
AcDbSymbolTableRecord
100
AcDbBlockTableRecord
  2
*Paper_Space0
340
77
 70
     0
280
     1
281
     0
  0
BLOCK_RECORD
  5
179
102
{ACAD_XDICTIONARY
360
17A
102
}
330
1
100
AcDbSymbolTableRecord
100
AcDbBlockTableRecord
  2
Shower
340
0
102
{BLKREFS
331
177
102
}
 70
     1
280
     1
281
     0
1001
FUSIONTITLEBLOCK
1000
TitleBlock
  0
BLOCK_RECORD
  5
19E
330
1
100
AcDbSymbolTableRecord
100
AcDbBlockTableRecord
  2
ANSI_B_SHEET
340
0
310
2800000020000000200000000100080000000000000400000000000000000000000000000000000000000000000080000080000000808000800000008000800080800000C0C0C000C0DCC000F0CAA6000020400000206000002080000020A0000020C0000020E00000400000004020000040400000406000004080000040A0
310
000040C0000040E00000600000006020000060400000606000006080000060A0000060C0000060E00000800000008020000080400000806000008080000080A0000080C0000080E00000A0000000A0200000A0400000A0600000A0800000A0A00000A0C00000A0E00000C0000000C0200000C0400000C0600000C0800000C0
310
A00000C0C00000C0E00000E0000000E0200000E0400000E0600000E0800000E0A00000E0C00000E0E00040000000400020004000400040006000400080004000A0004000C0004000E00040200000402020004020400040206000402080004020A0004020C0004020E000404000004040200040404000404060004040800040
310
40A0004040C0004040E00040600000406020004060400040606000406080004060A0004060C0004060E00040800000408020004080400040806000408080004080A0004080C0004080E00040A0000040A0200040A0400040A0600040A0800040A0A00040A0C00040A0E00040C0000040C0200040C0400040C0600040C08000
310
40C0A00040C0C00040C0E00040E0000040E0200040E0400040E0600040E0800040E0A00040E0C00040E0E00080000000800020008000400080006000800080008000A0008000C0008000E00080200000802020008020400080206000802080008020A0008020C0008020E00080400000804020008040400080406000804080
310
008040A0008040C0008040E00080600000806020008060400080606000806080008060A0008060C0008060E00080800000808020008080400080806000808080008080A0008080C0008080E00080A0000080A0200080A0400080A0600080A0800080A0A00080A0C00080A0E00080C0000080C0200080C0400080C0600080C0
310
800080C0A00080C0C00080C0E00080E0000080E0200080E0400080E0600080E0800080E0A00080E0C00080E0E000C0000000C0002000C0004000C0006000C0008000C000A000C000C000C000E000C0200000C0202000C0204000C0206000C0208000C020A000C020C000C020E000C0400000C0402000C0404000C0406000C0
310
408000C040A000C040C000C040E000C0600000C0602000C0604000C0606000C0608000C060A000C060C000C060E000C0800000C0802000C0804000C0806000C0808000C080A000C080C000C080E000C0A00000C0A02000C0A04000C0A06000C0A08000C0A0A000C0A0C000C0A0E000C0C00000C0C02000C0C04000C0C06000
310
C0C08000C0C0A000F0FBFF00A4A0A000808080000000FF0000FF000000FFFF00FF000000FF00FF00FFFF0000FFFFFF0049494949494949494949494949494949494949494949494949494949494949494949494949494949494949494949494949494949494949494949494949494949494949494949494949494949494949
310
494949494949494949494949494949494949494949494949494949494949494949494949494949494949494949494949494949494949494949494949494949494949494949494949494949494949494949494949494949494949494949494949494949494949494949494949494949494949FFFF4949494949494949494949
310
494949494949494949494949494949FFFF4949FFFFFFFFFFFFFFFFFFFFFFFFFFFFFFFFFFFFFFFFFFFFFFFFFFFFFFFFFFFF494949FF4949494949494949494949494949494949494949494949494949FF49494949FF4949494949494949494949494949494949494949494949494949FF49494949FF49494949494949494949
310
49494949494949494949494949494949FF49494949FF4949494949494949494949494949494949494949494949494949FF49494949FF4949494949494949494949494949494949494949494949494949FF49494949FF4949494949494949494949494949494949494949494949494949FF49494949FF494949494949494949
310
4949494949494949494949494949494949FF49494949FF4949494949494949494949494949494949494949494949494949FF49494949FF4949494949494949494949494949494949494949494949494949FF49494949FF4949494949494949494949494949494949494949494949494949FF49494949FF4949494949494949
310
494949494949494949494949494949494949FF49494949FF4949494949494949494949494949494949494949494949494949FF49494949FF4949494949494949494949494949494949494949494949494949FF49494949FF4949494949494949494949494949494949494949494949494949FF49494949FF49494949494949
310
49494949494949494949494949494949494949FF49494949FF4949494949494949494949494949494949494949494949494949FF494949FFFFFFFFFFFFFFFFFFFFFFFFFFFFFFFFFFFFFFFFFFFFFFFFFFFFFFFFFFFF4949FFFF4949494949494949494949494949494949494949494949494949FFFF49494949494949494949
310
49494949494949494949494949494949494949494949494949494949494949494949494949494949494949494949494949494949494949494949494949494949494949494949494949494949494949494949494949494949494949494949494949494949494949494949494949494949494949494949494949494949494949
310
4949494949494949494949494949494949494949494949494949494949494949494949494949494949494949494949494949494949494949
102
{BLKREFS
331
19C
102
}
 70
     1
280
     1
281
     0
  0
BLOCK_RECORD
  5
1BF
330
1
100
AcDbSymbolTableRecord
100
AcDbBlockTableRecord
  2
*D6
340
0
 70
     0
280
     1
281
     0
  0
BLOCK_RECORD
  5
1C9
330
1
100
AcDbSymbolTableRecord
100
AcDbBlockTableRecord
  2
*D7
340
0
 70
     0
280
     1
281
     0
  0
BLOCK_RECORD
  5
1D3
330
1
100
AcDbSymbolTableRecord
100
AcDbBlockTableRecord
  2
*D8
340
0
 70
     0
280
     1
281
     0
  0
BLOCK_RECORD
  5
1E1
330
1
100
AcDbSymbolTableRecord
100
AcDbBlockTableRecord
  2
*D9
340
0
 70
     0
280
     1
281
     0
  0
BLOCK_RECORD
  5
1EF
330
1
100
AcDbSymbolTableRecord
100
AcDbBlockTableRecord
  2
*D10
340
0
 70
     0
280
     1
281
     0
  0
BLOCK_RECORD
  5
1FD
330
1
100
AcDbSymbolTableRecord
100
AcDbBlockTableRecord
  2
*D11
340
0
 70
     0
280
     1
281
     0
  0
BLOCK_RECORD
  5
20B
330
1
100
AcDbSymbolTableRecord
100
AcDbBlockTableRecord
  2
*D12
340
0
 70
     0
280
     1
281
     0
  0
BLOCK_RECORD
  5
219
330
1
100
AcDbSymbolTableRecord
100
AcDbBlockTableRecord
  2
*D13
340
0
 70
     0
280
     1
281
     0
  0
BLOCK_RECORD
  5
222
330
1
100
AcDbSymbolTableRecord
100
AcDbBlockTableRecord
  2
*D14
340
0
 70
     0
280
     1
281
     0
  0
BLOCK_RECORD
  5
22B
330
1
100
AcDbSymbolTableRecord
100
AcDbBlockTableRecord
  2
*D15
340
0
 70
     0
280
     1
281
     0
  0
BLOCK_RECORD
  5
238
330
1
100
AcDbSymbolTableRecord
100
AcDbBlockTableRecord
  2
*D16
340
0
 70
     0
280
     1
281
     0
  0
BLOCK_RECORD
  5
245
330
1
100
AcDbSymbolTableRecord
100
AcDbBlockTableRecord
  2
*D17
340
0
 70
     0
280
     1
281
     0
  0
BLOCK_RECORD
  5
252
330
1
100
AcDbSymbolTableRecord
100
AcDbBlockTableRecord
  2
*D18
340
0
 70
     0
280
     1
281
     0
  0
BLOCK_RECORD
  5
25F
330
1
100
AcDbSymbolTableRecord
100
AcDbBlockTableRecord
  2
*D19
340
0
 70
     0
280
     1
281
     0
  0
ENDTAB
  0
ENDSEC
  0
SECTION
  2
BLOCKS
  0
BLOCK
  5
71
330
70
100
AcDbEntity
  8
0
100
AcDbBlockBegin
  2
*Model_Space
 70
     0
 10
0.0
 20
0.0
 30
0.0
  3
*Model_Space
  1

  0
ENDBLK
  5
72
330
70
100
AcDbEntity
  8
0
100
AcDbBlockEnd
  0
BLOCK
  5
6D
330
6C
100
AcDbEntity
 67
     1
  8
0
100
AcDbBlockBegin
  2
*Paper_Space
 70
     0
 10
0.0
 20
0.0
 30
0.0
  3
*Paper_Space
  1

  0
ENDBLK
  5
6E
330
6C
100
AcDbEntity
 67
     1
  8
0
100
AcDbBlockEnd
  0
BLOCK
  5
75
330
74
100
AcDbEntity
 67
     1
  8
0
100
AcDbBlockBegin
  2
*Paper_Space0
 70
     0
 10
0.0
 20
0.0
 30
0.0
  3
*Paper_Space0
  1

  0
ENDBLK
  5
76
330
74
100
AcDbEntity
 67
     1
  8
0
100
AcDbBlockEnd
  0
BLOCK
  5
17C
330
179
100
AcDbEntity
  8
0
100
AcDbBlockBegin
  2
Shower
 70
     2
 10
0.0
 20
0.0
 30
0.0
  3
Shower
  1

  0
LWPOLYLINE
  5
17D
330
179
100
AcDbEntity
  8
Titleblock
100
AcDbPolyline
 90
        4
 70
     1
 43
0.0
 10
0.0
 20
0.0
 10
-4.9375
 20
0.0
 10
-4.9375
 20
2.5
 10
0.0
 20
2.5
  0
IMAGE
  5
17E
330
179
100
AcDbEntity
  8
Titleblock
  6
Continuous
160
               140
310
8C0000000100000084000000060000000500000000000000008013C000B87FA8928AB03F000000000000000000000000008013C035B4911D6523F03F000000000000000001000000008001C035B4911D6523F03F000000000000000001000000008001C000B87FA8928AB03F000000000000000000000000008013C000B87F
310
A8928AB03F0000000000000000
370
     0
100
AcDbRasterImage
 90
        0
 10
-4.875
 20
0.064614
 30
0.0
 11
0.0028349156118143
 21
0.0
 31
0.0
 12
0.0
 22
0.0028349156118143
 32
0.0
 13
948.0
 23
333.0
340
17F
 70
    15
280
     0
281
    50
282
    50
283
     0
290
     0
360
181
 71
     1
 91
        2
 14
-0.5
 24
-0.5
 14
947.5
 24
332.5
  0
LWPOLYLINE
  5
183
330
179
100
AcDbEntity
  8
Titleblock
  6
Continuous
370
    25
100
AcDbPolyline
 90
        4
 70
     1
 43
0.0
 10
0.0
 20
1.0625
 10
-4.9375
 20
1.061638
 10
-4.9375
 20
0.0
 10
0.0
 20
0.0
  0
LWPOLYLINE
  5
184
330
179
100
AcDbEntity
  8
Titleblock
  6
Continuous
370
    25
100
AcDbPolyline
 90
        4
 70
     1
 43
0.0
 10
-1.75
 20
2.5
 10
0.0
 20
2.5
 10
0.0
 20
2.5
 10
-1.75
 20
2.5
  0
ATTDEF
  5
185
330
179
100
AcDbEntity
  8
Titleblock
  6
Continuous
370
    25
100
AcDbText
 10
-3.6875
 20
2.3125
 30
0.0
 40
0.12
  1

100
AcDbAttributeDefinition
280
     0
  3

  2
PROJECT
 70
     0
280
     1
  0
MTEXT
  5
186
330
179
100
AcDbEntity
  8
Titleblock
  6
Continuous
370
    25
100
AcDbMText
 10
-4.875
 20
1.653875
 30
0.0
 40
0.12
 41
0.6875
 46
0.0
 71
     1
 72
     5
  1
Description:
 73
     1
 44
1.0
1001
ACAD
1000
ACAD_MTEXT_COLUMN_INFO_BEGIN
1070
    75
1070
     2
1070
    79
1070
     0
1070
    76
1070
     1
1070
    78
1070
     0
1070
    48
1040
0.6875
1070
    49
1040
0.6
1070
    50
1070
     1
1040
0.0
1000
ACAD_MTEXT_COLUMN_INFO_END
  0
ATTDEF
  5
187
330
179
100
AcDbEntity
  8
Titleblock
  6
Continuous
370
    25
100
AcDbText
 10
-1.6875
 20
0.6875
 30
0.0
 40
0.12
  1

100
AcDbAttributeDefinition
280
     0
  3

  2
DRAWN_DATE
 70
     0
280
     1
  0
ATTDEF
  5
188
330
179
100
AcDbEntity
  8
Titleblock
  6
Continuous
370
    25
100
AcDbText
 10
-4.3125
 20
1.8125
 30
0.0
 40
0.3048
  1

100
AcDbAttributeDefinition
280
     0
  3

  2
TITLE_1
 70
     0
280
     1
  0
ATTDEF
  5
189
330
179
100
AcDbEntity
  8
Titleblock
  6
Continuous
370
    25
100
AcDbText
 10
-1.6875
 20
0.91994
 30
0.0
 40
0.12
  1

100
AcDbAttributeDefinition
280
     0
  3

  2
SCALE
 70
     0
280
     1
  0
LWPOLYLINE
  5
18A
330
179
100
AcDbEntity
  8
Titleblock
  6
Continuous
370
    25
100
AcDbPolyline
 90
        4
 70
     1
 43
0.0
 10
0.0
 20
1.0625
 10
0.0
 20
1.0625
 10
0.0
 20
0.0
 10
0.0
 20
0.0
  0
LWPOLYLINE
  5
18B
330
179
100
AcDbEntity
  8
Titleblock
  6
Continuous
370
    25
100
AcDbPolyline
 90
        4
 70
     1
 43
0.0
 10
0.0
 20
1.0625
 10
0.0
 20
1.0625
 10
0.0
 20
0.0
 10
0.0
 20
0.0
  0
LINE
  5
18C
330
179
100
AcDbEntity
  8
Titleblock
  6
Continuous
370
    25
100
AcDbLine
 10
-2.125
 20
1.062165
 30
0.0
 11
-2.125
 21
0.0
 31
0.0
  0
LWPOLYLINE
  5
18D
330
179
100
AcDbEntity
  8
Titleblock
  6
Continuous
370
    25
100
AcDbPolyline
 90
        4
 70
     1
 43
0.0
 10
-4.9375
 20
2.5
 10
0.0
 20
2.5
 10
0.0
 20
2.5
 10
-4.9375
 20
2.5
  0
LINE
  5
18E
330
179
100
AcDbEntity
  8
Titleblock
  6
Continuous
370
    25
100
AcDbLine
 10
-4.9375
 20
2.25
 30
0.0
 11
0.0
 21
2.25
 31
0.0
  0
LINE
  5
18F
330
179
100
AcDbEntity
  8
Titleblock
  6
Continuous
370
    25
100
AcDbLine
 10
-4.9375
 20
1.6875
 30
0.0
 11
0.0
 21
1.6875
 31
0.0
  0
MTEXT
  5
190
330
179
100
AcDbEntity
  8
Titleblock
100
AcDbMText
 10
-4.875
 20
2.467284
 30
0.0
 40
0.12
 41
0.375
 46
0.0
 71
     1
 72
     5
  1
Project:
 73
     1
 44
1.0
1001
ACAD
1000
ACAD_MTEXT_COLUMN_INFO_BEGIN
1070
    75
1070
     2
1070
    79
1070
     0
1070
    76
1070
     1
1070
    78
1070
     0
1070
    48
1040
0.375
1070
    49
1040
0.6
1070
    50
1070
     1
1040
0.0
1000
ACAD_MTEXT_COLUMN_INFO_END
  0
MTEXT
  5
191
330
179
100
AcDbEntity
  8
Titleblock
100
AcDbMText
 10
-2.0625
 20
1.045477
 30
0.0
 40
0.075
 41
0.375
 46
0.0
 71
     1
 72
     5
  1
Scale:
 73
     1
 44
1.0
1001
ACAD
1000
ACAD_MTEXT_COLUMN_INFO_BEGIN
1070
    75
1070
     2
1070
    79
1070
     0
1070
    76
1070
     1
1070
    78
1070
     0
1070
    48
1040
0.375
1070
    49
1040
0.6
1070
    50
1070
     1
1040
0.0
1000
ACAD_MTEXT_COLUMN_INFO_END
  0
MTEXT
  5
192
330
179
100
AcDbEntity
  8
Titleblock
100
AcDbMText
 10
-2.0625
 20
0.857735
 30
0.0
 40
0.075
 41
0.375
 46
0.0
 71
     1
 72
     5
  1
Date Drawn:
 73
     1
 44
1.0
1001
ACAD
1000
ACAD_MTEXT_COLUMN_INFO_BEGIN
1070
    75
1070
     2
1070
    79
1070
     0
1070
    76
1070
     1
1070
    78
1070
     0
1070
    48
1040
0.375
1070
    49
1040
0.6
1070
    50
1070
     1
1040
0.0
1000
ACAD_MTEXT_COLUMN_INFO_END
  0
LINE
  5
193
330
179
100
AcDbEntity
  8
Titleblock
100
AcDbLine
 10
-2.125
 20
0.875
 30
0.0
 11
0.0
 21
0.875
 31
0.0
  0
LINE
  5
194
330
179
100
AcDbEntity
  8
Titleblock
100
AcDbLine
 10
-2.125
 20
0.625
 30
0.0
 11
0.0
 21
0.625
 31
0.0
  0
MTEXT
  5
195
330
179
100
AcDbEntity
  8
Titleblock
100
AcDbMText
 10
-4.875
 20
2.220603
 30
0.0
 40
0.12
 41
0.625
 46
0.0
 71
     1
 72
     5
  1
Title:
 73
     1
 44
1.0
1001
ACAD
1000
ACAD_MTEXT_COLUMN_INFO_BEGIN
1070
    75
1070
     2
1070
    79
1070
     0
1070
    76
1070
     1
1070
    78
1070
     0
1070
    48
1040
0.625
1070
    49
1040
0.6
1070
    50
1070
     1
1040
0.0
1000
ACAD_MTEXT_COLUMN_INFO_END
  0
ENDBLK
  5
196
330
179
100
AcDbEntity
  8
0
100
AcDbBlockEnd
  0
BLOCK
  5
19F
330
19E
100
AcDbEntity
  8
0
100
AcDbBlockBegin
  2
ANSI_B_SHEET
 70
     0
 10
0.0
 20
0.0
 30
0.0
  3
ANSI_B_SHEET
  1

  0
LINE
  5
1A0
330
19E
100
AcDbEntity
  8
Border
100
AcDbLine
 10
0.0
 20
0.0
 30
0.0
 11
0.5
 21
0.0
 31
0.0
  0
LINE
  5
1A1
330
19E
100
AcDbEntity
  8
Border
100
AcDbLine
 10
16.5
 20
0.0
 30
0.0
 11
17.0
 21
0.0
 31
0.0
  0
LINE
  5
1A2
330
19E
100
AcDbEntity
  8
Border
100
AcDbLine
 10
0.62
 20
0.38
 30
0.0
 11
16.38
 21
0.38
 31
0.0
  0
LINE
  5
1A3
330
19E
100
AcDbEntity
  8
Border
100
AcDbLine
 10
17.0
 20
0.0
 30
0.0
 11
17.0
 21
0.5
 31
0.0
  0
LINE
  5
1A4
330
19E
100
AcDbEntity
  8
Border
100
AcDbLine
 10
17.0
 20
10.5
 30
0.0
 11
17.0
 21
11.0
 31
0.0
  0
LINE
  5
1A5
330
19E
100
AcDbEntity
  8
Border
100
AcDbLine
 10
16.38
 20
0.38
 30
0.0
 11
16.38
 21
10.62
 31
0.0
  0
LINE
  5
1A6
330
19E
100
AcDbEntity
  8
Border
100
AcDbLine
 10
17.0
 20
11.0
 30
0.0
 11
16.5
 21
11.0
 31
0.0
  0
LINE
  5
1A7
330
19E
100
AcDbEntity
  8
Border
100
AcDbLine
 10
0.5
 20
11.0
 30
0.0
 11
0.0
 21
11.0
 31
0.0
  0
LINE
  5
1A8
330
19E
100
AcDbEntity
  8
Border
100
AcDbLine
 10
16.38
 20
10.62
 30
0.0
 11
0.62
 21
10.62
 31
0.0
  0
LINE
  5
1A9
330
19E
100
AcDbEntity
  8
Border
100
AcDbLine
 10
0.0
 20
11.0
 30
0.0
 11
0.0
 21
10.5
 31
0.0
  0
LINE
  5
1AA
330
19E
100
AcDbEntity
  8
Border
100
AcDbLine
 10
0.0
 20
0.5
 30
0.0
 11
0.0
 21
0.0
 31
0.0
  0
LINE
  5
1AB
330
19E
100
AcDbEntity
  8
Border
100
AcDbLine
 10
0.62
 20
10.62
 30
0.0
 11
0.62
 21
0.38
 31
0.0
  0
LINE
  5
1AC
330
19E
100
AcDbEntity
  8
Border
100
AcDbLine
 10
8.413397
 20
0.23
 30
0.0
 11
8.586603
 21
0.23
 31
0.0
  0
LINE
  5
1AD
330
19E
100
AcDbEntity
  8
Border
100
AcDbLine
 10
8.5
 20
0.38
 30
0.0
 11
8.5
 21
0.13
 31
0.0
  0
LINE
  5
1AE
330
19E
100
AcDbEntity
  8
Border
100
AcDbLine
 10
8.5
 20
0.38
 30
0.0
 11
8.413397
 21
0.23
 31
0.0
  0
LINE
  5
1AF
330
19E
100
AcDbEntity
  8
Border
100
AcDbLine
 10
8.5
 20
0.38
 30
0.0
 11
8.586603
 21
0.23
 31
0.0
  0
LINE
  5
1B0
330
19E
100
AcDbEntity
  8
Border
100
AcDbLine
 10
0.47
 20
5.586603
 30
0.0
 11
0.47
 21
5.413397
 31
0.0
  0
LINE
  5
1B1
330
19E
100
AcDbEntity
  8
Border
100
AcDbLine
 10
0.62
 20
5.5
 30
0.0
 11
0.37
 21
5.5
 31
0.0
  0
LINE
  5
1B2
330
19E
100
AcDbEntity
  8
Border
100
AcDbLine
 10
0.62
 20
5.5
 30
0.0
 11
0.47
 21
5.586603
 31
0.0
  0
LINE
  5
1B3
330
19E
100
AcDbEntity
  8
Border
100
AcDbLine
 10
0.62
 20
5.5
 30
0.0
 11
0.47
 21
5.413397
 31
0.0
  0
LINE
  5
1B4
330
19E
100
AcDbEntity
  8
Border
100
AcDbLine
 10
16.53
 20
5.586603
 30
0.0
 11
16.53
 21
5.413397
 31
0.0
  0
LINE
  5
1B5
330
19E
100
AcDbEntity
  8
Border
100
AcDbLine
 10
16.38
 20
5.5
 30
0.0
 11
16.63
 21
5.5
 31
0.0
  0
LINE
  5
1B6
330
19E
100
AcDbEntity
  8
Border
100
AcDbLine
 10
16.38
 20
5.5
 30
0.0
 11
16.53
 21
5.586603
 31
0.0
  0
LINE
  5
1B7
330
19E
100
AcDbEntity
  8
Border
100
AcDbLine
 10
16.38
 20
5.5
 30
0.0
 11
16.53
 21
5.413397
 31
0.0
  0
LINE
  5
1B8
330
19E
100
AcDbEntity
  8
Border
100
AcDbLine
 10
8.413397
 20
10.77
 30
0.0
 11
8.586603
 21
10.77
 31
0.0
  0
LINE
  5
1B9
330
19E
100
AcDbEntity
  8
Border
100
AcDbLine
 10
8.5
 20
10.62
 30
0.0
 11
8.5
 21
10.87
 31
0.0
  0
LINE
  5
1BA
330
19E
100
AcDbEntity
  8
Border
100
AcDbLine
 10
8.5
 20
10.62
 30
0.0
 11
8.413397
 21
10.77
 31
0.0
  0
LINE
  5
1BB
330
19E
100
AcDbEntity
  8
Border
100
AcDbLine
 10
8.5
 20
10.62
 30
0.0
 11
8.586603
 21
10.77
 31
0.0
  0
ENDBLK
  5
1BC
330
19E
100
AcDbEntity
  8
0
100
AcDbBlockEnd
  0
BLOCK
  5
1C0
330
1BF
100
AcDbEntity
  8
0
100
AcDbBlockBegin
  2
*D6
 70
     1
 10
0.0
 20
0.0
 30
0.0
  3
*D6
  1

  0
LINE
  5
1C1
330
1BF
100
AcDbEntity
  8
Dimensions
440
 16777216
370
    -2
100
AcDbLine
 10
9.593272
 20
5.426701
 30
0.0
 11
9.473272
 21
5.426701
 31
0.0
  0
LINE
  5
1C2
330
1BF
100
AcDbEntity
  8
Dimensions
440
 16777216
370
    -2
100
AcDbLine
 10
9.473272
 20
5.426701
 30
0.0
 11
9.316212
 21
5.285012
 31
0.0
  0
MTEXT
  5
1C3
330
1BF
100
AcDbEntity
  8
Dimensions
440
 16777216
100
AcDbMText
 10
9.937679
 20
5.426701
 30
0.0
 40
0.12
 41
0.0
 46
0.0
 71
     5
 72
     1
  1
\A1;∅1.97in
 73
     1
 44
1.0
  0
SOLID
  5
1C4
330
1BF
100
AcDbEntity
  8
Dimensions
440
 16777216
100
AcDbTrace
 10
9.302815
 20
5.299862
 30
0.0
 11
9.329608
 21
5.270162
 31
0.0
 12
9.227111
 22
5.204631
 32
0.0
 13
9.227111
 23
5.204631
 33
0.0
  0
POINT
  5
1C5
330
1BF
100
AcDbEntity
  8
Defpoints
 62
     0
440
 16777216
100
AcDbPoint
 10
9.227111
 20
5.204631
 30
0.0
  0
POINT
  5
1C6
330
1BF
100
AcDbEntity
  8
Defpoints
 62
     0
440
 16777216
100
AcDbPoint
 10
7.765483
 20
3.886051
 30
0.0
  0
ENDBLK
  5
1C7
330
1BF
100
AcDbEntity
  8
0
100
AcDbBlockEnd
  0
BLOCK
  5
1CA
330
1C9
100
AcDbEntity
  8
0
100
AcDbBlockBegin
  2
*D7
 70
     1
 10
0.0
 20
0.0
 30
0.0
  3
*D7
  1

  0
LINE
  5
1CB
330
1C9
100
AcDbEntity
  8
Dimensions
440
 16777216
370
    -2
100
AcDbLine
 10
9.792109
 20
4.949737
 30
0.0
 11
9.672109
 21
4.949737
 31
0.0
  0
LINE
  5
1CC
330
1C9
100
AcDbEntity
  8
Dimensions
440
 16777216
370
    -2
100
AcDbLine
 10
9.672109
 20
4.949737
 30
0.0
 11
9.075145
 21
4.744424
 31
0.0
  0
MTEXT
  5
1CD
330
1C9
100
AcDbEntity
  8
Dimensions
440
 16777216
100
AcDbMText
 10
10.089899
 20
4.949737
 30
0.0
 40
0.12
 41
0.0
 46
0.0
 71
     5
 72
     1
  1
\A1;∅.98in
 73
     1
 44
1.0
  0
SOLID
  5
1CE
330
1C9
100
AcDbEntity
  8
Dimensions
440
 16777216
100
AcDbTrace
 10
9.06864
 20
4.763336
 30
0.0
 11
9.081649
 21
4.725511
 31
0.0
 12
8.961669
 22
4.705396
 32
0.0
 13
8.961669
 23
4.705396
 33
0.0
  0
POINT
  5
1CF
330
1C9
100
AcDbEntity
  8
Defpoints
 62
     0
440
 16777216
100
AcDbPoint
 10
8.961669
 20
4.705396
 30
0.0
  0
POINT
  5
1D0
330
1C9
100
AcDbEntity
  8
Defpoints
 62
     0
440
 16777216
100
AcDbPoint
 10
8.030926
 20
4.385287
 30
0.0
  0
ENDBLK
  5
1D1
330
1C9
100
AcDbEntity
  8
0
100
AcDbBlockEnd
  0
BLOCK
  5
1D4
330
1D3
100
AcDbEntity
  8
0
100
AcDbBlockBegin
  2
*D8
 70
     1
 10
0.0
 20
0.0
 30
0.0
  3
*D8
  1

  0
LINE
  5
1D5
330
1D3
100
AcDbEntity
  8
Dimensions
440
 16777216
370
    -2
100
AcDbLine
 10
8.770214
 20
3.477064
 30
0.0
 11
8.769603
 21
3.087653
 31
0.0
  0
LINE
  5
1D6
330
1D3
100
AcDbEntity
  8
Dimensions
440
 16777216
370
    -2
100
AcDbLine
 10
8.219033
 20
3.477928
 30
0.0
 11
8.218423
 21
3.088517
 31
0.0
  0
LINE
  5
1D7
330
1D3
100
AcDbEntity
  8
Dimensions
440
 16777216
370
    -2
100
AcDbLine
 10
8.88976
 20
3.187465
 30
0.0
 11
9.00976
 21
3.187277
 31
0.0
  0
LINE
  5
1D8
330
1D3
100
AcDbEntity
  8
Dimensions
440
 16777216
370
    -2
100
AcDbLine
 10
8.09858
 20
3.188705
 30
0.0
 11
7.97858
 21
3.188893
 31
0.0
  0
SOLID
  5
1D9
330
1D3
100
AcDbEntity
  8
Dimensions
440
 16777216
100
AcDbTrace
 10
8.889791
 20
3.207465
 30
0.0
 11
8.889728
 21
3.167465
 31
0.0
 12
8.76976
 22
3.187653
 32
0.0
 13
8.76976
 23
3.187653
 33
0.0
  0
SOLID
  5
1DA
330
1D3
100
AcDbEntity
  8
Dimensions
440
 16777216
100
AcDbTrace
 10
8.098611
 20
3.208705
 30
0.0
 11
8.098548
 21
3.168705
 31
0.0
 12
8.218579
 22
3.188517
 32
0.0
 13
8.218579
 23
3.188517
 33
0.0
  0
MTEXT
  5
1DB
330
1D3
100
AcDbEntity
  8
Dimensions
440
 16777216
100
AcDbMText
 10
8.49417
 20
3.188085
 30
0.0
 40
0.12
 41
0.0
 46
0.0
 71
     5
 72
     1
  1
\A1;.55in
 73
     1
 44
1.0
  0
POINT
  5
1DC
330
1D3
100
AcDbEntity
  8
Defpoints
 62
     0
440
 16777216
100
AcDbPoint
 10
8.770292
 20
3.527064
 30
0.0
  0
POINT
  5
1DD
330
1D3
100
AcDbEntity
  8
Defpoints
 62
     0
440
 16777216
100
AcDbPoint
 10
8.219111
 20
3.527928
 30
0.0
  0
POINT
  5
1DE
330
1D3
100
AcDbEntity
  8
Defpoints
 62
     0
440
 16777216
100
AcDbPoint
 10
8.218579
 20
3.188517
 30
0.0
  0
ENDBLK
  5
1DF
330
1D3
100
AcDbEntity
  8
0
100
AcDbBlockEnd
  0
BLOCK
  5
1E2
330
1E1
100
AcDbEntity
  8
0
100
AcDbBlockBegin
  2
*D9
 70
     1
 10
0.0
 20
0.0
 30
0.0
  3
*D9
  1

  0
LINE
  5
1E3
330
1E1
100
AcDbEntity
  8
Dimensions
440
 16777216
370
    -2
100
AcDbLine
 10
7.217341
 20
7.469467
 30
0.0
 11
7.217341
 21
8.198289
 31
0.0
  0
LINE
  5
1E4
330
1E1
100
AcDbEntity
  8
Dimensions
440
 16777216
370
    -2
100
AcDbLine
 10
9.782659
 20
7.469467
 30
0.0
 11
9.782659
 21
8.198289
 31
0.0
  0
LINE
  5
1E5
330
1E1
100
AcDbEntity
  8
Dimensions
440
 16777216
370
    -2
100
AcDbLine
 10
7.337341
 20
8.098289
 30
0.0
 11
8.21985
 21
8.098289
 31
0.0
  0
LINE
  5
1E6
330
1E1
100
AcDbEntity
  8
Dimensions
440
 16777216
370
    -2
100
AcDbLine
 10
9.662659
 20
8.098289
 30
0.0
 11
8.78015
 21
8.098289
 31
0.0
  0
SOLID
  5
1E7
330
1E1
100
AcDbEntity
  8
Dimensions
440
 16777216
100
AcDbTrace
 10
7.337341
 20
8.118289
 30
0.0
 11
7.337341
 21
8.078289
 31
0.0
 12
7.217341
 22
8.098289
 32
0.0
 13
7.217341
 23
8.098289
 33
0.0
  0
SOLID
  5
1E8
330
1E1
100
AcDbEntity
  8
Dimensions
440
 16777216
100
AcDbTrace
 10
9.662659
 20
8.118289
 30
0.0
 11
9.662659
 21
8.078289
 31
0.0
 12
9.782659
 22
8.098289
 32
0.0
 13
9.782659
 23
8.098289
 33
0.0
  0
MTEXT
  5
1E9
330
1E1
100
AcDbEntity
  8
Dimensions
440
 16777216
100
AcDbMText
 10
8.5
 20
8.098289
 30
0.0
 40
0.12
 41
0.0
 46
0.0
 71
     5
 72
     1
  1
\A1;2.57in
 73
     1
 44
1.0
  0
POINT
  5
1EA
330
1E1
100
AcDbEntity
  8
Defpoints
 62
     0
440
 16777216
100
AcDbPoint
 10
7.217341
 20
7.419467
 30
0.0
  0
POINT
  5
1EB
330
1E1
100
AcDbEntity
  8
Defpoints
 62
     0
440
 16777216
100
AcDbPoint
 10
9.782659
 20
7.419467
 30
0.0
  0
POINT
  5
1EC
330
1E1
100
AcDbEntity
  8
Defpoints
 62
     0
440
 16777216
100
AcDbPoint
 10
9.782659
 20
8.098289
 30
0.0
  0
ENDBLK
  5
1ED
330
1E1
100
AcDbEntity
  8
0
100
AcDbBlockEnd
  0
BLOCK
  5
1F0
330
1EF
100
AcDbEntity
  8
0
100
AcDbBlockBegin
  2
*D10
 70
     1
 10
0.0
 20
0.0
 30
0.0
  3
*D10
  1

  0
LINE
  5
1F1
330
1EF
100
AcDbEntity
  8
Dimensions
440
 16777216
370
    -2
100
AcDbLine
 10
15.274468
 20
5.579593
 30
0.0
 11
15.274468
 21
8.5377
 31
0.0
  0
LINE
  5
1F2
330
1EF
100
AcDbEntity
  8
Dimensions
440
 16777216
370
    -2
100
AcDbLine
 10
12.124861
 20
7.469467
 30
0.0
 11
12.124861
 21
8.5377
 31
0.0
  0
LINE
  5
1F3
330
1EF
100
AcDbEntity
  8
Dimensions
440
 16777216
370
    -2
100
AcDbLine
 10
15.154468
 20
8.4377
 30
0.0
 11
13.97875
 21
8.4377
 31
0.0
  0
LINE
  5
1F4
330
1EF
100
AcDbEntity
  8
Dimensions
440
 16777216
370
    -2
100
AcDbLine
 10
12.244861
 20
8.4377
 30
0.0
 11
13.420578
 21
8.4377
 31
0.0
  0
SOLID
  5
1F5
330
1EF
100
AcDbEntity
  8
Dimensions
440
 16777216
100
AcDbTrace
 10
15.154468
 20
8.4577
 30
0.0
 11
15.154468
 21
8.4177
 31
0.0
 12
15.274468
 22
8.4377
 32
0.0
 13
15.274468
 23
8.4377
 33
0.0
  0
SOLID
  5
1F6
330
1EF
100
AcDbEntity
  8
Dimensions
440
 16777216
100
AcDbTrace
 10
12.244861
 20
8.4577
 30
0.0
 11
12.244861
 21
8.4177
 31
0.0
 12
12.124861
 22
8.4377
 32
0.0
 13
12.124861
 23
8.4377
 33
0.0
  0
MTEXT
  5
1F7
330
1EF
100
AcDbEntity
  8
Dimensions
440
 16777216
100
AcDbMText
 10
13.699664
 20
8.4377
 30
0.0
 40
0.12
 41
0.0
 46
0.0
 71
     5
 72
     1
  1
\A1;3.15in
 73
     1
 44
1.0
  0
POINT
  5
1F8
330
1EF
100
AcDbEntity
  8
Defpoints
 62
     0
440
 16777216
100
AcDbPoint
 10
15.274468
 20
5.529593
 30
0.0
  0
POINT
  5
1F9
330
1EF
100
AcDbEntity
  8
Defpoints
 62
     0
440
 16777216
100
AcDbPoint
 10
12.124861
 20
7.419467
 30
0.0
  0
POINT
  5
1FA
330
1EF
100
AcDbEntity
  8
Defpoints
 62
     0
440
 16777216
100
AcDbPoint
 10
12.124861
 20
8.4377
 30
0.0
  0
ENDBLK
  5
1FB
330
1EF
100
AcDbEntity
  8
0
100
AcDbBlockEnd
  0
BLOCK
  5
1FE
330
1FD
100
AcDbEntity
  8
0
100
AcDbBlockBegin
  2
*D11
 70
     1
 10
0.0
 20
0.0
 30
0.0
  3
*D11
  1

  0
LINE
  5
1FF
330
1FD
100
AcDbEntity
  8
Dimensions
440
 16777216
370
    -2
100
AcDbLine
 10
15.274468
 20
5.579593
 30
0.0
 11
15.274468
 21
5.969005
 31
0.0
  0
LINE
  5
200
330
1FD
100
AcDbEntity
  8
Dimensions
440
 16777216
370
    -2
100
AcDbLine
 10
15.077617
 20
5.540223
 30
0.0
 11
15.077617
 21
5.969005
 31
0.0
  0
LINE
  5
201
330
1FD
100
AcDbEntity
  8
Dimensions
440
 16777216
370
    -2
100
AcDbLine
 10
15.394468
 20
5.869005
 30
0.0
 11
15.514468
 21
5.869005
 31
0.0
  0
LINE
  5
202
330
1FD
100
AcDbEntity
  8
Dimensions
440
 16777216
370
    -2
100
AcDbLine
 10
14.957617
 20
5.869005
 30
0.0
 11
14.837617
 21
5.869005
 31
0.0
  0
SOLID
  5
203
330
1FD
100
AcDbEntity
  8
Dimensions
440
 16777216
100
AcDbTrace
 10
15.394468
 20
5.889005
 30
0.0
 11
15.394468
 21
5.849005
 31
0.0
 12
15.274468
 22
5.869005
 32
0.0
 13
15.274468
 23
5.869005
 33
0.0
  0
SOLID
  5
204
330
1FD
100
AcDbEntity
  8
Dimensions
440
 16777216
100
AcDbTrace
 10
14.957617
 20
5.889005
 30
0.0
 11
14.957617
 21
5.849005
 31
0.0
 12
15.077617
 22
5.869005
 32
0.0
 13
15.077617
 23
5.869005
 33
0.0
  0
MTEXT
  5
205
330
1FD
100
AcDbEntity
  8
Dimensions
440
 16777216
100
AcDbMText
 10
14.655857
 20
5.869005
 30
0.0
 40
0.12
 41
0.0
 46
0.0
 71
     5
 72
     1
  1
\A1;.2in
 73
     1
 44
1.0
  0
POINT
  5
206
330
1FD
100
AcDbEntity
  8
Defpoints
 62
     0
440
 16777216
100
AcDbPoint
 10
15.274468
 20
5.529593
 30
0.0
  0
POINT
  5
207
330
1FD
100
AcDbEntity
  8
Defpoints
 62
     0
440
 16777216
100
AcDbPoint
 10
15.077617
 20
5.490223
 30
0.0
  0
POINT
  5
208
330
1FD
100
AcDbEntity
  8
Defpoints
 62
     0
440
 16777216
100
AcDbPoint
 10
15.077617
 20
5.869005
 30
0.0
  0
ENDBLK
  5
209
330
1FD
100
AcDbEntity
  8
0
100
AcDbBlockEnd
  0
BLOCK
  5
20C
330
20B
100
AcDbEntity
  8
0
100
AcDbBlockBegin
  2
*D12
 70
     1
 10
0.0
 20
0.0
 30
0.0
  3
*D12
  1

  0
LINE
  5
20D
330
20B
100
AcDbEntity
  8
Dimensions
440
 16777216
370
    -2
100
AcDbLine
 10
15.274468
 20
5.479593
 30
0.0
 11
15.274468
 21
3.087696
 31
0.0
  0
LINE
  5
20E
330
20B
100
AcDbEntity
  8
Dimensions
440
 16777216
370
    -2
100
AcDbLine
 10
11.65242
 20
4.495341
 30
0.0
 11
11.65242
 21
3.087696
 31
0.0
  0
LINE
  5
20F
330
20B
100
AcDbEntity
  8
Dimensions
440
 16777216
370
    -2
100
AcDbLine
 10
15.154468
 20
3.187696
 30
0.0
 11
13.74253
 21
3.187696
 31
0.0
  0
LINE
  5
210
330
20B
100
AcDbEntity
  8
Dimensions
440
 16777216
370
    -2
100
AcDbLine
 10
11.77242
 20
3.187696
 30
0.0
 11
13.184358
 21
3.187696
 31
0.0
  0
SOLID
  5
211
330
20B
100
AcDbEntity
  8
Dimensions
440
 16777216
100
AcDbTrace
 10
15.154468
 20
3.207696
 30
0.0
 11
15.154468
 21
3.167696
 31
0.0
 12
15.274468
 22
3.187696
 32
0.0
 13
15.274468
 23
3.187696
 33
0.0
  0
SOLID
  5
212
330
20B
100
AcDbEntity
  8
Dimensions
440
 16777216
100
AcDbTrace
 10
11.77242
 20
3.207696
 30
0.0
 11
11.77242
 21
3.167696
 31
0.0
 12
11.65242
 22
3.187696
 32
0.0
 13
11.65242
 23
3.187696
 33
0.0
  0
MTEXT
  5
213
330
20B
100
AcDbEntity
  8
Dimensions
440
 16777216
100
AcDbMText
 10
13.463444
 20
3.187696
 30
0.0
 40
0.12
 41
0.0
 46
0.0
 71
     5
 72
     1
  1
\A1;3.62in
 73
     1
 44
1.0
  0
POINT
  5
214
330
20B
100
AcDbEntity
  8
Defpoints
 62
     0
440
 16777216
100
AcDbPoint
 10
15.274468
 20
5.529593
 30
0.0
  0
POINT
  5
215
330
20B
100
AcDbEntity
  8
Defpoints
 62
     0
440
 16777216
100
AcDbPoint
 10
11.65242
 20
4.545341
 30
0.0
  0
POINT
  5
216
330
20B
100
AcDbEntity
  8
Defpoints
 62
     0
440
 16777216
100
AcDbPoint
 10
11.65242
 20
3.187696
 30
0.0
  0
ENDBLK
  5
217
330
20B
100
AcDbEntity
  8
0
100
AcDbBlockEnd
  0
BLOCK
  5
21A
330
219
100
AcDbEntity
  8
0
100
AcDbBlockBegin
  2
*D13
 70
     1
 10
0.0
 20
0.0
 30
0.0
  3
*D13
  1

  0
LINE
  5
423
330
219
100
AcDbEntity
  8
Dimensions
440
 16777216
370
    -2
100
AcDbLine
 10
9.593272
 20
5.426701
 30
0.0
 11
9.473272
 21
5.426701
 31
0.0
  0
LINE
  5
424
330
219
100
AcDbEntity
  8
Dimensions
440
 16777216
370
    -2
100
AcDbLine
 10
9.473272
 20
5.426701
 30
0.0
 11
9.316212
 21
5.285012
 31
0.0
  0
MTEXT
  5
425
330
219
100
AcDbEntity
  8
Dimensions
440
 16777216
100
AcDbMText
 10
9.937679
 20
5.426701
 30
0.0
 40
0.12
 41
0.0
 46
0.0
 71
     5
 72
     1
  1
\A1;∅1.97in
 73
     1
 44
1.0
  0
SOLID
  5
426
330
219
100
AcDbEntity
  8
Dimensions
440
 16777216
100
AcDbTrace
 10
9.302815
 20
5.299862
 30
0.0
 11
9.329608
 21
5.270162
 31
0.0
 12
9.227111
 22
5.204631
 32
0.0
 13
9.227111
 23
5.204631
 33
0.0
  0
POINT
  5
427
330
219
100
AcDbEntity
  8
Defpoints
 62
     0
440
 16777216
100
AcDbPoint
 10
9.227111
 20
5.204631
 30
0.0
  0
POINT
  5
428
330
219
100
AcDbEntity
  8
Defpoints
 62
     0
440
 16777216
100
AcDbPoint
 10
7.765483
 20
3.886051
 30
0.0
  0
ENDBLK
  5
21B
330
219
100
AcDbEntity
  8
0
100
AcDbBlockEnd
  0
BLOCK
  5
223
330
222
100
AcDbEntity
  8
0
100
AcDbBlockBegin
  2
*D14
 70
     1
 10
0.0
 20
0.0
 30
0.0
  3
*D14
  1

  0
LINE
  5
429
330
222
100
AcDbEntity
  8
Dimensions
440
 16777216
370
    -2
100
AcDbLine
 10
9.792109
 20
4.949737
 30
0.0
 11
9.672109
 21
4.949737
 31
0.0
  0
LINE
  5
42A
330
222
100
AcDbEntity
  8
Dimensions
440
 16777216
370
    -2
100
AcDbLine
 10
9.672109
 20
4.949737
 30
0.0
 11
9.075145
 21
4.744424
 31
0.0
  0
MTEXT
  5
42B
330
222
100
AcDbEntity
  8
Dimensions
440
 16777216
100
AcDbMText
 10
10.089899
 20
4.949737
 30
0.0
 40
0.12
 41
0.0
 46
0.0
 71
     5
 72
     1
  1
\A1;∅.98in
 73
     1
 44
1.0
  0
SOLID
  5
42C
330
222
100
AcDbEntity
  8
Dimensions
440
 16777216
100
AcDbTrace
 10
9.06864
 20
4.763336
 30
0.0
 11
9.081649
 21
4.725511
 31
0.0
 12
8.961669
 22
4.705396
 32
0.0
 13
8.961669
 23
4.705396
 33
0.0
  0
POINT
  5
42D
330
222
100
AcDbEntity
  8
Defpoints
 62
     0
440
 16777216
100
AcDbPoint
 10
8.961669
 20
4.705396
 30
0.0
  0
POINT
  5
42E
330
222
100
AcDbEntity
  8
Defpoints
 62
     0
440
 16777216
100
AcDbPoint
 10
8.030926
 20
4.385287
 30
0.0
  0
ENDBLK
  5
224
330
222
100
AcDbEntity
  8
0
100
AcDbBlockEnd
  0
BLOCK
  5
22C
330
22B
100
AcDbEntity
  8
0
100
AcDbBlockBegin
  2
*D15
 70
     1
 10
0.0
 20
0.0
 30
0.0
  3
*D15
  1

  0
LINE
  5
42F
330
22B
100
AcDbEntity
  8
Dimensions
440
 16777216
370
    -2
100
AcDbLine
 10
8.770214
 20
3.477064
 30
0.0
 11
8.769603
 21
3.087653
 31
0.0
  0
LINE
  5
430
330
22B
100
AcDbEntity
  8
Dimensions
440
 16777216
370
    -2
100
AcDbLine
 10
8.219033
 20
3.477928
 30
0.0
 11
8.218423
 21
3.088517
 31
0.0
  0
LINE
  5
431
330
22B
100
AcDbEntity
  8
Dimensions
440
 16777216
370
    -2
100
AcDbLine
 10
8.88976
 20
3.187465
 30
0.0
 11
9.00976
 21
3.187277
 31
0.0
  0
LINE
  5
432
330
22B
100
AcDbEntity
  8
Dimensions
440
 16777216
370
    -2
100
AcDbLine
 10
8.09858
 20
3.188705
 30
0.0
 11
7.97858
 21
3.188893
 31
0.0
  0
SOLID
  5
433
330
22B
100
AcDbEntity
  8
Dimensions
440
 16777216
100
AcDbTrace
 10
8.889791
 20
3.207465
 30
0.0
 11
8.889728
 21
3.167465
 31
0.0
 12
8.76976
 22
3.187653
 32
0.0
 13
8.76976
 23
3.187653
 33
0.0
  0
SOLID
  5
434
330
22B
100
AcDbEntity
  8
Dimensions
440
 16777216
100
AcDbTrace
 10
8.098611
 20
3.208705
 30
0.0
 11
8.098548
 21
3.168705
 31
0.0
 12
8.218579
 22
3.188517
 32
0.0
 13
8.218579
 23
3.188517
 33
0.0
  0
MTEXT
  5
435
330
22B
100
AcDbEntity
  8
Dimensions
440
 16777216
100
AcDbMText
 10
8.49417
 20
3.188085
 30
0.0
 40
0.12
 41
0.0
 46
0.0
 71
     5
 72
     1
  1
\A1;.55in
 73
     1
 44
1.0
  0
POINT
  5
436
330
22B
100
AcDbEntity
  8
Defpoints
 62
     0
440
 16777216
100
AcDbPoint
 10
8.770292
 20
3.527064
 30
0.0
  0
POINT
  5
437
330
22B
100
AcDbEntity
  8
Defpoints
 62
     0
440
 16777216
100
AcDbPoint
 10
8.219111
 20
3.527928
 30
0.0
  0
POINT
  5
438
330
22B
100
AcDbEntity
  8
Defpoints
 62
     0
440
 16777216
100
AcDbPoint
 10
8.218579
 20
3.188517
 30
0.0
  0
ENDBLK
  5
22D
330
22B
100
AcDbEntity
  8
0
100
AcDbBlockEnd
  0
BLOCK
  5
239
330
238
100
AcDbEntity
  8
0
100
AcDbBlockBegin
  2
*D16
 70
     1
 10
0.0
 20
0.0
 30
0.0
  3
*D16
  1

  0
LINE
  5
439
330
238
100
AcDbEntity
  8
Dimensions
440
 16777216
370
    -2
100
AcDbLine
 10
7.217341
 20
7.469467
 30
0.0
 11
7.217341
 21
8.198289
 31
0.0
  0
LINE
  5
43A
330
238
100
AcDbEntity
  8
Dimensions
440
 16777216
370
    -2
100
AcDbLine
 10
9.782659
 20
7.469467
 30
0.0
 11
9.782659
 21
8.198289
 31
0.0
  0
LINE
  5
43B
330
238
100
AcDbEntity
  8
Dimensions
440
 16777216
370
    -2
100
AcDbLine
 10
7.337341
 20
8.098289
 30
0.0
 11
8.21985
 21
8.098289
 31
0.0
  0
LINE
  5
43C
330
238
100
AcDbEntity
  8
Dimensions
440
 16777216
370
    -2
100
AcDbLine
 10
9.662659
 20
8.098289
 30
0.0
 11
8.78015
 21
8.098289
 31
0.0
  0
SOLID
  5
43D
330
238
100
AcDbEntity
  8
Dimensions
440
 16777216
100
AcDbTrace
 10
7.337341
 20
8.118289
 30
0.0
 11
7.337341
 21
8.078289
 31
0.0
 12
7.217341
 22
8.098289
 32
0.0
 13
7.217341
 23
8.098289
 33
0.0
  0
SOLID
  5
43E
330
238
100
AcDbEntity
  8
Dimensions
440
 16777216
100
AcDbTrace
 10
9.662659
 20
8.118289
 30
0.0
 11
9.662659
 21
8.078289
 31
0.0
 12
9.782659
 22
8.098289
 32
0.0
 13
9.782659
 23
8.098289
 33
0.0
  0
MTEXT
  5
43F
330
238
100
AcDbEntity
  8
Dimensions
440
 16777216
100
AcDbMText
 10
8.5
 20
8.098289
 30
0.0
 40
0.12
 41
0.0
 46
0.0
 71
     5
 72
     1
  1
\A1;2.57in
 73
     1
 44
1.0
  0
POINT
  5
440
330
238
100
AcDbEntity
  8
Defpoints
 62
     0
440
 16777216
100
AcDbPoint
 10
7.217341
 20
7.419467
 30
0.0
  0
POINT
  5
441
330
238
100
AcDbEntity
  8
Defpoints
 62
     0
440
 16777216
100
AcDbPoint
 10
9.782659
 20
7.419467
 30
0.0
  0
POINT
  5
442
330
238
100
AcDbEntity
  8
Defpoints
 62
     0
440
 16777216
100
AcDbPoint
 10
9.782659
 20
8.098289
 30
0.0
  0
ENDBLK
  5
23A
330
238
100
AcDbEntity
  8
0
100
AcDbBlockEnd
  0
BLOCK
  5
246
330
245
100
AcDbEntity
  8
0
100
AcDbBlockBegin
  2
*D17
 70
     1
 10
0.0
 20
0.0
 30
0.0
  3
*D17
  1

  0
LINE
  5
443
330
245
100
AcDbEntity
  8
Dimensions
440
 16777216
370
    -2
100
AcDbLine
 10
15.274468
 20
5.579593
 30
0.0
 11
15.274468
 21
8.5377
 31
0.0
  0
LINE
  5
444
330
245
100
AcDbEntity
  8
Dimensions
440
 16777216
370
    -2
100
AcDbLine
 10
12.124861
 20
7.469467
 30
0.0
 11
12.124861
 21
8.5377
 31
0.0
  0
LINE
  5
445
330
245
100
AcDbEntity
  8
Dimensions
440
 16777216
370
    -2
100
AcDbLine
 10
15.154468
 20
8.4377
 30
0.0
 11
13.97875
 21
8.4377
 31
0.0
  0
LINE
  5
446
330
245
100
AcDbEntity
  8
Dimensions
440
 16777216
370
    -2
100
AcDbLine
 10
12.244861
 20
8.4377
 30
0.0
 11
13.420578
 21
8.4377
 31
0.0
  0
SOLID
  5
447
330
245
100
AcDbEntity
  8
Dimensions
440
 16777216
100
AcDbTrace
 10
15.154468
 20
8.4577
 30
0.0
 11
15.154468
 21
8.4177
 31
0.0
 12
15.274468
 22
8.4377
 32
0.0
 13
15.274468
 23
8.4377
 33
0.0
  0
SOLID
  5
448
330
245
100
AcDbEntity
  8
Dimensions
440
 16777216
100
AcDbTrace
 10
12.244861
 20
8.4577
 30
0.0
 11
12.244861
 21
8.4177
 31
0.0
 12
12.124861
 22
8.4377
 32
0.0
 13
12.124861
 23
8.4377
 33
0.0
  0
MTEXT
  5
449
330
245
100
AcDbEntity
  8
Dimensions
440
 16777216
100
AcDbMText
 10
13.699664
 20
8.4377
 30
0.0
 40
0.12
 41
0.0
 46
0.0
 71
     5
 72
     1
  1
\A1;3.15in
 73
     1
 44
1.0
  0
POINT
  5
44A
330
245
100
AcDbEntity
  8
Defpoints
 62
     0
440
 16777216
100
AcDbPoint
 10
15.274468
 20
5.529593
 30
0.0
  0
POINT
  5
44B
330
245
100
AcDbEntity
  8
Defpoints
 62
     0
440
 16777216
100
AcDbPoint
 10
12.124861
 20
7.419467
 30
0.0
  0
POINT
  5
44C
330
245
100
AcDbEntity
  8
Defpoints
 62
     0
440
 16777216
100
AcDbPoint
 10
12.124861
 20
8.4377
 30
0.0
  0
ENDBLK
  5
247
330
245
100
AcDbEntity
  8
0
100
AcDbBlockEnd
  0
BLOCK
  5
253
330
252
100
AcDbEntity
  8
0
100
AcDbBlockBegin
  2
*D18
 70
     1
 10
0.0
 20
0.0
 30
0.0
  3
*D18
  1

  0
LINE
  5
44D
330
252
100
AcDbEntity
  8
Dimensions
440
 16777216
370
    -2
100
AcDbLine
 10
15.274468
 20
5.579593
 30
0.0
 11
15.274468
 21
5.969005
 31
0.0
  0
LINE
  5
44E
330
252
100
AcDbEntity
  8
Dimensions
440
 16777216
370
    -2
100
AcDbLine
 10
15.077617
 20
5.540223
 30
0.0
 11
15.077617
 21
5.969005
 31
0.0
  0
LINE
  5
44F
330
252
100
AcDbEntity
  8
Dimensions
440
 16777216
370
    -2
100
AcDbLine
 10
15.394468
 20
5.869005
 30
0.0
 11
15.514468
 21
5.869005
 31
0.0
  0
LINE
  5
450
330
252
100
AcDbEntity
  8
Dimensions
440
 16777216
370
    -2
100
AcDbLine
 10
14.957617
 20
5.869005
 30
0.0
 11
14.837617
 21
5.869005
 31
0.0
  0
SOLID
  5
451
330
252
100
AcDbEntity
  8
Dimensions
440
 16777216
100
AcDbTrace
 10
15.394468
 20
5.889005
 30
0.0
 11
15.394468
 21
5.849005
 31
0.0
 12
15.274468
 22
5.869005
 32
0.0
 13
15.274468
 23
5.869005
 33
0.0
  0
SOLID
  5
452
330
252
100
AcDbEntity
  8
Dimensions
440
 16777216
100
AcDbTrace
 10
14.957617
 20
5.889005
 30
0.0
 11
14.957617
 21
5.849005
 31
0.0
 12
15.077617
 22
5.869005
 32
0.0
 13
15.077617
 23
5.869005
 33
0.0
  0
MTEXT
  5
453
330
252
100
AcDbEntity
  8
Dimensions
440
 16777216
100
AcDbMText
 10
14.655857
 20
5.869005
 30
0.0
 40
0.12
 41
0.0
 46
0.0
 71
     5
 72
     1
  1
\A1;.2in
 73
     1
 44
1.0
  0
POINT
  5
454
330
252
100
AcDbEntity
  8
Defpoints
 62
     0
440
 16777216
100
AcDbPoint
 10
15.274468
 20
5.529593
 30
0.0
  0
POINT
  5
455
330
252
100
AcDbEntity
  8
Defpoints
 62
     0
440
 16777216
100
AcDbPoint
 10
15.077617
 20
5.490223
 30
0.0
  0
POINT
  5
456
330
252
100
AcDbEntity
  8
Defpoints
 62
     0
440
 16777216
100
AcDbPoint
 10
15.077617
 20
5.869005
 30
0.0
  0
ENDBLK
  5
254
330
252
100
AcDbEntity
  8
0
100
AcDbBlockEnd
  0
BLOCK
  5
260
330
25F
100
AcDbEntity
  8
0
100
AcDbBlockBegin
  2
*D19
 70
     1
 10
0.0
 20
0.0
 30
0.0
  3
*D19
  1

  0
LINE
  5
457
330
25F
100
AcDbEntity
  8
Dimensions
440
 16777216
370
    -2
100
AcDbLine
 10
15.274468
 20
5.479593
 30
0.0
 11
15.274468
 21
3.087696
 31
0.0
  0
LINE
  5
458
330
25F
100
AcDbEntity
  8
Dimensions
440
 16777216
370
    -2
100
AcDbLine
 10
11.65242
 20
4.495341
 30
0.0
 11
11.65242
 21
3.087696
 31
0.0
  0
LINE
  5
459
330
25F
100
AcDbEntity
  8
Dimensions
440
 16777216
370
    -2
100
AcDbLine
 10
15.154468
 20
3.187696
 30
0.0
 11
13.74253
 21
3.187696
 31
0.0
  0
LINE
  5
45A
330
25F
100
AcDbEntity
  8
Dimensions
440
 16777216
370
    -2
100
AcDbLine
 10
11.77242
 20
3.187696
 30
0.0
 11
13.184358
 21
3.187696
 31
0.0
  0
SOLID
  5
45B
330
25F
100
AcDbEntity
  8
Dimensions
440
 16777216
100
AcDbTrace
 10
15.154468
 20
3.207696
 30
0.0
 11
15.154468
 21
3.167696
 31
0.0
 12
15.274468
 22
3.187696
 32
0.0
 13
15.274468
 23
3.187696
 33
0.0
  0
SOLID
  5
45C
330
25F
100
AcDbEntity
  8
Dimensions
440
 16777216
100
AcDbTrace
 10
11.77242
 20
3.207696
 30
0.0
 11
11.77242
 21
3.167696
 31
0.0
 12
11.65242
 22
3.187696
 32
0.0
 13
11.65242
 23
3.187696
 33
0.0
  0
MTEXT
  5
45D
330
25F
100
AcDbEntity
  8
Dimensions
440
 16777216
100
AcDbMText
 10
13.463444
 20
3.187696
 30
0.0
 40
0.12
 41
0.0
 46
0.0
 71
     5
 72
     1
  1
\A1;3.62in
 73
     1
 44
1.0
  0
POINT
  5
45E
330
25F
100
AcDbEntity
  8
Defpoints
 62
     0
440
 16777216
100
AcDbPoint
 10
15.274468
 20
5.529593
 30
0.0
  0
POINT
  5
45F
330
25F
100
AcDbEntity
  8
Defpoints
 62
     0
440
 16777216
100
AcDbPoint
 10
11.65242
 20
4.545341
 30
0.0
  0
POINT
  5
460
330
25F
100
AcDbEntity
  8
Defpoints
 62
     0
440
 16777216
100
AcDbPoint
 10
11.65242
 20
3.187696
 30
0.0
  0
ENDBLK
  5
261
330
25F
100
AcDbEntity
  8
0
100
AcDbBlockEnd
  0
ENDSEC
  0
SECTION
  2
ENTITIES
  0
INSERT
  5
177
330
70
100
AcDbEntity
  8
Titleblock
100
AcDbBlockReference
 66
     1
  2
Shower
 10
16.38
 20
0.38
 30
0.0
  0
ATTRIB
  5
197
330
177
100
AcDbEntity
  8
Titleblock
  6
Continuous
370
    25
100
AcDbText
 10
12.6925
 20
2.6925
 30
0.0
 40
0.12
  1
Railing Products and Mock Ups
100
AcDbAttribute
280
     0
  2
PROJECT
 70
     0
280
     1
1001
FD_ATT_APPNAME
1005
185
  0
ATTRIB
  5
198
330
177
100
AcDbEntity
  8
Titleblock
  6
Continuous
370
    25
100
AcDbText
 10
14.6925
 20
1.0675
 30
0.0
 40
0.12
  1
2/11/2020
100
AcDbAttribute
280
     0
  2
DRAWN_DATE
 70
     0
280
     1
1001
FD_ATT_APPNAME
1005
187
  0
ATTRIB
  5
199
330
177
100
AcDbEntity
  8
Titleblock
  6
Continuous
370
    25
100
AcDbText
 10
12.0675
 20
2.1925
 30
0.0
 40
0.3048
  1
R13-0145-048-12
100
AcDbAttribute
280
     0
  2
TITLE_1
 70
     0
280
     1
1001
FD_ATT_APPNAME
1005
188
  0
ATTRIB
  5
19A
330
177
100
AcDbEntity
  8
Titleblock
  6
Continuous
370
    25
100
AcDbText
 10
14.6925
 20
1.29994
 30
0.0
 40
0.12
  1
1:1
100
AcDbAttribute
280
     0
  2
SCALE
 70
     0
280
     1
1001
FD_ATT_APPNAME
1005
189
  0
SEQEND
  5
19B
330
177
100
AcDbEntity
  8
Titleblock
  0
INSERT
  5
19C
330
70
100
AcDbEntity
  8
Border
100
AcDbBlockReference
  2
ANSI_B_SHEET
 10
0.0
 20
0.0
 30
0.0
  0
DIMENSION
  5
1BD
330
70
100
AcDbEntity
  8
Dimensions
100
AcDbDimension
280
     0
  2
*D13
 10
7.765483
 20
3.886051
 30
0.0
 11
9.937679
 21
5.426701
 31
0.0
 70
   163
 71
     5
 42
1.968504
 73
     0
 74
     0
 75
     0
  3
Standard
100
AcDbDiametricDimension
 15
9.227111
 25
5.204631
 35
0.0
 40
0.0
1001
ACAD_DIMASSOC_CALC_DIMLFAC
1040
-1.0
1001
ACAD_DIMASSOC_DIMLFAC
1040
-1.0
1001
ACAD_DIMASSOC_OVERRIDDEN_DIMLFAC
1040
0.0
1001
ACAD_DSTYLE_DIMRADIAL_EXTENSION
1070
   387
1070
     1
1070
   388
1040
0.0
1070
   390
1040
0.0
1001
ACAD
1000
DSTYLE
1002
{
1070
   144
1040
1.0
1070
   176
1070
   256
1070
   177
1070
   256
1002
}
  0
DIMENSION
  5
1C8
330
70
100
AcDbEntity
  8
Dimensions
100
AcDbDimension
280
     0
  2
*D14
 10
8.030926
 20
4.385287
 30
0.0
 11
10.089899
 21
4.949737
 31
0.0
 70
   163
 71
     5
 42
0.984252
 73
     0
 74
     0
 75
     0
  3
Standard
100
AcDbDiametricDimension
 15
8.961669
 25
4.705396
 35
0.0
 40
0.0
1001
ACAD_DIMASSOC_CALC_DIMLFAC
1040
-1.0
1001
ACAD_DIMASSOC_DIMLFAC
1040
-1.0
1001
ACAD_DIMASSOC_OVERRIDDEN_DIMLFAC
1040
0.0
1001
ACAD_DSTYLE_DIMRADIAL_EXTENSION
1070
   387
1070
     1
1070
   388
1040
0.0
1070
   390
1040
0.0
1001
ACAD
1000
DSTYLE
1002
{
1070
   144
1040
1.0
1070
   176
1070
   256
1070
   177
1070
   256
1002
}
  0
DIMENSION
  5
1D2
330
70
100
AcDbEntity
  8
Dimensions
100
AcDbDimension
280
     0
  2
*D15
 10
8.218579
 20
3.188517
 30
0.0
 11
8.49417
 21
3.188085
 31
0.0
 70
    33
 71
     5
 42
0.551181
 73
     0
 74
     0
 75
     0
  3
Standard
100
AcDbAlignedDimension
 13
8.770292
 23
3.527064
 33
0.0
 14
8.219111
 24
3.527928
 34
0.0
1001
ACAD_DIMASSOC_CALC_DIMLFAC
1040
-1.0
1001
ACAD_DIMASSOC_DIMLFAC
1040
-1.0
1001
ACAD_DIMASSOC_OVERRIDDEN_DIMLFAC
1040
0.0
1001
ACAD
1000
DSTYLE
1002
{
1070
   144
1040
1.0
1070
   176
1070
   256
1070
   177
1070
   256
1002
}
  0
DIMENSION
  5
1E0
330
70
100
AcDbEntity
  8
Dimensions
100
AcDbDimension
280
     0
  2
*D16
 10
9.782659
 20
8.098289
 30
0.0
 11
8.5
 21
8.098289
 31
0.0
 70
    32
 71
     5
 42
2.565319
 73
     0
 74
     0
 75
     0
  3
Standard
100
AcDbAlignedDimension
 13
7.217341
 23
7.419467
 33
0.0
 14
9.782659
 24
7.419467
 34
0.0
100
AcDbRotatedDimension
1001
ACAD
1000
DSTYLE
1002
{
1070
   144
1040
1.0
1070
   177
1070
   256
1070
   176
1070
   256
1002
}
  0
DIMENSION
  5
1EE
330
70
100
AcDbEntity
  8
Dimensions
100
AcDbDimension
280
     0
  2
*D17
 10
12.124861
 20
8.4377
 30
0.0
 11
13.699664
 21
8.4377
 31
0.0
 70
    32
 71
     5
 42
3.149606
 73
     0
 74
     0
 75
     0
  3
Standard
100
AcDbAlignedDimension
 13
15.274468
 23
5.529593
 33
0.0
 14
12.124861
 24
7.419467
 34
0.0
100
AcDbRotatedDimension
1001
ACAD_DIMASSOC_CALC_DIMLFAC
1040
-1.0
1001
ACAD_DIMASSOC_DIMLFAC
1040
-1.0
1001
ACAD_DIMASSOC_OVERRIDDEN_DIMLFAC
1040
0.0
1001
ACAD
1000
DSTYLE
1002
{
1070
   177
1070
   256
1070
   176
1070
   256
1070
   144
1040
1.0
1002
}
  0
DIMENSION
  5
1FC
330
70
100
AcDbEntity
  8
Dimensions
100
AcDbDimension
280
     0
  2
*D18
 10
15.077617
 20
5.869005
 30
0.0
 11
14.655857
 21
5.869005
 31
0.0
 70
    32
 71
     5
 42
0.19685
 73
     0
 74
     0
 75
     0
  3
Standard
100
AcDbAlignedDimension
 13
15.274468
 23
5.529593
 33
0.0
 14
15.077617
 24
5.490223
 34
0.0
100
AcDbRotatedDimension
1001
ACAD_DIMASSOC_CALC_DIMLFAC
1040
-1.0
1001
ACAD_DIMASSOC_DIMLFAC
1040
-1.0
1001
ACAD_DIMASSOC_OVERRIDDEN_DIMLFAC
1040
0.0
1001
ACAD
1000
DSTYLE
1002
{
1070
   177
1070
   256
1070
   176
1070
   256
1070
   144
1040
1.0
1002
}
  0
DIMENSION
  5
20A
330
70
100
AcDbEntity
  8
Dimensions
100
AcDbDimension
280
     0
  2
*D19
 10
11.65242
 20
3.187696
 30
0.0
 11
13.463444
 21
3.187696
 31
0.0
 70
    32
 71
     5
 42
3.622047
 73
     0
 74
     0
 75
     0
  3
Standard
100
AcDbAlignedDimension
 13
15.274468
 23
5.529593
 33
0.0
 14
11.65242
 24
4.545341
 34
0.0
100
AcDbRotatedDimension
1001
ACAD_DIMASSOC_CALC_DIMLFAC
1040
-1.0
1001
ACAD_DIMASSOC_DIMLFAC
1040
-1.0
1001
ACAD_DIMASSOC_OVERRIDDEN_DIMLFAC
1040
0.0
1001
ACAD
1000
DSTYLE
1002
{
1070
   177
1070
   256
1070
   176
1070
   256
1070
   144
1040
1.0
1002
}
  0
ARC
  5
327
330
70
100
AcDbEntity
  8
Visible
100
AcDbCircle
 10
-8.496297
 20
4.545341
 30
1.626288
 40
0.9448818897637796
210
0.0000000000000001
220
0.0
230
-1.0
100
AcDbArc
 50
287.047573
 51
73.132046
  0
ARC
  5
328
330
70
100
AcDbEntity
  8
Visible
100
AcDbCircle
 10
-8.496297
 20
4.545341
 30
1.626288
 40
0.9448818897637798
210
0.0000000000000001
220
0.0
230
-1.0
100
AcDbArc
 50
107.047573
 51
253.132046
  0
ARC
  5
329
330
70
100
AcDbEntity
  8
Visible
100
AcDbCircle
 10
8.496297
 20
4.545341
 30
-1.665658
 40
0.9842519685039368
100
AcDbArc
 50
286.170395
 51
73.649986
  0
ARC
  5
32A
330
70
100
AcDbEntity
  8
Visible
100
AcDbCircle
 10
8.496297
 20
4.545341
 30
-1.665658
 40
0.9842519685039372
100
AcDbArc
 50
106.170395
 51
253.649986
  0
CIRCLE
  5
32B
330
70
100
AcDbEntity
  8
Visible
100
AcDbCircle
 10
8.496297
 20
4.545341
 30
1.720039
 40
0.4921259842519686
  0
SPLINE
  5
32C
330
70
100
AcDbEntity
  8
Visible
100
AcDbSpline
 70
     0
 71
     3
 72
    16
 73
    12
 74
     0
 42
0.000000001
 43
0.0000000001
 40
0.8371786631866797
 40
0.8371786631866797
 40
0.8371786631866797
 40
0.8371786631866797
 40
1.04424888402179
 40
1.04424888402179
 40
1.2513191048569
 40
1.2513191048569
 40
1.462838215615129
 40
1.462838215615129
 40
1.568597770994244
 40
1.568597770994244
 40
1.572277598306658
 40
1.572277598306658
 40
1.572277598306658
 40
1.572277598306658
 10
8.499676015077056
 20
6.700962937882697
 30
1.602058451333505
 10
8.472501478796402
 20
6.701005533202861
 30
1.602058451333505
 10
8.444271120219127
 20
6.70672295955272
 30
1.597727518592364
 10
8.393628545338287
 20
6.728310279764755
 30
1.58219693990577
 10
8.371162533514507
 20
6.744130411359427
 30
1.571103812122601
 10
8.335694758457975
 20
6.779709550452167
 30
1.548882326313105
 10
8.32017094420189
 20
6.802180104133577
 30
1.535960517141575
 10
8.304284147872749
 20
6.839812677987231
 30
1.520738755732963
 10
8.300176522487163
 20
6.853027249553505
 30
1.516393519632401
 10
8.297330370121926
 20
6.867069717201471
 30
1.513286198542118
 10
8.297236317099304
 20
6.867542324497035
 30
1.51318337417797
 10
8.297143913223408
 20
6.868015352836548
 30
1.513082218241834
1001
ACAD_VIEW_EDGE_ID
1071
        2
1071
       -1
1071
        4
1071
        0
  0
SPLINE
  5
32D
330
70
100
AcDbEntity
  8
Visible
100
AcDbSpline
 70
     0
 71
     3
 72
    16
 73
    12
 74
     0
 42
0.000000001
 43
0.0000000001
 40
1.776437054440063
 40
1.776437054440063
 40
1.776437054440063
 40
1.776437054440063
 40
1.780116881752474
 40
1.780116881752474
 40
1.885876437131589
 40
1.885876437131589
 40
2.097395547889818
 40
2.097395547889818
 40
2.304465768724929
 40
2.304465768724929
 40
2.511535989560039
 40
2.511535989560039
 40
2.511535989560039
 40
2.511535989560039
 10
8.297269179669456
 20
6.947931587915845
 30
1.513082218241834
 10
8.297363066007164
 20
6.948404324250695
 30
1.51318337417797
 10
8.297458600160098
 20
6.948876634373704
 30
1.513286198542118
 10
8.300348760776614
 20
6.962910110512646
 30
1.516393519632401
 10
8.304497792812981
 20
6.976111740000989
 30
1.520738755732963
 10
8.320502486785699
 20
7.013694324841918
 30
1.535960517141575
 10
8.336096668504978
 20
7.036116101941169
 30
1.548882326313105
 10
8.371675807597057
 20
7.07158387699724
 30
1.571103812122601
 10
8.394191304125342
 20
7.087333501344616
 30
1.58219693990577
 10
8.444901305017992
 20
7.108761954249032
 30
1.597727518592364
 10
8.473149448640469
 20
7.114390852137587
 30
1.602058451333505
 10
8.500323984919305
 20
7.114348256817423
 30
1.602058451333505
1001
ACAD_VIEW_EDGE_ID
1071
        2
1071
       -1
1071
        4
1071
        0
  0
SPLINE
  5
32E
330
70
100
AcDbEntity
  8
Visible
100
AcDbSpline
 70
     0
 71
     3
 72
    16
 73
    12
 74
     0
 42
0.000000001
 43
0.0000000001
 40
2.511535989560039
 40
2.511535989560039
 40
2.511535989560039
 40
2.511535989560039
 40
2.718606210395149
 40
2.718606210395149
 40
2.925676431230259
 40
2.925676431230259
 40
3.137195541988489
 40
3.137195541988489
 40
3.242955097367604
 40
3.242955097367604
 40
3.246634924680019
 40
3.246634924680019
 40
3.246634924680019
 40
3.246634924680019
 10
8.500323984919305
 20
7.114348256817423
 30
1.602058451333505
 10
8.527498521199959
 20
7.11430566149726
 30
1.602058451333505
 10
8.555728879777234
 20
7.108588235147399
 30
1.597727518592364
 10
8.606371454659893
 20
7.087000914935366
 30
1.58219693990577
 10
8.628837466483673
 20
7.071180783340693
 30
1.571103812122601
 10
8.664305241540205
 20
7.035601644247953
 30
1.548882326313105
 10
8.679829055794471
 20
7.013131090566544
 30
1.535960517141575
 10
8.695715852125431
 20
6.975498516712891
 30
1.520738755732963
 10
8.699823477509198
 20
6.962283945146617
 30
1.516393519632401
 10
8.702669629876254
 20
6.948241477498649
 30
1.513286198542118
 10
8.702763682897057
 20
6.947768870203085
 30
1.51318337417797
 10
8.702856086774772
 20
6.947295841863573
 30
1.513082218241834
1001
ACAD_VIEW_EDGE_ID
1071
        3
1071
       -1
1071
        4
1071
        0
  0
SPLINE
  5
32F
330
70
100
AcDbEntity
  8
Visible
100
AcDbSpline
 70
     0
 71
     3
 72
    16
 73
    12
 74
     0
 42
0.000000001
 43
0.0000000001
 40
3.450794380813422
 40
3.450794380813422
 40
3.450794380813422
 40
3.450794380813422
 40
3.454474208125834
 40
3.454474208125834
 40
3.560233763504948
 40
3.560233763504948
 40
3.771752874263178
 40
3.771752874263178
 40
3.978823095098288
 40
3.978823095098288
 40
4.185893315933398
 40
4.185893315933398
 40
4.185893315933398
 40
4.185893315933398
 10
8.702730820326905
 20
6.867379606784277
 30
1.513082218241834
 10
8.702636933991016
 20
6.866906870449426
 30
1.51318337417797
 10
8.702541399838082
 20
6.866434560326418
 30
1.513286198542118
 10
8.699651239219747
 20
6.852401084187475
 30
1.516393519632401
 10
8.69550220718338
 20
6.839199454699132
 30
1.520738755732963
 10
8.679497513212481
 20
6.801616869858202
 30
1.535960517141575
 10
8.663903331493202
 20
6.779195092758951
 30
1.548882326313105
 10
8.628324192399304
 20
6.74372731770288
 30
1.571103812122601
 10
8.605808695872838
 20
6.727977693355505
 30
1.58219693990577
 10
8.555098694978369
 20
6.706549240451089
 30
1.597727518592364
 10
8.526850551357711
 20
6.700920342562532
 30
1.602058451333505
 10
8.499676015077056
 20
6.700962937882697
 30
1.602058451333505
1001
ACAD_VIEW_EDGE_ID
1071
        3
1071
       -1
1071
        4
1071
        0
  0
ARC
  5
330
330
70
100
AcDbEntity
  8
Visible
100
AcDbCircle
 10
-8.489162
 20
1.326468
 30
3.540807
 40
0.2755905511811029
210
0.0015674699062829
220
0.9999987715182918
230
-0.0000000000000001
100
AcDbArc
 50
0.0
 51
180.0
  0
LINE
  5
331
330
70
100
AcDbEntity
  8
Visible
100
AcDbLine
 10
8.763799
 20
6.713691
 30
1.405208
 11
8.764371
 21
7.078852
 31
1.405208
210
0.0
220
1.0
230
0.0
  0
SPLINE
  5
332
330
70
100
AcDbEntity
  8
Visible
100
AcDbSpline
 70
     0
 71
     3
 72
    14
 73
    10
 74
     0
 42
0.000000001
 43
0.0000000001
 40
2.53604769841391
 40
2.53604769841391
 40
2.53604769841391
 40
2.53604769841391
 40
2.622459047187773
 40
2.622459047187773
 40
2.921503126107184
 40
2.921503126107184
 40
3.203312789254864
 40
3.203312789254864
 40
3.485122452402544
 40
3.485122452402544
 40
3.485122452402544
 40
3.485122452402544
 10
8.764371186400239
 20
7.078851608405644
 30
1.405208057627532
 10
8.761391731413823
 20
7.083452662160484
 30
1.41522563100807
 10
8.757869231772929
 20
7.08862573374647
 30
1.424989917177299
 10
8.739855073097714
 20
7.113147660908774
 30
1.467361723596695
 10
8.71947384154555
 20
7.135655134577403
 30
1.497095605780486
 10
8.672440785310755
 20
7.172816157886938
 30
1.544186853021528
 10
8.642922905455634
 20
7.190614502435169
 30
1.565210829292482
 10
8.575480169693037
 20
7.215544295599578
 30
1.594187709193647
 10
8.537476541301657
 20
7.222557870772321
 30
1.602058451333505
 10
8.500493691308292
 20
7.222615840347948
 30
1.602058451333505
1001
ACAD_VIEW_EDGE_ID
1071
       11
1071
       -1
1071
        4
1071
        0
  0
SPLINE
  5
333
330
70
100
AcDbEntity
  8
Visible
100
AcDbSpline
 70
     0
 71
     3
 72
    14
 73
    10
 74
     0
 42
0.000000001
 43
0.0000000001
 40
-1.161707484134181
 40
-1.161707484134181
 40
-1.161707484134181
 40
-1.161707484134181
 40
-0.8798978209865015
 40
-0.8798978209865015
 40
-0.5980881578388218
 40
-0.5980881578388218
 40
-0.2990440789194109
 40
-0.2990440789194109
 40
-0.2126327301455481
 40
-0.2126327301455481
 40
-0.2126327301455481
 40
-0.2126327301455481
 10
8.500493691308292
 20
7.222615840347948
 30
1.602058451333505
 10
8.463510841314928
 20
7.222673809923577
 30
1.602058451333505
 10
8.425485412561101
 20
7.215779408156312
 30
1.594187709193647
 10
8.357964854900274
 20
7.191061166152685
 30
1.565210829292482
 10
8.328391323424511
 20
7.173355445727224
 30
1.544186853021528
 10
8.281242000877682
 20
7.13634205064349
 30
1.497095605780486
 10
8.260790309988806
 20
7.1138985814306
 30
1.467361723596695
 10
8.242699365162479
 20
7.089433248001022
 30
1.424989917177299
 10
8.239160665583767
 20
7.084271244645913
 30
1.41522563100807
 10
8.236166801229046
 20
7.079679553900881
 30
1.405208057627532
1001
ACAD_VIEW_EDGE_ID
1071
       12
1071
       -1
1071
        4
1071
        0
  0
LINE
  5
334
330
70
100
AcDbEntity
  8
Visible
100
AcDbLine
 10
8.236167
 20
7.07968
 30
1.405208
 11
8.235594
 21
6.714519
 31
1.405208
210
0.0
220
1.0
230
0.0
  0
SPLINE
  5
335
330
70
100
AcDbEntity
  8
Visible
100
AcDbSpline
 70
     0
 71
     3
 72
     8
 73
     4
 74
     0
 42
0.000000001
 43
0.0000000001
 40
2.008562787254438
 40
2.008562787254438
 40
2.008562787254438
 40
2.008562787254438
 40
2.209857864444705
 40
2.209857864444705
 40
2.209857864444705
 40
2.209857864444705
 10
8.235594421857967
 20
6.714518686332512
 30
1.405208057632989
 10
8.228010242966774
 20
6.721400479467727
 30
1.379733798843517
 10
8.224123358266297
 20
6.725354399031598
 30
1.352884576948781
 10
8.224123358266297
 20
6.725354399031598
 30
1.326467900153147
1001
ACAD_VIEW_EDGE_ID
1071
       14
1071
       -1
1071
        4
1071
        0
  0
SPLINE
  5
336
330
70
100
AcDbEntity
  8
Visible
100
AcDbSpline
 70
     0
 71
     3
 72
     8
 73
     4
 74
     0
 42
0.000000001
 43
0.0000000001
 40
0.0
 40
0.0
 40
0.0
 40
0.0
 40
0.2012950771902999
 40
0.2012950771902999
 40
0.2012950771902999
 40
0.2012950771902999
 10
8.775303783511844
 20
6.724490439240733
 30
1.326467900151328
 10
8.775303783511844
 20
6.724490439240733
 30
1.352884576948781
 10
8.771404522625743
 20
6.720548724240728
 30
1.379733798843517
 10
8.763798807021885
 20
6.713690740837259
 30
1.405208057632989
1001
ACAD_VIEW_EDGE_ID
1071
       19
1071
       -1
1071
        4
1071
        0
  0
LINE
  5
337
330
70
100
AcDbEntity
  8
Visible
100
AcDbLine
 10
8.219111
 20
3.527928
 30
1.326468
 11
8.220068
 21
4.138051
 31
1.326468
210
0.0
220
1.0
230
0.0
  0
LINE
  5
338
330
70
100
AcDbEntity
  8
Visible
100
AcDbLine
 10
8.221346
 20
4.953495
 30
1.326468
 11
8.224123
 21
6.725354
 31
1.326468
210
0.0
220
1.0
230
0.0
  0
LINE
  5
339
330
70
100
AcDbEntity
  8
Visible
100
AcDbLine
 10
8.770292
 20
3.527064
 30
1.326468
 11
8.771248
 21
4.137187
 31
1.326468
210
0.0
220
1.0
230
0.0
  0
LINE
  5
33A
330
70
100
AcDbEntity
  8
Visible
100
AcDbLine
 10
8.772526
 20
4.952632
 30
1.326468
 11
8.775304
 21
6.72449
 31
1.326468
210
0.0
220
1.0
230
0.0
  0
ARC
  5
33B
330
70
100
AcDbEntity
  8
Visible
100
AcDbCircle
 10
-8.495341
 20
3.935218
 30
-1.326468
 40
0.4921259842519689
210
0.0000000000000097
220
-0.0000000000000141
230
-1.0
100
AcDbArc
 50
236.034012
 51
304.145607
  0
LINE
  5
33C
330
70
100
AcDbEntity
  8
Visible
100
AcDbLine
 10
8.235897
 20
6.907656
 30
1.405208
 11
8.235897
 21
7.113173
 31
1.405208
210
0.0
220
1.0
230
0.0
  0
SPLINE
  5
33D
330
70
100
AcDbEntity
  8
Visible
100
AcDbSpline
 70
     0
 71
     3
 72
    14
 73
    10
 74
     0
 42
0.000000001
 43
0.0000000001
 40
0.207287916178884
 40
0.207287916178884
 40
0.207287916178884
 40
0.207287916178884
 40
0.2901318620391773
 40
0.2901318620391773
 40
0.5802637240783547
 40
0.5802637240783547
 40
0.8595060823891273
 40
0.8595060823891273
 40
1.1387484406999
 40
1.1387484406999
 40
1.1387484406999
 40
1.1387484406999
 10
8.235897482971267
 20
7.113173442013662
 30
1.405208057632989
 10
8.238876019562667
 20
7.117001036703435
 30
1.415198373071689
 10
8.242400757140785
 20
7.121357478358134
 30
1.424949598324019
 10
8.260545191902565
 20
7.142425518596239
 30
1.467570541195527
 10
8.281110070214708
 20
7.16250411782381
 30
1.497321865510457
 10
8.328244568992886
 20
7.196266668375486
 30
1.544456364290454
 10
8.357987004512324
 20
7.212766788172372
 30
1.565486720985063
 10
8.425503340138675
 20
7.235848808094855
 30
1.5943259645137
 10
8.463354021218037
 20
7.242301266641408
 30
1.602058451333505
 10
8.499999999998181
 20
7.242301266641408
 30
1.602058451333505
1001
ACAD_VIEW_EDGE_ID
1071
       10
1071
       -1
1071
        5
1071
        0
  0
SPLINE
  5
33E
330
70
100
AcDbEntity
  8
Visible
100
AcDbSpline
 70
     0
 71
     3
 72
    14
 73
    10
 74
     0
 42
0.000000001
 43
0.0000000001
 40
1.1387484406999
 40
1.1387484406999
 40
1.1387484406999
 40
1.1387484406999
 40
1.417990799010673
 40
1.417990799010673
 40
1.697233157321445
 40
1.697233157321445
 40
1.987365019360623
 40
1.987365019360623
 40
2.070208965220916
 40
2.070208965220916
 40
2.070208965220916
 40
2.070208965220916
 10
8.499999999998181
 20
7.242301266641408
 30
1.602058451333505
 10
8.536645978780143
 20
7.242301266641408
 30
1.602058451333505
 10
8.574496659857686
 20
7.235848808094855
 30
1.5943259645137
 10
8.642012995484037
 20
7.212766788172372
 30
1.565486720985063
 10
8.671755431003475
 20
7.196266668375486
 30
1.544456364290454
 10
8.718889929783472
 20
7.16250411782381
 30
1.497321865510457
 10
8.739454808095615
 20
7.142425518596239
 30
1.467570541195527
 10
8.757599242855576
 20
7.121357478358134
 30
1.424949598324019
 10
8.761123980433694
 20
7.117001036703436
 30
1.415198373071689
 10
8.764102517026913
 20
7.113173442013662
 30
1.405208057632989
1001
ACAD_VIEW_EDGE_ID
1071
       11
1071
       -1
1071
        5
1071
        0
  0
LINE
  5
33F
330
70
100
AcDbEntity
  8
Visible
100
AcDbLine
 10
8.764103
 20
7.113173
 30
1.405208
 11
8.764103
 21
7.079266
 31
1.405208
210
0.0
220
1.0
230
0.0
  0
SPLINE
  5
340
330
70
100
AcDbEntity
  8
Visible
100
AcDbSpline
 70
     0
 71
     3
 72
    12
 73
     8
 74
     0
 42
0.000000001
 43
0.0000000001
 40
0.0
 40
0.0
 40
0.0
 40
0.0
 40
0.4838518415719354
 40
0.4838518415719354
 40
0.8530400771407038
 40
0.8530400771407038
 40
0.9694177343031171
 40
0.9694177343031171
 40
0.9694177343031171
 40
0.9694177343031171
 10
7.350733061806749
 20
7.482380950631718
 30
1.666582720707083
 10
7.308440003434952
 20
7.465438335256596
 30
1.622353857246707
 10
7.275055694102775
 20
7.449267370904223
 30
1.569976811608285
 10
7.234730941814632
 20
7.428887300148781
 30
1.467438010689875
 10
7.223677037238303
 20
7.422887161854632
 30
1.420417837905915
 10
7.218016576585796
 20
7.419833437899894
 30
1.356952425674535
 10
7.217338700111213
 20
7.419470198174992
 30
1.341704716194726
 10
7.217337965801561
 20
7.41947160877198
 30
1.326467900740681
1001
ACAD_VIEW_EDGE_ID
1071
       17
1071
       -1
1071
        5
1071
        0
  0
SPLINE
  5
341
330
70
100
AcDbEntity
  8
Visible
100
AcDbSpline
 70
     0
 71
     3
 72
    12
 73
     8
 74
     0
 42
0.000000001
 43
0.0000000001
 40
0.9694177343031158
 40
0.9694177343031158
 40
0.9694177343031158
 40
0.9694177343031158
 40
1.171409479092341
 40
1.171409479092341
 40
1.607240999172379
 40
1.607240999172379
 40
1.93858701140477
 40
1.93858701140477
 40
1.93858701140477
 40
1.93858701140477
 10
9.7826620341948
 20
7.41947160877198
 30
1.326467899563795
 10
9.782663308702467
 20
7.419474057085116
 30
1.352913791442915
 10
9.780624687900854
 20
7.420575016935336
 30
1.379326864991526
 10
9.767773292731362
 20
7.427454030427979
 30
1.461841497926798
 10
9.749741268949946
 20
7.437102281603463
 30
1.515670608509026
 10
9.703076417772535
 20
7.459482713712799
 30
1.60211184291802
 10
9.678240667250065
 20
7.470774063678579
 30
1.636282828578259
 10
9.649266938191431
 20
7.48238095063172
 30
1.666582720707083
1001
ACAD_VIEW_EDGE_ID
1071
       26
1071
       -1
1071
        5
1071
        0
  0
SPLINE
  5
342
330
70
100
AcDbEntity
  8
Visible
100
AcDbSpline
 70
     0
 71
     3
 72
    14
 73
    10
 74
     0
 42
0.000000001
 43
0.0000000001
 40
-0.9930250425076676
 40
-0.9930250425076676
 40
-0.9930250425076676
 40
-0.9930250425076676
 40
-0.9641267307338061
 40
-0.9641267307338061
 40
-0.4820633653669031
 40
-0.4820633653669031
 40
-0.2410316826834515
 40
-0.2410316826834515
 40
0.0
 40
0.0
 40
0.0
 40
0.0
 10
7.350733061806749
 20
7.48238095063172
 30
1.666582720707083
 10
7.353279858611131
 20
7.483401198406954
 30
1.669246087521969
 10
7.355846124568415
 20
7.484420042116592
 30
1.671869911717294
 10
7.401527867092227
 20
7.502385987180135
 30
1.717551654241106
 10
7.456030969118728
 20
7.521110386141421
 30
1.755162180665138
 10
7.546586342168666
 20
7.541707067824827
 30
1.793065601774287
 10
7.578233699974589
 20
7.547316443273722
 30
1.802729715815075
 10
7.642331148585071
 20
7.554838478885542
 30
1.815496598554091
 10
7.674783899909016
 20
7.556737766644557
 30
1.818593884403526
 10
7.706415354328782
 20
7.556737766644557
 30
1.818593884403526
1001
ACAD_VIEW_EDGE_ID
1071
       34
1071
       -1
1071
        5
1071
        0
  0
LINE
  5
343
330
70
100
AcDbEntity
  8
Visible
100
AcDbLine
 10
7.706415
 20
7.556738
 30
1.818594
 11
9.293585
 21
7.556738
 31
1.818594
210
0.0
220
1.0
230
0.0
  0
SPLINE
  5
344
330
70
100
AcDbEntity
  8
Visible
100
AcDbSpline
 70
     0
 71
     3
 72
    14
 73
    10
 74
     0
 42
0.000000001
 43
0.0000000001
 40
0.0
 40
0.0
 40
0.0
 40
0.0
 40
0.2410316826834516
 40
0.2410316826834516
 40
0.4820633653669033
 40
0.4820633653669033
 40
0.9641267307338065
 40
0.9641267307338065
 40
0.993025042507703
 40
0.993025042507703
 40
0.993025042507703
 40
0.993025042507703
 10
9.293584645667579
 20
7.556737766644559
 30
1.818593884403526
 10
9.325216100089164
 20
7.556737766644559
 30
1.818593884403526
 10
9.357668851413109
 20
7.554838478885544
 30
1.815496598554091
 10
9.421766300023591
 20
7.547316443273723
 30
1.802729715815075
 10
9.453413657829514
 20
7.541707067824829
 30
1.793065601772468
 10
9.543969030877633
 20
7.521110386141421
 30
1.755162180665138
 10
9.598472132904134
 20
7.502385987180135
 30
1.717551654241106
 10
9.644153875427946
 20
7.484420042116592
 30
1.671869911717294
 10
9.64672014138523
 20
7.483401198406952
 30
1.669246087521969
 10
9.649266938191431
 20
7.482380950631716
 30
1.666582720707083
1001
ACAD_VIEW_EDGE_ID
1071
       36
1071
       -1
1071
        5
1071
        0
  0
ARC
  5
345
330
70
100
AcDbEntity
  8
Visible
100
AcDbCircle
 10
-8.814961
 20
7.281671
 30
-1.326468
 40
0.0393700787401575
210
0.0000000000000046
220
-0.0000000000000227
230
-1.0
100
AcDbArc
 50
0.0
 51
90.0
  0
ARC
  5
346
330
70
100
AcDbEntity
  8
Visible
100
AcDbCircle
 10
8.185039
 20
7.281671
 30
1.326468
 40
0.0393700787401575
100
AcDbArc
 50
0.0
 51
90.0
  0
LINE
  5
347
330
70
100
AcDbEntity
  8
Visible
100
AcDbLine
 10
9.659726
 20
7.321041
 30
1.326468
 11
8.814961
 21
7.321041
 31
1.326468
210
0.0
220
1.0
230
0.0
  0
LINE
  5
348
330
70
100
AcDbEntity
  8
Visible
100
AcDbLine
 10
8.185039
 20
7.321041
 30
1.326468
 11
7.340274
 21
7.321041
 31
1.326468
210
0.0
220
1.0
230
0.0
  0
LINE
  5
349
330
70
100
AcDbEntity
  8
Visible
100
AcDbLine
 10
8.775591
 20
7.281671
 30
1.326468
 11
8.775591
 21
6.907656
 31
1.326468
210
0.0
220
1.0
230
0.0
  0
LINE
  5
34A
330
70
100
AcDbEntity
  8
Visible
100
AcDbLine
 10
8.224409
 20
7.281671
 30
1.326468
 11
8.224409
 21
6.907656
 31
1.326468
210
0.0
220
1.0
230
0.0
  0
ARC
  5
34B
330
70
100
AcDbEntity
  8
Visible
100
AcDbCircle
 10
-7.340274
 20
7.447026
 30
-1.326468
 40
0.125984251968504
210
-0.0000000000000061
220
0.0000000000000014
230
-1.0
100
AcDbArc
 50
270.0
 51
347.364375
  0
ARC
  5
34C
330
70
100
AcDbEntity
  8
Visible
100
AcDbCircle
 10
9.659726
 20
7.447026
 30
1.326468
 40
0.125984251968504
100
AcDbArc
 50
270.0
 51
347.364375
  0
ARC
  5
34D
330
70
100
AcDbEntity
  8
Visible
100
AcDbCircle
 10
-8.5
 20
6.907656
 30
-1.326468
 40
0.2755905511811024
210
0.0000000000000001
220
0.0
230
-1.0
100
AcDbArc
 50
180.0
 51
196.691359
  0
ARC
  5
34E
330
70
100
AcDbEntity
  8
Visible
100
AcDbCircle
 10
-8.5
 20
6.907656
 30
-1.326468
 40
0.2755905511811024
210
0.0000000000000001
220
0.0
230
-1.0
100
AcDbArc
 50
343.48826
 51
0.0
  0
ARC
  5
34F
330
70
100
AcDbEntity
  8
Visible
100
AcDbCircle
 10
8.5
 20
6.907656
 30
1.513082
 40
0.2066929133858245
100
AcDbArc
 50
168.763498
 51
191.056884
  0
ARC
  5
350
330
70
100
AcDbEntity
  8
Visible
100
AcDbCircle
 10
8.5
 20
6.907656
 30
1.513082
 40
0.206692913385831
100
AcDbArc
 50
348.763498
 51
11.056884
  0
LINE
  5
351
330
70
100
AcDbEntity
  8
Visible
100
AcDbLine
 10
8.46327
 20
6.990827
 30
1.613869
 11
8.553664
 21
6.981051
 31
1.613869
210
0.0
220
1.0
230
0.0
  0
LINE
  5
352
330
70
100
AcDbEntity
  8
Visible
100
AcDbLine
 10
8.553664
 20
6.981051
 30
1.613869
 11
8.590394
 21
6.897879
 31
1.613869
210
0.0
220
1.0
230
0.0
  0
LINE
  5
353
330
70
100
AcDbEntity
  8
Visible
100
AcDbLine
 10
8.590394
 20
6.897879
 30
1.613869
 11
8.53673
 21
6.824484
 31
1.613869
210
0.0
220
1.0
230
0.0
  0
LINE
  5
354
330
70
100
AcDbEntity
  8
Visible
100
AcDbLine
 10
8.53673
 20
6.824484
 30
1.613869
 11
8.446336
 21
6.83426
 31
1.613869
210
0.0
220
1.0
230
0.0
  0
LINE
  5
355
330
70
100
AcDbEntity
  8
Visible
100
AcDbLine
 10
8.446336
 20
6.83426
 30
1.613869
 11
8.409606
 21
6.917432
 31
1.613869
210
0.0
220
1.0
230
0.0
  0
LINE
  5
356
330
70
100
AcDbEntity
  8
Visible
100
AcDbLine
 10
8.409606
 20
6.917432
 30
1.613869
 11
8.46327
 21
6.990827
 31
1.613869
210
0.0
220
1.0
230
0.0
  0
ARC
  5
357
330
70
100
AcDbEntity
  8
Visible
100
AcDbCircle
 10
4.545341
 20
-0.003703
 30
15.077617
 40
0.9448818897637796
210
1.0
220
0.0
230
-0.0000000000002969
100
AcDbArc
 50
0.0
 51
180.0
  0
ARC
  5
358
330
70
100
AcDbEntity
  8
Visible
100
AcDbCircle
 10
-4.545341
 20
-0.003703
 30
-15.116987
 40
0.9842519685039372
210
-1.0
220
0.0
230
0.0000000000002969
100
AcDbArc
 50
0.0
 51
180.0
  0
ARC
  5
359
330
70
100
AcDbEntity
  8
Visible
100
AcDbCircle
 10
4.545341
 20
-0.003703
 30
15.274468
 40
0.9842519685039372
210
1.0
220
0.0
230
-0.0000000000002969
100
AcDbArc
 50
0.0
 51
180.0
  0
LINE
  5
35A
330
70
100
AcDbEntity
  8
Visible
100
AcDbLine
 10
15.077617
 20
5.490223
 30
-0.003703
 11
15.116987
 21
5.529593
 31
-0.003703
210
0.0
220
1.0
230
0.0
  0
LINE
  5
35B
330
70
100
AcDbEntity
  8
Visible
100
AcDbLine
 10
15.077617
 20
3.600459
 30
-0.003703
 11
15.116987
 21
3.561089
 31
-0.003703
210
0.0
220
1.0
230
0.0
  0
LINE
  5
35C
330
70
100
AcDbEntity
  8
Visible
100
AcDbLine
 10
15.274468
 20
3.561089
 30
-0.003703
 11
15.116987
 21
3.561089
 31
-0.003703
210
0.0
220
1.0
230
0.0
  0
LINE
  5
35D
330
70
100
AcDbEntity
  8
Visible
100
AcDbLine
 10
15.274468
 20
5.529593
 30
-0.003703
 11
15.116987
 21
5.529593
 31
-0.003703
210
0.0
220
1.0
230
0.0
  0
SPLINE
  5
35E
330
70
100
AcDbEntity
  8
Visible
100
AcDbSpline
 70
     0
 71
     3
 72
    23
 73
    19
 74
     0
 42
0.000000001
 43
0.0000000001
 40
3.250653926076846
 40
3.250653926076846
 40
3.250653926076846
 40
3.250653926076846
 40
3.518792781857074
 40
3.518792781857074
 40
3.788890242523428
 40
3.788890242523428
 40
4.060242002055527
 40
4.060242002055527
 40
4.331593761587627
 40
4.331593761587627
 40
4.331593761587627
 40
4.602945521119726
 40
4.602945521119726
 40
4.874297280651826
 40
4.874297280651826
 40
5.14439474131818
 40
5.14439474131818
 40
5.412533597098408
 40
5.412533597098408
 40
5.412533597098408
 40
5.412533597098408
 10
11.8492718408761
 20
4.053215385714431
 30
-0.0037028613805887
 10
11.84937617903961
 20
4.05322019090454
 30
0.0315122188731039
 10
11.85662154856618
 20
4.05732658388653
 30
0.0685085378900112
 10
11.88491043891008
 20
4.072185107206162
 30
0.1359876497808727
 10
11.90601507507199
 20
4.082836407880137
 30
0.1664701067547867
 10
11.95407486070144
 20
4.103485812517896
 30
0.2145623187843739
 10
11.98450683625742
 20
4.115000840056436
 30
0.235605631612998
 10
12.05204460021195
 20
4.132037815173194
 30
0.2639568647555279
 10
12.08925078167158
 20
4.137187098209823
 30
0.2712482583137898
 10
12.12486124880342
 20
4.137187098209823
 30
0.2712482583137898
 10
12.16047171593345
 20
4.137187098209823
 30
0.2712482583137898
 10
12.19767789739307
 20
4.132037815173194
 30
0.2639568647555279
 10
12.26521566134761
 20
4.115000840056436
 30
0.235605631612998
 10
12.29564763690359
 20
4.103485812517896
 30
0.2145623187843739
 10
12.34370742253304
 20
4.082836407880137
 30
0.1664701067547867
 10
12.36481205869495
 20
4.072185107206162
 30
0.1359876497808727
 10
12.39310094903885
 20
4.05732658388653
 30
0.0685085378900112
 10
12.40034631856542
 20
4.05322019090454
 30
0.0315122188731039
 10
12.40045065672893
 20
4.053215385714431
 30
-0.0037028613805887
1001
ACAD_VIEW_EDGE_ID
1071
        1
1071
       -1
1071
        3
1071
        0
  0
SPLINE
  5
35F
330
70
100
AcDbEntity
  8
Visible
100
AcDbSpline
 70
     0
 71
     3
 72
    14
 73
    10
 74
     0
 42
0.000000001
 43
0.0000000001
 40
0.0
 40
0.0
 40
0.0
 40
0.0
 40
0.2713517595320995
 40
0.2713517595320995
 40
0.5427035190641991
 40
0.5427035190641991
 40
0.812800979730553
 40
0.812800979730553
 40
1.082898440396904
 40
1.082898440396904
 40
1.082898440396907
 40
1.082898440396907
 10
12.12486124880342
 20
4.952631575867604
 30
0.2725264445634821
 10
12.08925078167158
 20
4.952631575867604
 30
0.2725264445634821
 10
12.05204460021195
 20
4.957803691652921
 30
0.2652512295080669
 10
11.98450683625742
 20
4.974929462351608
 30
0.2369535455072764
 10
11.95407486070144
 20
4.986510402744312
 30
0.2159464349570044
 10
11.90601507507199
 20
5.007310471917423
 30
0.1679191938110307
 10
11.88491043891008
 20
5.018057280802278
 30
0.1374702777684433
 10
11.85651860724283
 20
5.033182112469394
 30
0.0697926968532556
 10
11.84927069762125
 20
5.037411136297956
 30
0.0325143489208131
 10
11.84927069762125
 20
5.037466696618344
 30
-0.0029314685143618
1001
ACAD_VIEW_EDGE_ID
1071
        2
1071
       -1
1071
        3
1071
        0
  0
SPLINE
  5
360
330
70
100
AcDbEntity
  8
Visible
100
AcDbSpline
 70
     0
 71
     3
 72
    14
 73
    10
 74
     0
 42
0.000000001
 43
0.0000000001
 40
3.248695321190721
 40
3.248695321190721
 40
3.248695321190724
 40
3.248695321190724
 40
3.518792781857075
 40
3.518792781857075
 40
3.788890242523429
 40
3.788890242523429
 40
4.060242002055528
 40
4.060242002055528
 40
4.331593761587628
 40
4.331593761587628
 40
4.331593761587628
 40
4.331593761587628
 10
12.40045179998378
 20
5.037466696618345
 30
-0.0029314685143618
 10
12.40045179998378
 20
5.037411136297957
 30
0.0325143489208131
 10
12.3932038903622
 20
5.033182112469394
 30
0.0697926968532556
 10
12.36481205869495
 20
5.018057280802279
 30
0.1374702777684433
 10
12.34370742253304
 20
5.007310471917423
 30
0.1679191938110307
 10
12.29564763690359
 20
4.986510402744313
 30
0.2159464349570044
 10
12.26521566134761
 20
4.974929462351608
 30
0.2369535455072764
 10
12.19767789739307
 20
4.957803691652921
 30
0.2652512295080669
 10
12.16047171593345
 20
4.952631575867604
 30
0.2725264445634821
 10
12.12486124880342
 20
4.952631575867604
 30
0.2725264445634821
1001
ACAD_VIEW_EDGE_ID
1071
        2
1071
       -1
1071
        3
1071
        0
  0
ARC
  5
361
330
70
100
AcDbEntity
  8
Visible
100
AcDbCircle
 10
-4.545341
 20
-0.003703
 30
-11.73129
 40
0.4921259842519685
210
-1.0
220
-0.0000000000000007
230
0.0000000000002976
100
AcDbArc
 50
0.0
 51
180.0
  0
ARC
  5
362
330
70
100
AcDbEntity
  8
Visible
100
AcDbCircle
 10
-13.227223
 20
4.545341
 30
0.003703
 40
1.574803149606299
210
-0.0000000000002969
220
0.0
230
-1.0
100
AcDbArc
 50
341.790043
 51
18.209957
  0
LINE
  5
363
330
70
100
AcDbEntity
  8
Visible
100
AcDbLine
 10
15.077617
 20
4.053215
 30
-0.003703
 11
12.400451
 21
4.053215
 31
-0.003703
210
0.0
220
1.0
230
0.0
  0
LINE
  5
364
330
70
100
AcDbEntity
  8
Visible
100
AcDbLine
 10
11.849272
 20
4.053215
 30
-0.003703
 11
11.73129
 21
4.053215
 31
-0.003703
210
0.0
220
1.0
230
0.0
  0
LINE
  5
365
330
70
100
AcDbEntity
  8
Visible
100
AcDbLine
 10
15.077617
 20
5.037467
 30
-0.003703
 11
12.400452
 21
5.037467
 31
-0.003703
210
0.0
220
1.0
230
0.0
  0
LINE
  5
366
330
70
100
AcDbEntity
  8
Visible
100
AcDbLine
 10
11.849271
 20
5.037467
 30
-0.003703
 11
11.73129
 21
5.037467
 31
-0.003703
210
0.0
220
1.0
230
0.0
  0
SPLINE
  5
367
330
70
100
AcDbEntity
  8
Visible
100
AcDbSpline
 70
     0
 71
     3
 72
    10
 73
     6
 74
     0
 42
0.000000001
 43
0.0000000001
 40
0.8371786631866797
 40
0.8371786631866797
 40
0.8371786631866797
 40
0.8371786631866797
 40
1.04424888402179
 40
1.04424888402179
 40
1.106086546279872
 40
1.106086546279872
 40
1.106086546279872
 40
1.106086546279872
 10
11.84927069762125
 20
6.700962998071701
 30
-0.0003239849193051
 10
11.84927069762125
 20
6.701005593391865
 30
-0.0274985211999592
 10
11.85360163036239
 20
6.706723019741724
 30
-0.0557288797772344
 10
11.8636858786449
 20
6.720740005275573
 30
-0.0886118977959996
 10
11.86630161651737
 20
6.724411594903504
 30
-0.0959189929217246
 10
11.86912283000674
 20
6.728444997937844
 30
-0.1029164484243665
1001
ACAD_VIEW_EDGE_ID
1071
        2
1071
       -1
1071
        4
1071
        0
  0
SPLINE
  5
368
330
70
100
AcDbEntity
  8
Visible
100
AcDbSpline
 70
     0
 71
     3
 72
    27
 73
    23
 74
     0
 42
0.000000001
 43
0.0000000001
 40
2.511535989560039
 40
2.511535989560039
 40
2.511535989560039
 40
2.511535989560039
 40
2.718606210395149
 40
2.718606210395149
 40
2.925676431230259
 40
2.925676431230259
 40
3.137195541988489
 40
3.137195541988489
 40
3.242955097367604
 40
3.242955097367604
 40
3.348714652746719
 40
3.348714652746719
 40
3.348714652746719
 40
3.454474208125834
 40
3.454474208125834
 40
3.560233763504948
 40
3.560233763504948
 40
3.771752874263178
 40
3.771752874263178
 40
3.978823095098288
 40
3.978823095098288
 40
4.185893315933398
 40
4.185893315933398
 40
4.185893315933398
 40
4.185893315933398
 10
11.84927069762125
 20
7.114348317006427
 30
0.0003239849229431
 10
11.84927069762125
 20
7.114305721686264
 30
0.0274985212035972
 10
11.85360163036239
 20
7.108588295336403
 30
0.0557288797808724
 10
11.86913220904898
 20
7.08700097512437
 30
0.106371454663531
 10
11.88022533683215
 20
7.071180843529697
 30
0.1288374664873118
 10
11.90244682264165
 20
7.035601704436957
 30
0.1643052415438433
 10
11.91536863181318
 20
7.013131150755548
 30
0.179829055798109
 10
11.93059039322179
 20
6.975498576901895
 30
0.1957158521290694
 10
11.93493562932235
 20
6.962284005335621
 30
0.1998234775128367
 10
11.94094130824305
 20
6.935143407529791
 30
0.2053243822410877
 10
11.94257523327724
 20
6.921210862309805
 30
0.206714414707676
 10
11.94257523327724
 20
6.90733167261749
 30
0.2066926594688994
 10
11.94257523327724
 20
6.893452482925176
 30
0.2066709042301227
 10
11.94094130824305
 20
6.879524363831425
 30
0.205237200956617
 10
11.93493562932235
 20
6.852401144376479
 30
0.1996512392233853
 10
11.93059039322179
 20
6.839199514888136
 30
0.1955022071870189
 10
11.91536863181318
 20
6.801616930047206
 30
0.1794975132161198
 10
11.90244682264165
 20
6.779195152947955
 30
0.1639033314968401
 10
11.88022533683215
 20
6.743727377891884
 30
0.1283241924029426
 10
11.86913220904898
 20
6.727977753544509
 30
0.1058086958764761
 10
11.85360163036239
 20
6.706549300640093
 30
0.0550986949820072
 10
11.84927069762125
 20
6.700920402751536
 30
0.0268505513613491
 10
11.84927069762125
 20
6.700962998071701
 30
-0.0003239849193051
1001
ACAD_VIEW_EDGE_ID
1071
        3
1071
       -1
1071
        4
1071
        0
  0
LINE
  5
369
330
70
100
AcDbEntity
  8
Visible
100
AcDbLine
 10
12.203601
 20
7.078852
 30
0.264371
 11
12.203601
 21
6.713691
 31
0.263799
210
0.0
220
1.0
230
0.0
  0
ARC
  5
36A
330
70
100
AcDbEntity
  8
Visible
100
AcDbCircle
 10
6.907656
 20
0.0
 30
12.203601
 40
0.3149606300749547
210
1.0
220
0.0
230
-0.0000000000002969
100
AcDbArc
 50
56.984741
 51
57.074551
  0
ARC
  5
36B
330
70
100
AcDbEntity
  8
Visible
100
AcDbCircle
 10
-12.124861
 20
-0.010828
 30
3.527483
 40
0.2755905511811029
210
0.0000000000000008
220
0.9999987715182918
230
0.0015674699062829
100
AcDbArc
 50
0.0
 51
180.0
  0
LINE
  5
36C
330
70
100
AcDbEntity
  8
Visible
100
AcDbLine
 10
12.046121
 20
6.713691
 30
0.263799
 11
12.046121
 21
7.078852
 31
0.264371
210
0.0
220
1.0
230
0.0
  0
SPLINE
  5
36D
330
70
100
AcDbEntity
  8
Visible
100
AcDbSpline
 70
     0
 71
     3
 72
    14
 73
    10
 74
     0
 42
0.000000001
 43
0.0000000001
 40
2.53604769841391
 40
2.53604769841391
 40
2.53604769841391
 40
2.53604769841391
 40
2.622459047187773
 40
2.622459047187773
 40
2.921503126107184
 40
2.921503126107184
 40
3.203312789254864
 40
3.203312789254864
 40
3.485122452402544
 40
3.485122452402544
 40
3.485122452402544
 40
3.485122452402544
 10
12.04612109132722
 20
7.078851668594648
 30
0.2643711864038778
 10
12.03610351794668
 20
7.083452722349488
 30
0.2613917314174614
 10
12.02633923177745
 20
7.088625793935474
 30
0.2578692317765672
 10
11.98396742535806
 20
7.113147721097778
 30
0.2398550731013529
 10
11.95423354317427
 20
7.135655194766407
 30
0.2194738415491884
 10
11.90714229593322
 20
7.172816218075942
 30
0.172440785314393
 10
11.88611831966227
 20
7.190614562624173
 30
0.1429229054592724
 10
11.8571414397611
 20
7.215544355788582
 30
0.0754801696966752
 10
11.84927069762125
 20
7.222557930961325
 30
0.0374765413052956
 10
11.84927069762125
 20
7.222615900536952
 30
0.0004936913119309
1001
ACAD_VIEW_EDGE_ID
1071
       11
1071
       -1
1071
        4
1071
        0
  0
SPLINE
  5
36E
330
70
100
AcDbEntity
  8
Visible
100
AcDbSpline
210
-0.6620841439058851
220
-0.7494285866238795
230
-0.0011747081960438
 70
     8
 71
     3
 72
     8
 73
     4
 74
     0
 42
0.000000001
 43
0.0000000001
 40
-1.161707484134181
 40
-1.161707484134181
 40
-1.161707484134181
 40
-1.161707484134181
 40
-1.160453662870875
 40
-1.160453662870875
 40
-1.160453662870875
 40
-1.160453662870875
 10
11.84927069762125
 20
7.222615900536952
 30
0.0004936913119309
 10
11.84927069762125
 20
7.222616158453894
 30
0.0003291480406915
 10
11.84927085342497
 20
7.222616278747381
 30
0.0001645841311984
 10
11.84927116491963
 20
7.222616261548431
 30
0.0000000000527507
1001
ACAD_VIEW_EDGE_ID
1071
       12
1071
       -1
1071
        4
1071
        0
  0
SPLINE
  5
36F
330
70
100
AcDbEntity
  8
Visible
100
AcDbSpline
210
-0.6620841423055607
220
0.749428588037692
230
0.0011747081942146
 70
     8
 71
     3
 72
     8
 73
     4
 74
     0
 42
0.000000001
 43
0.0000000001
 40
1.160453662870875
 40
1.160453662870875
 40
1.160453662870875
 40
1.160453662870875
 40
1.161707484134181
 40
1.161707484134181
 40
1.161707484134181
 40
1.161707484134181
 10
12.4004513326854
 20
7.22261626154843
 30
0.0000000000527507
 10
12.40045164418006
 20
7.22261627874738
 30
0.0001645841311984
 10
12.40045179998378
 20
7.222616158453893
 30
0.0003291480406915
 10
12.40045179998378
 20
7.222615900536952
 30
0.0004936913119309
1001
ACAD_VIEW_EDGE_ID
1071
       16
1071
       -1
1071
        4
1071
        0
  0
SPLINE
  5
370
330
70
100
AcDbEntity
  8
Visible
100
AcDbSpline
 70
     0
 71
     3
 72
    14
 73
    10
 74
     0
 42
0.000000001
 43
0.0000000001
 40
1.161707484134181
 40
1.161707484134181
 40
1.161707484134181
 40
1.161707484134181
 40
1.443517147281861
 40
1.443517147281861
 40
1.725326810429541
 40
1.725326810429541
 40
2.024370889348952
 40
2.024370889348952
 40
2.1107822380953
 40
2.1107822380953
 40
2.1107822380953
 40
2.1107822380953
 10
12.40045179998378
 20
7.222615900536952
 30
0.0004936913119309
 10
12.40045179998378
 20
7.222557930961325
 30
0.0374765413052956
 10
12.39258105784392
 20
7.215544355788582
 30
0.0754801696966752
 10
12.36360417794276
 20
7.190614562624173
 30
0.1429229054592724
 10
12.34258020167181
 20
7.172816218075942
 30
0.172440785314393
 10
12.29548895443076
 20
7.135655194766407
 30
0.2194738415491884
 10
12.26575507224697
 20
7.113147721097778
 30
0.2398550731013529
 10
12.22338326583122
 20
7.088625793937225
 30
0.2578692317747482
 10
12.21361897965835
 20
7.083452722352793
 30
0.2613917314156424
 10
12.20360140628327
 20
7.078851668599051
 30
0.2643711864002398
1001
ACAD_VIEW_EDGE_ID
1071
       17
1071
       -1
1071
        4
1071
        0
  0
SPLINE
  5
371
330
70
100
AcDbEntity
  8
Visible
100
AcDbSpline
 70
     0
 71
     3
 72
     8
 73
     4
 74
     0
 42
0.000000001
 43
0.0000000001
 40
-0.201295068634291
 40
-0.201295068634291
 40
-0.201295068634291
 40
-0.201295068634291
 40
0.0
 40
0.0
 40
0.0
 40
0.0
 10
12.20360140628327
 20
6.713690801026263
 30
0.2637988070255233
 10
12.17812714927822
 20
6.720548783949377
 30
0.2714045220964181
 10
12.15127792447674
 20
6.724490499429737
 30
0.2753037835154828
 10
12.12486124880342
 20
6.724490499429737
 30
0.2753037835154828
1001
ACAD_VIEW_EDGE_ID
1071
       18
1071
       -1
1071
        4
1071
        0
  0
SPLINE
  5
372
330
70
100
AcDbEntity
  8
Visible
100
AcDbSpline
 70
     0
 71
     3
 72
     8
 73
     4
 74
     0
 42
0.000000001
 43
0.0000000001
 40
0.0
 40
0.0
 40
0.0
 40
0.0
 40
0.2012950771902999
 40
0.2012950771902999
 40
0.2012950771902999
 40
0.2012950771902999
 10
12.12486124880342
 20
6.724490499429737
 30
0.2753037835154828
 10
12.09844457200597
 20
6.724490499429737
 30
0.2753037835154828
 10
12.07159535011124
 20
6.720548784429732
 30
0.271404522629382
 10
12.04612109132176
 20
6.713690801026263
 30
0.2637988070255233
1001
ACAD_VIEW_EDGE_ID
1071
       19
1071
       -1
1071
        4
1071
        0
  0
ARC
  5
373
330
70
100
AcDbEntity
  8
Visible
100
AcDbCircle
 10
-6.907656
 20
0.0
 30
-12.046121
 40
0.3149606301322707
210
-1.0
220
0.0
230
0.0000000000002969
100
AcDbArc
 50
122.925449
 51
123.015259
  0
LINE
  5
374
330
70
100
AcDbEntity
  8
Visible
100
AcDbLine
 10
11.849271
 20
3.527496
 30
-0.005298
 11
11.849271
 21
4.053215
 31
-0.004474
210
0.0
220
1.0
230
0.0
  0
LINE
  5
375
330
70
100
AcDbEntity
  8
Visible
100
AcDbLine
 10
11.849271
 20
5.037467
 30
-0.002931
 11
11.849271
 21
6.700963
 31
-0.000324
210
0.0
220
1.0
230
0.0
  0
LINE
  5
376
330
70
100
AcDbEntity
  8
Visible
100
AcDbLine
 10
11.849271
 20
7.114348
 30
0.000324
 11
11.849271
 21
7.222616
 31
0.000494
210
0.0
220
1.0
230
0.0
  0
LINE
  5
377
330
70
100
AcDbEntity
  8
Visible
100
AcDbLine
 10
12.400452
 20
3.527496
 30
-0.005298
 11
12.400452
 21
4.053215
 31
-0.004474
210
0.0
220
1.0
230
0.0
  0
LINE
  5
378
330
70
100
AcDbEntity
  8
Visible
100
AcDbLine
 10
12.400452
 20
5.037467
 30
-0.002931
 11
12.400452
 21
7.222616
 31
0.000494
210
0.0
220
1.0
230
0.0
  0
LINE
  5
379
330
70
100
AcDbEntity
  8
Visible
100
AcDbLine
 10
12.400451
 20
7.222616
 30
0.0
 11
12.376183
 21
7.222616
 31
0.0
210
0.0
220
1.0
230
0.0
  0
LINE
  5
37A
330
70
100
AcDbEntity
  8
Visible
100
AcDbLine
 10
11.873539
 20
7.222616
 30
0.0
 11
11.849271
 21
7.222616
 31
0.0
210
0.0
220
1.0
230
0.0
  0
ARC
  5
37B
330
70
100
AcDbEntity
  8
Visible
100
AcDbCircle
 10
-12.124861
 20
3.935218
 30
0.004659
 40
0.4921259842519689
210
-0.0000000000002969
220
0.0
230
-1.0
100
AcDbArc
 50
235.944306
 51
304.055694
  0
SPLINE
  5
37C
330
70
100
AcDbEntity
  8
Visible
100
AcDbSpline
 70
     0
 71
     3
 72
    16
 73
    12
 74
     0
 42
0.000000001
 43
0.0000000001
 40
-2.93643915213409
 40
-2.93643915213409
 40
-2.93643915213409
 40
-2.93643915213409
 40
-2.085999538212684
 40
-2.085999538212684
 40
-1.162895161752101
 40
-1.162895161752101
 40
-0.585954926464237
 40
-0.585954926464237
 40
-0.2253672794093219
 40
-0.2253672794093219
 40
0.0
 40
0.0
 40
0.0
 40
0.0
 10
11.70875561275352
 20
7.407080590398109
 30
0.793584645671217
 10
11.70875561275352
 20
7.407080590398109
 30
0.9051908942183217
 10
11.76992141170376
 20
7.377632545941764
 30
1.014340519172037
 10
11.97649836327036
 20
7.325683718476465
 30
1.156091705037397
 10
12.12902247626698
 20
7.312875245699424
 30
1.179183111105885
 10
12.34051029555303
 20
7.340171938830069
 30
1.115720478237562
 10
12.4113081848991
 20
7.359517295477187
 30
1.069516366498646
 10
12.49265980659038
 20
7.387064092545336
 30
0.9710978967286791
 10
12.51566789852404
 20
7.396438855303285
 30
0.927975027660068
 10
12.53681791141207
 20
7.405258505692435
 30
0.8530898620883817
 10
12.54096688485151
 20
7.407080590398109
 30
0.8231604041247919
 10
12.54096688485151
 20
7.407080590398109
 30
0.793584645671217
1001
ACAD_VIEW_EDGE_ID
1071
        5
1071
       -1
1071
        5
1071
        0
  0
SPLINE
  5
37D
330
70
100
AcDbEntity
  8
Visible
100
AcDbSpline
 70
     0
 71
     3
 72
    14
 73
    10
 74
     0
 42
0.000000001
 43
0.0000000001
 40
1.1387484406999
 40
1.1387484406999
 40
1.1387484406999
 40
1.1387484406999
 40
1.417990799010673
 40
1.417990799010673
 40
1.697233157321445
 40
1.697233157321445
 40
1.987365019360623
 40
1.987365019360623
 40
2.070208965220916
 40
2.070208965220916
 40
2.070208965220916
 40
2.070208965220916
 10
11.84927069762125
 20
7.242301326830412
 30
0.000000000001819
 10
11.84927069762125
 20
7.242301326830412
 30
0.0366459787837812
 10
11.85700318444105
 20
7.235848868283859
 30
0.0744966598613246
 10
11.88584242796969
 20
7.212766848361376
 30
0.1420129954876756
 10
11.9068727846643
 20
7.19626672856449
 30
0.1717554310071137
 10
11.9540072834443
 20
7.162504178012814
 30
0.2188899297871103
 10
11.98375860775922
 20
7.142425578785243
 30
0.2394548080992536
 10
12.02637955063073
 20
7.121357538547138
 30
0.2575992428592144
 10
12.03613077588306
 20
7.11700109689244
 30
0.2611239804373326
 10
12.04612109132176
 20
7.113173502202666
 30
0.2641025170305511
1001
ACAD_VIEW_EDGE_ID
1071
       11
1071
       -1
1071
        5
1071
        0
  0
LINE
  5
37E
330
70
100
AcDbEntity
  8
Visible
100
AcDbLine
 10
12.046121
 20
7.113174
 30
0.264103
 11
12.046121
 21
7.079266
 31
0.264103
210
0.0
220
1.0
230
0.0
  0
LINE
  5
37F
330
70
100
AcDbEntity
  8
Visible
100
AcDbLine
 10
12.203601
 20
7.079266
 30
0.264103
 11
12.203601
 21
7.113174
 31
0.264103
210
0.0
220
1.0
230
0.0
  0
SPLINE
  5
380
330
70
100
AcDbEntity
  8
Visible
100
AcDbSpline
 70
     0
 71
     3
 72
    14
 73
    10
 74
     0
 42
0.000000001
 43
0.0000000001
 40
2.484784797578684
 40
2.484784797578684
 40
2.484784797578684
 40
2.484784797578684
 40
2.567628743438977
 40
2.567628743438977
 40
2.857760605478155
 40
2.857760605478155
 40
3.137002963788927
 40
3.137002963788927
 40
3.4162453220997
 40
3.4162453220997
 40
3.4162453220997
 40
3.4162453220997
 10
12.20360140628327
 20
7.113173502202666
 30
0.2641025170305511
 10
12.21359172172197
 20
7.11700109689244
 30
0.2611239804373326
 10
12.2233429469743
 20
7.121357538547138
 30
0.2575992428592144
 10
12.26596388984581
 20
7.142425578785243
 30
0.2394548080992536
 10
12.29571521416074
 20
7.162504178012814
 30
0.2188899297871103
 10
12.34284971294073
 20
7.19626672856449
 30
0.1717554310071137
 10
12.36388006963534
 20
7.212766848361376
 30
0.1420129954876756
 10
12.39271931316398
 20
7.235848868283859
 30
0.0744966598613246
 10
12.40045179998378
 20
7.242301326830412
 30
0.0366459787837812
 10
12.40045179998378
 20
7.242301326830412
 30
0.000000000001819
1001
ACAD_VIEW_EDGE_ID
1071
       15
1071
       -1
1071
        5
1071
        0
  0
ARC
  5
381
330
70
100
AcDbEntity
  8
Visible
100
AcDbCircle
 10
-11.75872
 20
7.522734
 30
-0.793585
 40
0.1259842519685034
210
-0.0000000000003736
220
0.0000000000000006
230
-1.0
100
AcDbArc
 50
293.365081
 51
0.0
  0
ARC
  5
382
330
70
100
AcDbEntity
  8
Visible
100
AcDbCircle
 10
-12.491003
 20
7.522734
 30
-0.793585
 40
0.1259842519685046
210
-0.0000000000003732
220
-0.0000000000000011
230
-1.0
100
AcDbArc
 50
180.0
 51
246.634919
  0
SPLINE
  5
383
330
70
100
AcDbEntity
  8
Visible
100
AcDbSpline
 70
     0
 71
     3
 72
    16
 73
    12
 74
     0
 42
0.000000001
 43
0.0000000001
 40
0.0
 40
0.0
 40
0.0
 40
0.0
 40
0.4838518415719263
 40
0.4838518415719263
 40
0.853040077140691
 40
0.853040077140691
 40
1.171409479092341
 40
1.171409479092341
 40
1.607240999172379
 40
1.607240999172379
 40
1.93858701140477
 40
1.93858701140477
 40
1.93858701140477
 40
1.93858701140477
 10
12.46497606935736
 20
7.482381010820724
 30
1.149266938195069
 10
12.42074720589698
 20
7.465438395445601
 30
1.191559996566866
 10
12.36837016025856
 20
7.449267431093227
 30
1.224944305897224
 10
12.26583135934015
 20
7.428887360337785
 30
1.265269058185367
 10
12.21881118655619
 20
7.422887222043637
 30
1.276322962763515
 10
12.12894464207602
 20
7.418563171982893
 30
1.284338132303673
 10
12.08705795877358
 20
7.41931992774683
 30
1.282969562014841
 10
11.98948765102795
 20
7.427454090616983
 30
1.267773292735
 10
11.93565854044573
 20
7.437102341792467
 30
1.249741268953584
 10
11.84921730603673
 20
7.459482773901803
 30
1.203076417776173
 10
11.81504632037649
 20
7.470774123867583
 30
1.178240667253703
 10
11.78474642824767
 20
7.482381010820724
 30
1.149266938195069
1001
ACAD_VIEW_EDGE_ID
1071
       26
1071
       -1
1071
        5
1071
        0
  0
LINE
  5
384
330
70
100
AcDbEntity
  8
Visible
100
AcDbLine
 10
12.616987
 20
7.522734
 30
0.793585
 11
12.616987
 21
7.556738
 31
0.793585
210
0.0
220
1.0
230
0.0
  0
SPLINE
  5
385
330
70
100
AcDbEntity
  8
Visible
100
AcDbSpline
 70
     0
 71
     3
 72
    14
 73
    10
 74
     0
 42
0.000000001
 43
0.0000000001
 40
2.857319688963153
 40
2.857319688963153
 40
2.857319688963153
 40
2.857319688963153
 40
2.886218000737023
 40
2.886218000737023
 40
3.368281366103926
 40
3.368281366103926
 40
3.609313048787377
 40
3.609313048787377
 40
3.850344731470829
 40
3.850344731470829
 40
3.850344731470829
 40
3.850344731470829
 10
12.46497606935736
 20
7.482381010820724
 30
1.149266938195069
 10
12.46763943617225
 20
7.483401258595958
 30
1.146720141388868
 10
12.47026326036757
 20
7.484420102305596
 30
1.144153875431584
 10
12.51594500289138
 20
7.502386047369139
 30
1.098472132907772
 10
12.55355552931542
 20
7.521110446330425
 30
1.043969030881271
 10
12.59145895042456
 20
7.541707128013833
 30
0.9534136578331526
 10
12.60112306446535
 20
7.547316503462727
 30
0.9217663000272295
 10
12.61388994720437
 20
7.554838539074548
 30
0.8576688514167472
 10
12.6169872330538
 20
7.556737826833563
 30
0.8252161000928026
 10
12.6169872330538
 20
7.556737826833563
 30
0.793584645671217
1001
ACAD_VIEW_EDGE_ID
1071
       30
1071
       -1
1071
        5
1071
        0
  0
SPLINE
  5
386
330
70
100
AcDbEntity
  8
Visible
100
AcDbSpline
 70
     0
 71
     3
 72
    14
 73
    10
 74
     0
 42
0.000000001
 43
0.0000000001
 40
0.0
 40
0.0
 40
0.0
 40
0.0
 40
0.2410316826834516
 40
0.2410316826834516
 40
0.4820633653669033
 40
0.4820633653669033
 40
0.9641267307338065
 40
0.9641267307338065
 40
0.993025042507703
 40
0.993025042507703
 40
0.993025042507703
 40
0.993025042507703
 10
11.63273526455123
 20
7.556737826833563
 30
0.793584645671217
 10
11.63273526455123
 20
7.556737826833563
 30
0.8252161000928026
 10
11.63583255040066
 20
7.554838539074548
 30
0.8576688514167472
 10
11.64859943313968
 20
7.547316503462727
 30
0.9217663000272295
 10
11.65826354718229
 20
7.541707128013833
 30
0.9534136578331526
 10
11.69616696828962
 20
7.521110446330425
 30
1.043969030881271
 10
11.73377749471365
 20
7.502386047369139
 30
1.098472132907772
 10
11.77945923723746
 20
7.484420102305596
 30
1.144153875431584
 10
11.78208306143278
 20
7.483401258595956
 30
1.146720141388868
 10
11.78474642824767
 20
7.48238101082072
 30
1.149266938195069
1001
ACAD_VIEW_EDGE_ID
1071
       36
1071
       -1
1071
        5
1071
        0
  0
LINE
  5
387
330
70
100
AcDbEntity
  8
Visible
100
AcDbLine
 10
11.632735
 20
7.522734
 30
0.793585
 11
11.632735
 21
7.556738
 31
0.793585
210
0.0
220
1.0
230
0.0
  0
ARC
  5
388
330
70
100
AcDbEntity
  8
Visible
100
AcDbCircle
 10
11.809901
 20
7.328231
 30
0.0
 40
0.0393700787401575
100
AcDbArc
 50
0.0
 51
73.182096
  0
ARC
  5
389
330
70
100
AcDbEntity
  8
Visible
100
AcDbCircle
 10
-12.439822
 20
7.328231
 30
0.0
 40
0.0393700787401575
210
-0.000000000000288
220
0.0000000000000239
230
-1.0
100
AcDbArc
 50
0.0
 51
73.182096
  0
LINE
  5
38A
330
70
100
AcDbEntity
  8
Visible
100
AcDbLine
 10
12.400452
 20
7.328231
 30
0.0
 11
12.400452
 21
7.242301
 31
0.0
210
0.0
220
1.0
230
0.0
  0
LINE
  5
38B
330
70
100
AcDbEntity
  8
Visible
100
AcDbLine
 10
11.849271
 20
7.328231
 30
0.0
 11
11.849271
 21
7.242301
 31
0.0
210
0.0
220
1.0
230
0.0
  0
ARC
  5
38C
330
70
100
AcDbEntity
  8
Visible
100
AcDbCircle
 10
6.907656
 20
0.0
 30
11.83746
 40
0.1059055118110237
210
1.0
220
0.0
230
-0.0000000000003761
100
AcDbArc
 50
0.0
 51
180.0
  0
ARC
  5
38D
330
70
100
AcDbEntity
  8
Visible
100
AcDbCircle
 10
-11.938247
 20
6.80175
 30
0.0
 40
0.1007874015748032
210
-0.0000000000002969
220
0.0
230
-1.0
100
AcDbArc
 50
313.209991
 51
0.0
  0
ARC
  5
38E
330
70
100
AcDbEntity
  8
Visible
100
AcDbCircle
 10
-11.938247
 20
7.013561
 30
0.0
 40
0.1007874015748032
210
-0.0000000000002969
220
0.0
230
-1.0
100
AcDbArc
 50
0.0
 51
46.683702
  0
ARC
  5
38F
330
70
100
AcDbEntity
  8
Visible
100
AcDbCircle
 10
-6.320819
 20
-0.976858
 30
1.194736
 40
0.9448818897637796
210
-0.7071067811864423
220
0.4071957137923947
230
-0.578093115915811
100
AcDbArc
 50
301.388166
 51
238.611834
  0
ARC
  5
390
330
70
100
AcDbEntity
  8
Visible
100
AcDbCircle
 10
6.320819
 20
-0.976858
 30
-1.234106
 40
0.9842519685039372
210
0.7071067811864423
220
-0.4071957137923947
230
0.578093115915811
100
AcDbArc
 50
314.889207
 51
225.110793
  0
ARC
  5
391
330
70
100
AcDbEntity
  8
Visible
100
AcDbCircle
 10
-6.320819
 20
-0.976858
 30
1.391586
 40
0.9842519685039368
210
-0.7071067811864423
220
0.4071957137923947
230
-0.578093115915811
100
AcDbArc
 50
360.0
 51
180.0
  0
LINE
  5
392
330
70
100
AcDbEntity
  8
Visible
100
AcDbLine
 10
2.801443
 20
4.911206
 30
-2.033986
 11
2.773712
 21
4.895113
 31
-2.079506
210
-0.0000000000000001
220
0.8175471248425399
230
0.5758617009853119
  0
LINE
  5
393
330
70
100
AcDbEntity
  8
Visible
100
AcDbLine
 10
3.466992
 20
6.06695
 30
-2.033986
 11
3.466992
 21
6.099012
 31
-2.079506
210
-0.0000000000000001
220
0.8175471248425399
230
0.5758617009853119
  0
LINE
  5
394
330
70
100
AcDbEntity
  8
Visible
100
AcDbLine
 10
3.150839
 20
6.615291
 30
-1.601555
 11
3.262194
 21
6.551166
 31
-1.510516
210
-0.0000000000000001
220
0.8175471248425399
230
0.5758617009853119
  0
LINE
  5
395
330
70
100
AcDbEntity
  8
Visible
100
AcDbLine
 10
2.168492
 20
4.909418
 30
-1.601555
 11
2.279847
 21
4.845293
 31
-1.510516
210
-0.0000000000000001
220
0.8175471248425399
230
0.5758617009853119
  0
SPLINE
  5
396
330
70
100
AcDbEntity
  8
Visible
100
AcDbSpline
 70
     0
 71
     3
 72
    24
 73
    20
 74
     0
 42
0.000000001
 43
0.0000000001
 40
0.5432738727923518
 40
0.5432738727923518
 40
0.5432738727923518
 40
0.5432738727923518
 40
0.812800979730553
 40
0.812800979730553
 40
1.082898440396907
 40
1.082898440396907
 40
1.352995901063261
 40
1.352995901063261
 40
1.623093361729615
 40
1.623093361729615
 40
1.894445121261714
 40
1.894445121261714
 40
2.165796880793814
 40
2.165796880793814
 40
2.437148640325914
 40
2.437148640325914
 40
2.708500399858013
 40
2.708500399858013
 40
2.709070753586173
 40
2.709070753586173
 40
2.709070753586173
 40
2.709070753586173
 10
5.16286430133608
 20
4.849265440702765
 30
0.4790704614551942
 10
5.162847859080679
 20
4.838248834256773
 30
0.5126934197087394
 10
5.156239062933886
 20
4.826065780604039
 30
0.5486006967257709
 10
5.128489173354532
 20
4.799340237656906
 30
0.6127797403332807
 10
5.10725444678304
 20
4.784666762701817
 30
0.6409553961584607
 10
5.057126491036465
 20
4.7558908391984
 30
0.6820013523756643
 10
5.025632427286504
 20
4.740295383094235
 30
0.6970012776528165
 10
4.957667801605234
 20
4.712087475373664
 30
0.7111517262383132
 10
4.921190218226579
 20
4.699560926692356
 30
0.7104393037698174
 10
4.853200488657089
 20
4.682665861410896
 30
0.6985668479683227
 10
4.816801963177235
 20
4.677074806974815
 30
0.6865082633321436
 10
4.748998203088953
 20
4.679102864337437
 30
0.6540438581632771
 10
4.717533666047197
 20
4.687074256206869
 30
0.6337850503259688
 10
4.667172860468449
 20
4.716075115370585
 30
0.5926127185193764
 10
4.646019911085781
 20
4.738404118735161
 30
0.5698542516147427
 10
4.618310849416625
 20
4.791378237375283
 30
0.5242324239698064
 10
4.611672062336433
 20
4.821752831828234
 30
0.5011059774606111
 10
4.611683577510698
 20
4.849894032703559
 30
0.4791625386078522
 10
4.611683631181799
 20
4.849953066427588
 30
0.4791165040405759
 10
4.611683714376917
 20
4.850012107949623
 30
0.4790704610586545
1001
ACAD_VIEW_EDGE_ID
1071
        2
1071
       -1
1071
        3
1071
        0
  0
CIRCLE
  5
397
330
70
100
AcDbEntity
  8
Visible
100
AcDbCircle
 10
6.320819
 20
-0.976858
 30
2.151591
 40
0.4921259842519686
210
0.7071067811864428
220
-0.4071957137923947
230
0.5780931159158104
  0
ARC
  5
398
330
70
100
AcDbEntity
  8
Visible
100
AcDbCircle
 10
6.320819
 20
-0.976858
 30
-1.194736
 40
0.4921259842519685
210
0.7071067811864431
220
-0.4071957137923942
230
0.5780931159158104
100
AcDbArc
 50
0.0
 51
180.0
  0
LINE
  5
399
330
70
100
AcDbEntity
  8
Visible
100
AcDbLine
 10
3.044446
 20
6.108666
 30
-1.487757
 11
4.612166
 21
5.205876
 31
-0.206072
210
-0.0000000000000001
220
0.8175471248425399
230
0.5758617009853119
  0
LINE
  5
39A
330
70
100
AcDbEntity
  8
Visible
100
AcDbLine
 10
5.162918
 20
4.888719
 30
0.244194
 11
5.410657
 21
4.746056
 31
0.446732
210
-0.0000000000000001
220
0.8175471248425399
230
0.5758617009853119
  0
LINE
  5
39B
330
70
100
AcDbEntity
  8
Visible
100
AcDbLine
 10
2.553273
 20
5.25573
 30
-1.487757
 11
4.919483
 21
3.89312
 31
0.446732
210
-0.0000000000000001
220
0.8175471248425399
230
0.5758617009853119
  0
SPLINE
  5
39C
330
70
100
AcDbEntity
  8
Visible
100
AcDbSpline
 70
     0
 71
     3
 72
    26
 73
    22
 74
     0
 42
0.000000001
 43
0.0000000001
 40
0.8371786631866797
 40
0.8371786631866797
 40
0.8371786631866797
 40
0.8371786631866797
 40
1.04424888402179
 40
1.04424888402179
 40
1.2513191048569
 40
1.2513191048569
 40
1.462838215615129
 40
1.462838215615129
 40
1.568597770994244
 40
1.568597770994244
 40
1.674357326373359
 40
1.674357326373359
 40
1.780116881752474
 40
1.780116881752474
 40
1.885876437131589
 40
1.885876437131589
 40
2.097395547889818
 40
2.097395547889818
 40
2.304465768724929
 40
2.304465768724929
 40
2.511535989560039
 40
2.511535989560039
 40
2.511535989560039
 40
2.511535989560039
 10
5.084034238242233
 20
6.131327175534352
 30
1.6179148156898
 10
5.064818939362007
 20
6.120296644517111
 30
1.633648757055198
 10
5.041794629466162
 20
6.115239166229002
 30
1.650757297467862
 10
4.995003143846256
 20
6.118590363448674
 30
1.683486611691478
 10
4.971273248659267
 20
6.126893076912892
 30
1.699171405552988
 10
4.930480781100081
 20
6.150586867578567
 30
1.727317657736421
 10
4.910366687879681
 20
6.167898078815596
 30
1.741761790226519
 10
4.888369615749647
 20
6.198393682001551
 30
1.763817400329571
 10
4.88239254007261
 20
6.209293971055558
 30
1.77128980487032
 10
4.874256156745682
 20
6.231688230645886
 30
1.786627229203077
 10
4.872117895890946
 20
6.243178054940472
 30
1.794509455778097
 10
4.872148662445065
 20
6.26588955547686
 30
1.810469290237961
 10
4.874317803223343
 20
6.277194919754037
 30
1.818605707414462
 10
4.882514330935586
 20
6.299198522796359
 30
1.834467566322928
 10
4.888520685535363
 20
6.309911583573011
 30
1.842183303353522
 10
4.910601123888804
 20
6.34095592453832
 30
1.863373066662461
 10
4.930764974419284
 20
6.360374962587229
 30
1.874740029188615
 10
4.971636188244369
 20
6.394810719271845
 30
1.887442595056199
 10
4.99540107440101
 20
6.41233791896866
 30
1.889909007782989
 10
5.042240237411201
 20
6.444181598966679
 30
1.881911851322001
 10
5.065277123233167
 20
6.458522474008532
 30
1.871326943073654
 10
5.084492422111575
 20
6.469553005023044
 30
1.855593001706438
1001
ACAD_VIEW_EDGE_ID
1071
        2
1071
       -1
1071
        4
1071
        0
  0
SPLINE
  5
39D
330
70
100
AcDbEntity
  8
Visible
100
AcDbSpline
 70
     0
 71
     3
 72
    12
 73
     8
 74
     0
 42
0.000000001
 43
0.0000000001
 40
2.511535989560039
 40
2.511535989560039
 40
2.511535989560039
 40
2.511535989560039
 40
2.718606210395149
 40
2.718606210395149
 40
2.925676431230259
 40
2.925676431230259
 40
3.099974980541272
 40
3.099974980541272
 40
3.099974980541272
 40
3.099974980541272
 10
5.084492422111575
 20
6.469553005023044
 30
1.855593001706438
 10
5.103707720990891
 20
6.480583536039375
 30
1.839859060344679
 10
5.120607167065495
 20
6.489168088826772
 30
1.817743155123025
 10
5.145435097677031
 20
6.498464861754655
 30
1.767057599648978
 10
5.153476941104267
 20
6.499196296462287
 30
1.738547084178208
 10
5.162010618225972
 20
6.494097155707095
 30
1.689495917386011
 10
5.163946267160676
 20
6.489077952469415
 30
1.665598369943836
 10
5.164682139800456
 20
6.480632198909006
 30
1.643089794264597
1001
ACAD_VIEW_EDGE_ID
1071
        3
1071
       -1
1071
        4
1071
        0
  0
SPLINE
  5
39E
330
70
100
AcDbEntity
  8
Visible
100
AcDbSpline
 70
     0
 71
     3
 72
    10
 73
     6
 74
     0
 42
0.000000001
 43
0.0000000001
 40
3.803261825271139
 40
3.803261825271139
 40
3.803261825271139
 40
3.803261825271139
 40
3.978823095098288
 40
3.978823095098288
 40
4.185893315933398
 40
4.185893315933398
 40
4.185893315933398
 40
4.185893315933398
 10
5.155413644676295
 20
6.245380134495462
 30
1.547052061430804
 10
5.150554994442822
 20
6.223295133792817
 30
1.553489158202864
 10
5.143144562017946
 20
6.201332258354341
 30
1.562609809885543
 10
5.120161559121365
 20
6.160225656088186
 30
1.586588601268886
 10
5.10324953712155
 20
6.142357706549773
 30
1.602180874322584
 10
5.084034238242233
 20
6.131327175534352
 30
1.6179148156898
1001
ACAD_VIEW_EDGE_ID
1071
        3
1071
       -1
1071
        4
1071
        0
  0
LINE
  5
39F
330
70
100
AcDbEntity
  8
Visible
100
AcDbLine
 10
4.646751
 20
6.179159
 30
1.573549
 11
4.646958
 21
6.332353
 31
1.681202
210
-0.0000000000000001
220
0.8175471248425399
230
0.5758617009853119
  0
ARC
  5
3A0
330
70
100
AcDbEntity
  8
Visible
100
AcDbCircle
 10
8.066909
 20
0.757046
 30
1.67928
 40
0.393700787401575
210
0.7071067811864995
220
-0.4071957137923579
230
0.5780931159157671
100
AcDbArc
 50
182.668982
 51
208.68355
  0
ARC
  5
3A1
330
70
100
AcDbEntity
  8
Visible
100
AcDbCircle
 10
-4.8807
 20
-2.400159
 30
2.778948
 40
0.2755905511811028
210
0.0011083686000386
220
0.8181843875281881
230
0.5749548499875188
100
AcDbArc
 50
0.0
 51
180.0
  0
SPLINE
  5
3A2
330
70
100
AcDbEntity
  8
Visible
100
AcDbSpline
 70
     0
 71
     3
 72
    12
 73
     8
 74
     0
 42
0.000000001
 43
0.0000000001
 40
2.802280104594405
 40
2.802280104594405
 40
2.802280104594405
 40
2.802280104594405
 40
2.921503126107184
 40
2.921503126107184
 40
3.203312789254864
 40
3.203312789254864
 40
3.485122452402544
 40
3.485122452402544
 40
3.485122452402544
 40
3.485122452402544
 10
5.162077356157746
 20
6.618985659867576
 30
1.671890885188986
 10
5.164191330066055
 20
6.617789263285885
 30
1.687943471610196
 10
5.165247570356436
 20
6.616489718488082
 30
1.703965488801259
 10
5.165275979220163
 20
6.611003559612072
 30
1.756307716641458
 10
5.159269882396651
 20
6.604974117843084
 30
1.795775000697176
 10
5.132070414872609
 20
6.586093744343997
 30
1.865870629850178
 10
5.110763246667952
 20
6.573147825508385
 30
1.896429136981168
 10
5.084612422649692
 20
6.558135960367508
 30
1.917842050424951
1001
ACAD_VIEW_EDGE_ID
1071
       11
1071
       -1
1071
        4
1071
        0
  0
SPLINE
  5
3A3
330
70
100
AcDbEntity
  8
Visible
100
AcDbSpline
 70
     0
 71
     3
 72
    12
 73
     8
 74
     0
 42
0.000000001
 43
0.0000000001
 40
-1.161707484134181
 40
-1.161707484134181
 40
-1.161707484134181
 40
-1.161707484134181
 40
-0.8798978209865015
 40
-0.8798978209865015
 40
-0.5980881578388218
 40
-0.5980881578388218
 40
-0.3559264289698966
 40
-0.3559264289698966
 40
-0.3559264289698966
 40
-0.3559264289698966
 10
5.084612422649692
 20
6.558135960367508
 30
1.917842050424951
 10
5.058461598632343
 20
6.543124095225721
 30
1.939254963874191
 10
5.026008104961542
 20
6.525208737743014
 30
1.952716958687233
 10
4.957774112495494
 20
6.489305589683681
 30
1.960764504578037
 10
4.921996271656675
 20
6.471348986623524
 30
1.955510897303611
 10
4.861883923966738
 20
6.444030806346745
 30
1.936313900172535
 10
4.833328988999378
 20
6.432075630840699
 30
1.922632353232984
 10
4.805857614641931
 20
6.423817426022651
 30
1.906161591881755
1001
ACAD_VIEW_EDGE_ID
1071
       12
1071
       -1
1071
        4
1071
        0
  0
LINE
  5
3A4
330
70
100
AcDbEntity
  8
Visible
100
AcDbLine
 10
4.758487
 20
6.396569
 30
1.862428
 11
4.758106
 21
6.115033
 31
1.664587
210
-0.0000000000000001
220
0.8175471248425399
230
0.5758617009853119
  0
SPLINE
  5
3A5
330
70
100
AcDbEntity
  8
Visible
100
AcDbSpline
 70
     0
 71
     3
 72
     8
 73
     4
 74
     0
 42
0.000000001
 43
0.0000000001
 40
2.008562787254438
 40
2.008562787254438
 40
2.008562787254438
 40
2.008562787254438
 40
2.209857864444705
 40
2.209857864444705
 40
2.209857864444705
 40
2.209857864444705
 10
4.758106104625435
 20
6.1150333824271
 30
1.664586945666087
 10
4.734730259165766
 20
6.127944336471955
 30
1.658207774733455
 10
4.712996549764861
 20
6.140527017328167
 30
1.647210316523342
 10
4.694317138467008
 20
6.151283774891453
 30
1.63193901752129
1001
ACAD_VIEW_EDGE_ID
1071
       14
1071
       -1
1071
        4
1071
        0
  0
SPLINE
  5
3A6
330
70
100
AcDbEntity
  8
Visible
100
AcDbSpline
 70
     0
 71
     3
 72
     8
 73
     4
 74
     0
 42
0.000000001
 43
0.0000000001
 40
2.209857864444705
 40
2.209857864444705
 40
2.209857864444705
 40
2.209857864444705
 40
2.411152941634972
 40
2.411152941634972
 40
2.411152941634972
 40
2.411152941634972
 10
4.694317138467008
 20
6.151283774891453
 30
1.63193901752129
 10
4.675637727166426
 20
6.162040532456558
 30
1.616667718519238
 10
4.659400902824595
 20
6.171323627749188
 30
1.596622476041375
 10
4.646750706013003
 20
6.179158691686097
 30
1.573548659695006
1001
ACAD_VIEW_EDGE_ID
1071
       15
1071
       -1
1071
        4
1071
        0
  0
LINE
  5
3A7
330
70
100
AcDbEntity
  8
Visible
100
AcDbLine
 10
4.610055
 20
3.647436
 30
-0.366005
 11
4.610628
 21
4.070977
 31
-0.068373
210
-0.0000000000000001
220
0.8175471248425399
230
0.5758617009853119
  0
LINE
  5
3A8
330
70
100
AcDbEntity
  8
Visible
100
AcDbLine
 10
4.611684
 20
4.850012
 30
0.47907
 11
4.613667
 21
6.314422
 31
1.508141
210
-0.0000000000000001
220
0.8175471248425399
230
0.5758617009853119
  0
LINE
  5
3A9
330
70
100
AcDbEntity
  8
Visible
100
AcDbLine
 10
5.161235
 20
3.646689
 30
-0.366005
 11
5.161599
 21
3.915273
 31
-0.177265
210
-0.0000000000000001
220
0.8175471248425399
230
0.5758617009853119
  0
LINE
  5
3AA
330
70
100
AcDbEntity
  8
Visible
100
AcDbLine
 10
5.162864
 20
4.849265
 30
0.47907
 11
5.164777
 21
6.261226
 31
1.471284
210
-0.0000000000000001
220
0.8175471248425399
230
0.5758617009853119
  0
LINE
  5
3AB
330
70
100
AcDbEntity
  8
Visible
100
AcDbLine
 10
5.165074
 20
6.480147
 30
1.625124
 11
5.165256
 21
6.614833
 31
1.719771
210
-0.0000000000000001
220
0.8175471248425399
230
0.5758617009853119
  0
LINE
  5
3AC
330
70
100
AcDbEntity
  8
Visible
100
AcDbLine
 10
5.156859
 20
6.622086
 30
1.667606
 11
5.162103
 21
6.619066
 31
1.671893
210
-0.0000000000000001
220
0.8175471248425399
230
0.5758617009853119
  0
ARC
  5
3AD
330
70
100
AcDbEntity
  8
Visible Narrow
100
AcDbCircle
 10
4.889391
 20
-2.403176
 30
-6.151037
 40
0.2755905511811059
210
0.0000000000000001
220
-0.8175471248425399
230
-0.5758617009853119
100
AcDbArc
 50
118.39845
 51
150.318235
  0
LINE
  5
3AE
330
70
100
AcDbEntity
  8
Visible
100
AcDbLine
 10
4.75832
 20
6.273055
 30
1.775632
 11
4.75832
 21
6.396473
 31
1.862564
210
-0.0000000000000001
220
0.8175471248425399
230
0.5758617009853119
  0
SPLINE
  5
3AF
330
70
100
AcDbEntity
  8
Visible
100
AcDbSpline
 70
     0
 71
     3
 72
    10
 73
     6
 74
     0
 42
0.000000001
 43
0.0000000001
 40
0.6660616516703764
 40
0.6660616516703764
 40
0.6660616516703764
 40
0.6660616516703764
 40
0.8595060823891273
 40
0.8595060823891273
 40
1.1387484406999
 40
1.1387484406999
 40
1.1387484406999
 40
1.1387484406999
 10
4.920288002026277
 20
6.489748899461119
 30
1.966649327552659
 10
4.943971678193188
 20
6.500405651182518
 30
1.970839712337692
 10
4.968451983624285
 20
6.512266144563909
 30
1.972017712007072
 10
5.026118542947765
 20
6.541567421018953
 30
1.964343718114832
 10
5.058350710077897
 20
6.559106609562149
 30
1.950648321102562
 10
5.084263330176904
 20
6.574028695048582
 30
1.929463533044327
1001
ACAD_VIEW_EDGE_ID
1071
       10
1071
       -1
1071
        5
1071
        0
  0
SPLINE
  5
3B0
330
70
100
AcDbEntity
  8
Visible
100
AcDbSpline
 70
     0
 71
     3
 72
    10
 73
     6
 74
     0
 42
0.000000001
 43
0.0000000001
 40
1.1387484406999
 40
1.1387484406999
 40
1.1387484406999
 40
1.1387484406999
 40
1.417990799010673
 40
1.417990799010673
 40
1.611435229729429
 40
1.611435229729429
 40
1.611435229729429
 40
1.611435229729429
 10
5.084263330176904
 20
6.574028695048582
 30
1.929463533044327
 10
5.11017595027682
 20
6.588950780536833
 30
1.908278744984272
 10
5.131472729672745
 20
6.602236862192512
 30
1.878211705665307
 10
5.154620064218429
 20
6.619473212123921
 30
1.81981653297953
 10
5.160486997868824
 20
6.625088531460278
 30
1.793828235251567
 10
5.163197976009209
 20
6.629631450265151
 30
1.768058976727843
1001
ACAD_VIEW_EDGE_ID
1071
       11
1071
       -1
1071
        5
1071
        0
  0
SPLINE
  5
3B1
330
70
100
AcDbEntity
  8
Visible
100
AcDbSpline
 70
     0
 71
     3
 72
    16
 73
    12
 74
     0
 42
0.000000001
 43
0.0000000001
 40
0.0
 40
0.0
 40
0.0
 40
0.0
 40
0.4838518415719354
 40
0.4838518415719354
 40
0.8530400771407038
 40
0.8530400771407038
 40
1.171409479092346
 40
1.171409479092346
 40
1.607240999172383
 40
1.607240999172383
 40
1.938587011404752
 40
1.938587011404752
 40
1.938587011404752
 40
1.938587011404752
 10
4.317234433213011
 20
6.276054573268083
 30
2.769400569490244
 10
4.256054195564169
 20
6.262991438316021
 30
2.758524890587068
 10
4.195411759900375
 20
6.257504673721086
 30
2.738233081436192
 10
4.094391972643856
 20
6.266176299411199
 30
2.690531465999811
 10
4.053327398730866
 20
6.275916213854543
 30
2.666284364098828
 10
3.984114574992085
 20
6.305710628203996
 30
2.616476592895196
 10
3.955463942519267
 20
6.323942665563663
 30
2.591906815230686
 10
3.897216701327701
 20
6.376510793856141
 30
2.531401386211655
 10
3.871904338504132
 20
6.413660239764794
 30
2.495415017465347
 10
3.843778188189967
 20
6.486157525219823
 30
2.431355339405854
 10
3.837177180119974
 20
6.519416025977989
 30
2.403746207422955
 10
3.83623944121849
 20
6.553041167522678
 30
2.376164496723504
1001
ACAD_VIEW_EDGE_ID
1071
       17
1071
       -1
1071
        5
1071
        0
  0
SPLINE
  5
3B2
330
70
100
AcDbEntity
  8
Visible Narrow
100
AcDbSpline
 70
     0
 71
     3
 72
     8
 73
     4
 74
     0
 42
0.000000001
 43
0.0000000001
 40
2.18064644359733
 40
2.18064644359733
 40
2.18064644359733
 40
2.18064644359733
 40
2.201710617776073
 40
2.201710617776073
 40
2.201710617776073
 40
2.201710617776073
 10
3.83623944121849
 20
6.553041167522678
 30
2.376164496723504
 10
3.836157454101916
 20
6.55561062878769
 30
2.373492103939497
 10
3.836116150740631
 20
6.5581796389597
 30
2.370821564156358
 10
3.836115528394325
 20
6.560747610519683
 30
2.368152881439527
1001
ACAD_VIEW_EDGE_ID
1071
       18
1071
       -1
1071
        5
1071
        0
  0
ARC
  5
3B3
330
70
100
AcDbEntity
  8
Visible Narrow
100
AcDbCircle
 10
-3.294506
 20
6.280016
 30
-4.363039
 40
0.1259842519685066
210
-0.7071067811865978
220
-0.4071957137923059
230
0.5780931159156834
100
AcDbArc
 50
360.0
 51
45.110793
  0
SPLINE
  5
3B4
330
70
100
AcDbEntity
  8
Visible Narrow
100
AcDbSpline
 70
     0
 71
     3
 72
    10
 73
     6
 74
     0
 42
0.000000001
 43
0.0000000001
 40
0.0
 40
0.0
 40
0.0
 40
0.0
 40
0.1380280759896338
 40
0.1380280759896338
 40
0.7551086137850659
 40
0.7551086137850659
 40
0.7551086137850659
 40
0.7551086137850659
 10
4.676227918869367
 20
6.391978802972516
 30
2.674897256014446
 10
4.659012225072396
 20
6.382064944259582
 30
2.688971896979637
 10
4.640386439536664
 20
6.372339254339749
 30
2.701757518236263
 10
4.532495992778999
 20
6.321271398858698
 30
2.763280608907734
 10
4.424576275827925
 20
6.288123885850836
 30
2.780839513903629
 10
4.317234433213011
 20
6.276054573268083
 30
2.769400569490244
1001
ACAD_VIEW_EDGE_ID
1071
       21
1071
       -1
1071
        5
1071
        0
  0
ARC
  5
3B5
330
70
100
AcDbEntity
  8
Visible Narrow
100
AcDbCircle
 10
-3.294506
 20
6.280016
 30
-5.950208
 40
0.1259842519685066
210
-0.7071067811866003
220
-0.4071957137923025
230
0.5780931159156826
100
AcDbArc
 50
360.0
 51
45.110793
  0
LINE
  5
3B6
330
70
100
AcDbEntity
  8
Visible Narrow
100
AcDbLine
 10
5.798526
 20
7.038267
 30
1.757366
 11
4.676228
 21
6.391979
 31
2.674897
210
-0.0000000000000001
220
0.8175471248425399
230
0.5758617009853119
  0
SPLINE
  5
3B7
330
70
100
AcDbEntity
  8
Visible
100
AcDbSpline
 70
     0
 71
     3
 72
    16
 73
    12
 74
     0
 42
0.000000001
 43
0.0000000001
 40
0.0
 40
0.0
 40
0.0
 40
0.0
 40
0.4838518415719263
 40
0.4838518415719263
 40
0.853040077140691
 40
0.853040077140691
 40
1.171409479092341
 40
1.171409479092341
 40
1.607240999172379
 40
1.607240999172379
 40
1.93858701140477
 40
1.93858701140477
 40
1.93858701140477
 40
1.93858701140477
 10
5.461548331999106
 20
7.488994309993358
 30
1.0473978860864
 10
5.522728569647947
 20
7.474354671971013
 30
1.03876035837311
 10
5.583371005309922
 20
7.453400385741588
 30
1.040427689446005
 10
5.68439079256735
 20
7.411405423550604
 30
1.064657100461772
 10
5.72545536648125
 20
7.39185471748533
 30
1.081993702671752
 10
5.794668190218212
 20
7.354990073748012
 30
1.126821364230636
 10
5.823318822691939
 20
7.33799540338532
 30
1.152262715220786
 10
5.881566063884415
 20
7.298727398029768
 30
1.222136449971003
 10
5.906878426707985
 20
7.27735375213524
 30
1.269234935380154
 10
5.93500457702215
 20
7.241450582529068
 30
1.359070680848162
 10
5.941605585092142
 20
7.226654503170721
 30
1.399684324826012
 10
5.942543323991808
 20
7.212007715738764
 30
1.440633958854959
1001
ACAD_VIEW_EDGE_ID
1071
       26
1071
       -1
1071
        5
1071
        0
  0
SPLINE
  5
3B8
330
70
100
AcDbEntity
  8
Visible Narrow
100
AcDbSpline
 70
     0
 71
     3
 72
     8
 73
     4
 74
     0
 42
0.000000001
 43
0.0000000001
 40
2.201710617776072
 40
2.201710617776072
 40
2.201710617776072
 40
2.201710617776072
 40
2.93643915213409
 40
2.93643915213409
 40
2.93643915213409
 40
2.93643915213409
 10
5.942660570032453
 20
7.207040115948984
 30
1.450619597038894
 10
5.942523118148196
 20
7.14926797933549
 30
1.566721155742925
 10
5.890165860084048
 20
7.091039170691146
 30
1.682445782436843
 10
5.798526087666354
 20
7.038267335468844
 30
1.757365614897935
1001
ACAD_VIEW_EDGE_ID
1071
       27
1071
       -1
1071
        5
1071
        0
  0
SPLINE
  5
3B9
330
70
100
AcDbEntity
  8
Visible
100
AcDbSpline
 70
     0
 71
     3
 72
    14
 73
    10
 74
     0
 42
0.000000001
 43
0.0000000001
 40
2.857319688963153
 40
2.857319688963153
 40
2.857319688963153
 40
2.857319688963153
 40
2.886218000737023
 40
2.886218000737023
 40
3.368281366103926
 40
3.368281366103926
 40
3.609313048787377
 40
3.609313048787377
 40
3.850344731470829
 40
3.850344731470829
 40
3.850344731470829
 40
3.850344731470829
 10
5.461548331999106
 20
7.488994309993358
 30
1.0473978860864
 10
5.457864189971255
 20
7.489875877436134
 30
1.047918019386997
 10
5.454194242029766
 20
7.490732267649036
 30
1.048471458436324
 10
5.389590502199675
 20
7.505420274382231
 30
1.058817358119995
 10
5.324456330882307
 20
7.513849768536601
 30
1.079365504021552
 10
5.233622246430636
 20
7.509248877276149
 30
1.121664075128137
 10
5.204410624547231
 20
7.504883323409558
 30
1.137602661501659
 10
5.15005933461783
 20
7.490131355588346
 30
1.171608160489995
 10
5.124921662261508
 20
7.479730693116835
 30
1.18967208007416
 10
5.10255484634184
 20
7.466850500454711
 30
1.207958006119952
1001
ACAD_VIEW_EDGE_ID
1071
       30
1071
       -1
1071
        5
1071
        0
  0
LINE
  5
3BA
330
70
100
AcDbEntity
  8
Visible
100
AcDbLine
 10
5.102555
 20
7.466851
 30
1.207958
 11
3.980257
 21
6.820562
 31
2.12549
210
-0.0000000000000001
220
0.8175471248425399
230
0.5758617009853119
  0
SPLINE
  5
3BB
330
70
100
AcDbEntity
  8
Visible
100
AcDbSpline
 70
     0
 71
     3
 72
    14
 73
    10
 74
     0
 42
0.000000001
 43
0.0000000001
 40
-3.850344731470829
 40
-3.850344731470829
 40
-3.850344731470829
 40
-3.850344731470829
 40
-3.609313048787377
 40
-3.609313048787377
 40
-3.368281366103925
 40
-3.368281366103925
 40
-2.886218000737022
 40
-2.886218000737022
 40
-2.857319688963139
 40
-2.857319688963139
 40
-2.857319688963139
 40
-2.857319688963139
 10
3.980256677544852
 20
6.820561967958383
 30
2.125489647236463
 10
3.957889861626094
 20
6.807681775298078
 30
2.143775573282255
 10
3.937132412923014
 20
6.791653195290564
 30
2.163233077966651
 10
3.900836221713356
 20
6.754204750433927
 30
2.203336166556255
 10
3.885291720975724
 20
6.732796967396097
 30
2.223987819552348
 10
3.848061168715171
 20
6.663650339124615
 30
2.28638812398276
 10
3.836116313954912
 20
6.6108339859029
 30
2.328855714236851
 10
3.836116313954912
 20
6.558943159661794
 30
2.371326416305237
 10
3.836157013775514
 20
6.555996824452449
 30
2.373740058621478
 10
3.83623944121849
 20
6.553041167522678
 30
2.376164496723504
1001
ACAD_VIEW_EDGE_ID
1071
       33
1071
       -1
1071
        5
1071
        0
  0
SPLINE
  5
3BC
330
70
100
AcDbEntity
  8
Visible
100
AcDbSpline
 70
     0
 71
     3
 72
    14
 73
    10
 74
     0
 42
0.000000001
 43
0.0000000001
 40
-0.9930250425076676
 40
-0.9930250425076676
 40
-0.9930250425076676
 40
-0.9930250425076676
 40
-0.9641267307338061
 40
-0.9641267307338061
 40
-0.4820633653669031
 40
-0.4820633653669031
 40
-0.2410316826834515
 40
-0.2410316826834515
 40
0.0
 40
0.0
 40
0.0
 40
0.0
 10
4.317234433213011
 20
6.276054573268083
 30
2.769400569490244
 10
4.320918575239042
 20
6.276841207094548
 30
2.770055479431903
 10
4.324588523181441
 20
6.277650722372527
 30
2.770675466523243
 10
4.389192263010622
 20
6.292338729104812
 30
2.781021366206914
 10
4.45432643432799
 20
6.314525392020186
 30
2.782038548777563
 10
4.545160518780571
 20
6.352803799064531
 30
2.763461657970765
 10
4.574372140663976
 20
6.366341210471546
 30
2.753983520571637
 10
4.628723430592467
 20
6.393392415468952
 30
2.728641326028082
 10
4.653861102950608
 20
6.406898592432298
 30
2.712764860600145
 10
4.676227918869367
 20
6.419778785092603
 30
2.694478934554354
1001
ACAD_VIEW_EDGE_ID
1071
       34
1071
       -1
1071
        5
1071
        0
  0
LINE
  5
3BD
330
70
100
AcDbEntity
  8
Visible
100
AcDbLine
 10
4.676228
 20
6.419779
 30
2.694479
 11
5.798526
 21
7.066067
 31
1.776947
210
-0.0000000000000001
220
0.8175471248425399
230
0.5758617009853119
  0
SPLINE
  5
3BE
330
70
100
AcDbEntity
  8
Visible
100
AcDbSpline
 70
     0
 71
     3
 72
    14
 73
    10
 74
     0
 42
0.000000001
 43
0.0000000001
 40
0.0
 40
0.0
 40
0.0
 40
0.0
 40
0.2410316826834516
 40
0.2410316826834516
 40
0.4820633653669033
 40
0.4820633653669033
 40
0.9641267307338065
 40
0.9641267307338065
 40
0.993025042507703
 40
0.993025042507703
 40
0.993025042507703
 40
0.993025042507703
 10
5.798526087666354
 20
7.066067317588931
 30
1.776947293437842
 10
5.820892903586022
 20
7.078947510251055
 30
1.758661367390232
 10
5.841650352287283
 20
7.091870575766733
 30
1.737016408553245
 10
5.87794654349785
 20
7.117019783447176
 30
1.68825001551886
 10
5.893491044235483
 20
7.129255708944583
 30
1.661137913546554
 10
5.930721596495127
 20
7.164724821432173
 30
1.575015928816355
 10
5.942666451255385
 20
7.186925017584144
 30
1.510983010090058
 10
5.942666451256295
 20
7.209439830360679
 30
1.44782050865615
 10
5.942625751434784
 20
7.210720260079142
 30
1.444233440197422
 10
5.942543323991808
 20
7.212007715738764
 30
1.440633958854959
1001
ACAD_VIEW_EDGE_ID
1071
       36
1071
       -1
1071
        5
1071
        0
  0
ARC
  5
3BF
330
70
100
AcDbEntity
  8
Visible
100
AcDbCircle
 10
7.997068
 20
0.687693
 30
1.67928
 40
0.2641025170275324
210
0.7071067811865003
220
-0.4071957137923602
230
0.5780931159157641
100
AcDbArc
 50
136.1694
 51
167.805804
  0
LINE
  5
3C0
330
70
100
AcDbEntity
  8
Visible Narrow
100
AcDbLine
 10
4.676228
 20
6.391979
 30
2.674897
 11
4.676228
 21
6.419779
 31
2.694479
210
-0.0000000000000001
220
0.8175471248425399
230
0.5758617009853119
  0
LINE
  5
3C1
330
70
100
AcDbEntity
  8
Visible Narrow
100
AcDbLine
 10
5.798526
 20
7.038267
 30
1.757366
 11
5.798526
 21
7.066067
 31
1.776947
210
-0.0000000000000001
220
0.8175471248425399
230
0.5758617009853119
  0
SPLINE
  5
3C2
330
70
100
AcDbEntity
  8
Visible
100
AcDbSpline
 70
     0
 71
     3
 72
    22
 73
    18
 74
     0
 42
0.000000001
 43
0.0000000001
 40
0.0
 40
0.0
 40
0.0
 40
0.0
 40
0.3367003631670292
 40
0.3367003631670292
 40
0.6566256486852885
 40
0.6566256486852885
 40
1.003086050483387
 40
1.003086050483387
 40
1.337337803588837
 40
1.337337803588837
 40
1.620755283303332
 40
1.620755283303332
 40
1.873653447409104
 40
1.873653447409104
 40
2.12354764105594
 40
2.12354764105594
 40
2.201710617776073
 40
2.201710617776073
 40
2.201710617776073
 40
2.201710617776073
 10
4.650013799864277
 20
6.334103184408377
 30
2.602066627237945
 10
4.612315879546835
 20
6.312394395890805
 30
2.627610480527437
 10
4.569362529380336
 20
6.292034384478029
 30
2.646628665275784
 10
4.480310101093559
 20
6.257671185719118
 30
2.668262336039333
 10
4.433120739532236
 20
6.242949082201448
 30
2.672161521135421
 10
4.332088302918814
 20
6.221180501873277
 30
2.667723440077679
 10
4.277031015335191
 20
6.214617559237922
 30
2.658435064548029
 10
4.168425822011736
 20
6.217309140431098
 30
2.629359587326689
 10
4.114406771975732
 20
6.226173688473863
 30
2.609853410949654
 10
4.021043501575727
 20
6.261310305812003
 30
2.567468952865965
 10
3.980313806278568
 20
6.285150960801729
 30
2.545301569871298
 10
3.915893573688331
 20
6.342887615561267
 30
2.501174261016785
 10
3.89038258032418
 20
6.375832029289085
 30
2.47905625822932
 10
3.853925166212897
 20
6.446974243739532
 30
2.434552653829086
 10
3.842542186582827
 20
6.485134052139983
 30
2.412061321385408
 10
3.836797796680579
 20
6.536296458535616
 30
2.382304147658942
 10
3.836116313955821
 20
6.54854242217516
 30
2.375211777776712
 10
3.836116313955821
 20
6.560761710696169
 30
2.368138170568272
1001
ACAD_VIEW_EDGE_ID
1071
    -6145
1071
       -1
1071
        5
1071
        0
  0
LINE
  5
3C3
330
70
100
AcDbEntity
  8
Visible
100
AcDbLine
 10
4.650014
 20
6.334103
 30
2.602067
 11
5.772312
 21
6.980392
 31
1.684535
210
-0.0000000000000001
220
0.8175471248425399
230
0.5758617009853119
  0
SPLINE
  5
3C4
330
70
100
AcDbEntity
  8
Visible
100
AcDbSpline
 70
     0
 71
     3
 72
    16
 73
    12
 74
     0
 42
0.000000001
 43
0.0000000001
 40
2.201710617776072
 40
2.201710617776072
 40
2.201710617776072
 40
2.201710617776072
 40
2.348656324647676
 40
2.348656324647676
 40
2.495602031519279
 40
2.495602031519279
 40
2.642547738390883
 40
2.642547738390883
 40
2.789493445262487
 40
2.789493445262487
 40
2.93643915213409
 40
2.93643915213409
 40
2.93643915213409
 40
2.93643915213409
 10
5.942666451255385
 20
7.207050243192497
 30
1.45060652945358
 10
5.942666451257204
 20
7.183208408020618
 30
1.468434056840123
 10
5.937870057396716
 20
7.159729676979623
 30
1.486122420867104
 10
5.922117570814075
 20
7.11840308597857
 30
1.521141339433597
 10
5.911402861079873
 20
7.100458611408612
 30
1.538489223836222
 10
5.88799060160421
 20
7.069353739724647
 30
1.572076785454555
 10
5.875274327700603
 20
7.056058553564071
 30
1.588279312110898
 10
5.848571727310295
 20
7.031805920625629
 30
1.619021586338931
 10
5.834403085110929
 20
7.020738985240313
 30
1.633700005379068
 10
5.804503651521949
 20
6.99976345844243
 30
1.660886556959667
 10
5.788764423587631
 20
6.98986605558457
 30
1.673386915052105
 10
5.772311968661265
 20
6.980391716904705
 30
1.684534986121434
1001
ACAD_VIEW_EDGE_ID
1071
   -12289
1071
       -1
1071
        5
1071
        0
  0
LINE
  5
3C5
330
70
100
AcDbEntity
  8
Visible
100
AcDbLine
 10
3.836116
 20
6.561878
 30
2.368924
 11
3.836116
 21
6.560762
 31
2.368138
210
-0.0000000000000001
220
0.8175471248425399
230
0.5758617009853119
  0
ARC
  5
3C6
330
70
100
AcDbEntity
  8
Visible
100
AcDbCircle
 10
-4.889391
 20
6.412659
 30
-1.577437
 40
0.2755905511811024
210
0.0000000000000002
220
-0.0000000000000002
230
-1.0
100
AcDbArc
 50
298.431406
 51
320.43264
  0
LINE
  5
3C7
330
70
100
AcDbEntity
  8
Visible
100
AcDbLine
 10
5.942666
 20
7.208166
 30
1.451393
 11
5.942666
 21
7.20705
 31
1.450607
210
-0.0000000000000001
220
0.8175471248425399
230
0.5758617009853119
  0
CIRCLE
  5
3C8
330
70
100
AcDbEntity
  8
Visible Narrow
100
AcDbCircle
 10
-7.997068
 20
0.687693
 30
-2.045421
 40
0.1059055118110237
210
-0.7071067811864979
220
0.4071957137923625
230
-0.5780931159157657
  0
ARC
  5
3C9
330
70
100
AcDbEntity
  8
Visible Narrow
100
AcDbCircle
 10
7.997068
 20
0.687693
 30
1.944634
 40
0.2066929133858274
210
0.7071067811865058
220
-0.4071957137923583
230
0.578093115915759
100
AcDbArc
 50
123.652704
 51
145.94609
  0
LINE
  5
3CA
330
70
100
AcDbEntity
  8
Visible
100
AcDbLine
 10
5.066643
 20
6.348671
 30
1.812711
 11
5.130561
 21
6.377487
 31
1.754825
210
-0.0000000000000001
220
0.8175471248425399
230
0.5758617009853119
  0
LINE
  5
3CB
330
70
100
AcDbEntity
  8
Visible
100
AcDbLine
 10
5.130561
 20
6.377487
 30
1.754825
 11
5.156533
 21
6.324446
 31
1.685696
210
-0.0000000000000001
220
0.8175471248425399
230
0.5758617009853119
  0
LINE
  5
3CC
330
70
100
AcDbEntity
  8
Visible
100
AcDbLine
 10
5.156533
 20
6.324446
 30
1.685696
 11
5.118587
 21
6.24259
 31
1.674453
210
-0.0000000000000001
220
0.8175471248425399
230
0.5758617009853119
  0
LINE
  5
3CD
330
70
100
AcDbEntity
  8
Visible
100
AcDbLine
 10
5.118587
 20
6.24259
 30
1.674453
 11
5.054669
 21
6.213775
 31
1.732339
210
-0.0000000000000001
220
0.8175471248425399
230
0.5758617009853119
  0
LINE
  5
3CE
330
70
100
AcDbEntity
  8
Visible
100
AcDbLine
 10
5.054669
 20
6.213775
 30
1.732339
 11
5.028697
 21
6.266815
 31
1.801468
210
-0.0000000000000001
220
0.8175471248425399
230
0.5758617009853119
  0
LINE
  5
3CF
330
70
100
AcDbEntity
  8
Visible
100
AcDbLine
 10
5.028697
 20
6.266815
 30
1.801468
 11
5.066643
 21
6.348671
 31
1.812711
210
-0.0000000000000001
220
0.8175471248425399
230
0.5758617009853119
  0
SPLINE
  5
3D0
330
70
100
AcDbEntity
  8
Visible
100
AcDbSpline
210
-0.6468386845740223
220
-0.7027619015616357
230
0.2961847832891196
 70
    12
 71
     2
 72
     6
 73
     3
 74
     0
 42
0.000000001
 43
0.0000000001
 40
0.0
 40
0.0
 40
0.0
 40
0.0132591984632186
 40
0.0132591984632186
 40
0.0132591984632186
 10
5.098628494572617
 20
6.357791180268577
 30
1.638355699613384
 41
1.0
 10
5.09718241016038
 20
6.359860639936414
 30
1.640107829032785
 41
1.008777566329433
 10
5.095839056293366
 20
6.36183334944144
 30
1.641854751440405
 41
1.016559070570463
1001
ACAD_VIEW_EDGE_ID
1071
       20
1071
       -1
1071
        6
1071
        0
  0
LINE
  5
3D1
330
70
100
AcDbEntity
  8
Visible
100
AcDbLine
 10
5.156533
 20
6.324446
 30
1.685696
 11
5.098628
 21
6.357791
 31
1.638356
210
-0.0000000000000001
220
0.8175471248425399
230
0.5758617009853119
  0
SPLINE
  5
3D2
330
70
100
AcDbEntity
  8
Visible
100
AcDbSpline
210
0.0760334324532392
220
0.8565918174711601
230
0.510362004258579
 70
    12
 71
     2
 72
     6
 73
     3
 74
     0
 42
0.000000001
 43
0.0000000001
 40
0.1362970973542139
 40
0.1362970973542139
 40
0.1362970973542139
 40
0.2336872276155824
 40
0.2336872276155824
 40
0.2336872276155824
 10
5.028827322442916
 20
6.266548543148019
 30
1.647613366823861
 41
1.075206161313419
 10
5.042039236567356
 20
6.271837741755007
 30
1.63676767027573
 41
1.064472096904857
 10
5.06068245175687
 20
6.275935341964213
 30
1.627112800963004
 41
1.0
1001
ACAD_VIEW_EDGE_ID
1071
       22
1071
       -1
1071
        6
1071
        0
  0
LINE
  5
3D3
330
70
100
AcDbEntity
  8
Visible
100
AcDbLine
 10
5.060682
 20
6.275935
 30
1.627113
 11
5.118587
 21
6.24259
 31
1.674453
210
-0.0000000000000001
220
0.8175471248425399
230
0.5758617009853119
  0
SPLINE
  5
3D4
330
70
100
AcDbEntity
  8
Visible
100
AcDbSpline
210
-0.5708052511217612
220
0.1538299155833921
230
0.8065467887007113
 70
    12
 71
     2
 72
     6
 73
     3
 74
     0
 42
0.000000001
 43
0.0000000001
 40
0.0
 40
0.0
 40
0.0
 40
0.2336872276155822
 40
0.2336872276155822
 40
0.2336872276155822
 10
5.06068245175687
 20
6.275935341964213
 30
1.627112800963004
 41
1.0
 10
5.070375856613859
 20
6.322207036887448
 30
1.625147726459545
 41
1.154700538379251
 10
5.098628494572617
 20
6.357791180268577
 30
1.638355699613384
 41
1.0
1001
ACAD_VIEW_EDGE_ID
1071
       24
1071
       -1
1071
        6
1071
        0
  0
SPLINE
  5
3D5
330
70
100
AcDbEntity
  8
Visible
100
AcDbSpline
 70
     0
 71
     3
 72
    26
 73
    22
 74
     0
 42
0.000000001
 43
0.0000000001
 40
5.624865814313922
 40
5.624865814313922
 40
5.624865814313922
 40
5.624865814313922
 40
5.69289769581753
 40
5.69289769581753
 40
5.905383667119506
 40
5.905383667119506
 40
6.166659566910066
 40
6.166659566910066
 40
6.512115540972827
 40
6.512115540972827
 40
6.920262835945378
 40
6.920262835945378
 40
7.330323839367702
 40
7.330323839367702
 40
7.741719914553877
 40
7.741719914553877
 40
8.138282661474576
 40
8.138282661474576
 40
8.4276404289566
 40
8.4276404289566
 40
8.561260070584904
 40
8.561260070584904
 40
8.561260070584904
 40
8.561260070584904
 10
5.148784842161726
 20
6.4979612159741
 30
1.674199469644008
 10
5.152641869577232
 20
6.494416424462542
 30
1.672256079042199
 10
5.156256889563005
 20
6.49068730723502
 30
1.670321268602492
 10
5.170093398480853
 20
6.474777247978636
 30
1.66239723608669
 10
5.177968527449261
 20
6.46153697495356
 30
1.65652294679603
 10
5.19056088138735
 20
6.432103224851744
 30
1.644004593563295
 10
5.194260761804466
 20
6.415925750667156
 30
1.637495055743784
 10
5.198151246271331
 20
6.3797390233849
 30
1.623804899494643
 10
5.196882595085876
 20
6.360044980888233
 30
1.617090891957559
 10
5.189423838477191
 20
6.318740549595531
 30
1.605660736031495
 10
5.182307555072506
 20
6.297377668495755
 30
1.601540627876602
 10
5.163329597750484
 20
6.256798013235311
 30
1.598102786005256
 10
5.151427008384084
 20
6.237615468121475
 30
1.598809562050519
 10
5.123197735517019
 20
6.202513013227871
 30
1.604976650936805
 10
5.106901724396843
 20
6.186572079216603
 30
1.610449729472748
 10
5.069538053759638
 20
6.160185661634386
 30
1.624994533529388
 10
5.04857334842894
 20
6.149344357899281
 30
1.633921502534576
 10
5.005514296808209
 20
6.139096102436269
 30
1.651268806510415
 10
4.985021796296345
 20
6.137551701065603
 30
1.659167219682785
 10
4.953852035474151
 20
6.142887950908516
 30
1.671084020032139
 10
4.943891066506362
 20
6.145689677156042
 30
1.674902183285666
 10
4.934258953672392
 20
6.149662489569891
 30
1.678739968090667
1001
ACAD_VIEW_EDGE_ID
1071
   -10241
1071
       -1
1071
        6
1071
        0
  0
ENDSEC
  0
SECTION
  2
OBJECTS
  0
DICTIONARY
  5
C
330
0
100
AcDbDictionary
281
     1
  3
ACAD_COLOR
350
63
  3
ACAD_DETAILVIEWSTYLE
350
6A
  3
ACAD_GROUP
350
D
  3
ACAD_IMAGE_DICT
350
180
  3
ACAD_IMAGE_VARS
350
182
  3
ACAD_LAYOUT
350
62
  3
ACAD_MATERIAL
350
10
  3
ACAD_MLEADERSTYLE
350
66
  3
ACAD_MLINESTYLE
350
5F
  3
ACAD_PLOTSETTINGS
350
61
  3
ACAD_PLOTSTYLENAME
350
E
  3
ACAD_SCALELIST
350
42
  3
ACAD_SECTIONVIEWSTYLE
350
68
  3
ACAD_TABLESTYLE
350
64
  3
ACAD_VISUALSTYLE
350
29
  3
ACDB_RECOMPOSE_DATA
350
41E
  3
AcDbVariableDictionary
350
415
  0
DICTIONARY
  5
B2
330
70
100
AcDbDictionary
280
     1
281
     1
  3
ACAD_SORTENTS
360
176
  0
DICTIONARY
  5
17A
330
179
100
AcDbDictionary
280
     1
281
     1
  3
ACAD_SORTENTS
360
326
  0
IMAGEDEF_REACTOR
  5
181
330
17E
100
AcDbRasterImageDefReactor
 90
        2
330
17E
  0
DICTIONARY
  5
63
102
{ACAD_REACTORS
330
C
102
}
330
C
100
AcDbDictionary
281
     1
  0
DICTIONARY
  5
6A
102
{ACAD_REACTORS
330
C
102
}
330
C
100
AcDbDictionary
281
     1
  3
Imperial24
350
6B
  0
DICTIONARY
  5
D
102
{ACAD_REACTORS
330
C
102
}
330
C
100
AcDbDictionary
281
     1
  0
DICTIONARY
  5
180
102
{ACAD_REACTORS
330
C
102
}
330
C
100
AcDbDictionary
281
     1
  3
morse_logo-16 (1)_01-2018(B)_1_1
350
17F
  0
RASTERVARIABLES
  5
182
102
{ACAD_REACTORS
330
C
102
}
330
C
100
AcDbRasterVariables
 90
        0
 70
     0
 71
     1
 72
     5
  0
DICTIONARY
  5
62
102
{ACAD_REACTORS
330
C
102
}
330
C
100
AcDbDictionary
281
     1
  3
Model
350
73
  3
Sheet1
350
6F
  3
Sheet2
350
77
  0
DICTIONARY
  5
10
102
{ACAD_REACTORS
330
C
102
}
330
C
100
AcDbDictionary
281
     1
  3
ByBlock
350
19
  3
ByLayer
350
11
  3
Global
350
21
  0
DICTIONARY
  5
66
102
{ACAD_REACTORS
330
C
102
}
330
C
100
AcDbDictionary
281
     1
  3
Standard
350
67
  0
DICTIONARY
  5
5F
102
{ACAD_REACTORS
330
C
102
}
330
C
100
AcDbDictionary
281
     1
  3
Standard
350
60
  0
DICTIONARY
  5
61
102
{ACAD_REACTORS
330
C
102
}
330
C
100
AcDbDictionary
281
     1
  0
ACDBDICTIONARYWDFLT
  5
E
102
{ACAD_REACTORS
330
C
102
}
330
C
100
AcDbDictionary
281
     1
  3
Normal
350
F
100
AcDbDictionaryWithDefault
340
F
  0
DICTIONARY
  5
42
102
{ACAD_REACTORS
330
C
102
}
330
C
100
AcDbDictionary
281
     1
  3
*A1
350
A2
  3
*A10
350
AB
  3
*A11
350
AC
  3
*A12
350
AD
  3
*A13
350
AE
  3
*A14
350
AF
  3
*A15
350
B0
  3
*A16
350
B1
  3
*A2
350
A3
  3
*A3
350
A4
  3
*A4
350
A5
  3
*A5
350
A6
  3
*A6
350
A7
  3
*A7
350
A8
  3
*A8
350
A9
  3
*A9
350
AA
  3
A0
350
43
  3
A1
350
44
  3
A2
350
45
  3
A3
350
46
  3
A4
350
47
  3
A5
350
48
  3
A6
350
49
  3
A7
350
4A
  3
A8
350
4B
  3
A9
350
4C
  3
B0
350
4D
  3
B1
350
4E
  3
B2
350
4F
  3
B3
350
50
  3
B4
350
51
  3
B5
350
52
  3
B6
350
53
  0
DICTIONARY
  5
68
102
{ACAD_REACTORS
330
C
102
}
330
C
100
AcDbDictionary
281
     1
  3
Imperial24
350
69
  0
DICTIONARY
  5
64
102
{ACAD_REACTORS
330
C
102
}
330
C
100
AcDbDictionary
281
     1
  3
Standard
350
65
  0
DICTIONARY
  5
29
102
{ACAD_REACTORS
330
C
102
}
330
C
100
AcDbDictionary
281
     1
  3
2dWireframe
350
2F
  3
Basic
350
2E
  3
Brighten
350
35
  3
ColorChange
350
39
  3
Conceptual
350
32
  3
Dim
350
34
  3
EdgeColorOff
350
41
  3
Facepattern
350
38
  3
Flat
350
2A
  3
FlatWithEdges
350
2B
  3
Gouraud
350
2C
  3
GouraudWithEdges
350
2D
  3
Hidden
350
31
  3
JitterOff
350
3F
  3
Linepattern
350
37
  3
OverhangOff
350
40
  3
Realistic
350
33
  3
Shaded
350
3E
  3
Shaded with edges
350
3D
  3
Shades of Gray
350
3A
  3
Sketchy
350
3B
  3
Thicken
350
36
  3
Wireframe
350
30
  3
X-Ray
350
3C
  0
XRECORD
  5
41E
102
{ACAD_REACTORS
330
C
102
}
330
C
100
AcDbXrecord
280
     1
 90
        1
330
65
330
186
330
190
330
191
330
192
330
195
  0
DICTIONARY
  5
415
102
{ACAD_REACTORS
330
C
102
}
330
C
100
AcDbDictionary
281
     1
  3
ANNOALLVISIBLE
350
41A
  3
CANNOSCALE
350
41B
  3
CMLEADERSTYLE
350
417
  3
CTABLESTYLE
350
416
  3
CVIEWDETAILSTYLE
350
418
  3
CVIEWSECTIONSTYLE
350
419
  0
SORTENTSTABLE
  5
176
102
{ACAD_REACTORS
330
B2
102
}
330
B2
100
AcDbSortentsTable
330
70
  0
SORTENTSTABLE
  5
326
102
{ACAD_REACTORS
330
17A
102
}
330
17A
100
AcDbSortentsTable
330
179
  0
ACDBDETAILVIEWSTYLE
  5
6B
102
{ACAD_XDICTIONARY
360
421
102
}
102
{ACAD_REACTORS
330
6A
102
}
330
6A
100
AcDbModelDocViewStyle
 70
     0
  3
Imperial24
290
     0
100
AcDbDetailViewStyle
 70
     0
 71
     0
 90
        3
 71
     1
340
55
 62
   256
 40
0.24
340
0
 62
   256
 40
0.24
300

 40
0.36
280
     3
 71
     2
340
5D
 90
       25
 62
   256
 71
     3
340
55
 62
   256
 40
0.24
 90
        1
 40
0.75
 90
        1
300
%<\AcVar ViewType \f "%tc1">% %<\AcVar ViewDetailId>%\PSCALE %<\AcVar ViewScale \f "%sn">%
 71
     4
340
5D
 90
       25
 62
   256
340
5D
 90
       25
 62
   256
280
     0
  0
IMAGEDEF
  5
17F
102
{ACAD_REACTORS
330
180
330
181
330
3D6
102
}
330
180
100
AcDbRasterImageDef
 90
        0
  1
morse_logo-16 (1)_01-2018(B)_1_1.jpg
 10
948.0
 20
333.0
 11
0.264583
 21
0.264583
280
     1
281
     5
  0
LAYOUT
  5
73
102
{ACAD_REACTORS
330
62
102
}
330
62
100
AcDbPlotSettings
  1

  2
AutoCAD PDF (High Quality Print).pc3
  4
ANSI_full_bleed_B_(17.00_x_11.00_Inches)
  6

 40
0.0
 41
0.0
 42
0.0
 43
0.0
 44
431.799988
 45
279.399994
 46
0.0
 47
0.0
 48
0.0
 49
0.0
140
0.0
141
0.0
142
1.0
143
1.607006
 70
 11952
 72
     0
 73
     0
 74
     0
  7

 75
     0
147
0.622275
 76
     0
 77
     2
 78
   300
148
67.621958
149
58.30541
100
AcDbLayout
  1
Model
 70
     1
 71
     0
 10
0.0
 20
0.0
 11
12.0
 21
9.0
 12
0.0
 22
0.0
 32
0.0
 14
0.0
 24
0.0
 34
0.0
 15
0.0
 25
0.0
 35
0.0
146
0.0
 13
0.0
 23
0.0
 33
0.0
 16
1.0
 26
0.0
 36
0.0
 17
0.0
 27
1.0
 37
0.0
 76
     0
330
70
1001
ACAD_PSEXT
1000
AutoCAD PDF (High Quality Print).pc3
1000
DWG To PDF
1000
File
1000

1070
     0
  0
LAYOUT
  5
6F
102
{ACAD_REACTORS
330
62
102
}
330
62
100
AcDbPlotSettings
  1

  2
None
  4

  6

 40
0.0
 41
0.0
 42
0.0
 43
0.0
 44
0.0
 45
0.0
 46
0.0
 47
0.0
 48
0.0
 49
0.0
140
0.0
141
0.0
142
1.0
143
1.0
 70
   688
 72
     0
 73
     0
 74
     5
  7

 75
    16
147
1.0
 76
     0
 77
     2
 78
   300
148
0.0
149
0.0
100
AcDbLayout
  1
Sheet1
 70
     1
 71
     1
 10
0.0
 20
0.0
 11
12.0
 21
9.0
 12
0.0
 22
0.0
 32
0.0
 14
0.0
 24
0.0
 34
0.0
 15
0.0
 25
0.0
 35
0.0
146
0.0
 13
0.0
 23
0.0
 33
0.0
 16
1.0
 26
0.0
 36
0.0
 17
0.0
 27
1.0
 37
0.0
 76
     0
330
6C
  0
LAYOUT
  5
77
102
{ACAD_REACTORS
330
62
102
}
330
62
100
AcDbPlotSettings
  1

  2
None
  4

  6

 40
0.0
 41
0.0
 42
0.0
 43
0.0
 44
0.0
 45
0.0
 46
0.0
 47
0.0
 48
0.0
 49
0.0
140
0.0
141
0.0
142
1.0
143
1.0
 70
   688
 72
     0
 73
     0
 74
     5
  7

 75
    16
147
1.0
 76
     0
 77
     2
 78
   300
148
0.0
149
0.0
100
AcDbLayout
  1
Sheet2
 70
     1
 71
     2
 10
0.0
 20
0.0
 11
12.0
 21
9.0
 12
0.0
 22
0.0
 32
0.0
 14
0.0
 24
0.0
 34
0.0
 15
0.0
 25
0.0
 35
0.0
146
0.0
 13
0.0
 23
0.0
 33
0.0
 16
1.0
 26
0.0
 36
0.0
 17
0.0
 27
1.0
 37
0.0
 76
     0
330
74
  0
MATERIAL
  5
19
102
{ACAD_XDICTIONARY
360
1A
102
}
102
{ACAD_REACTORS
330
10
102
}
330
10
100
AcDbMaterial
  1
ByBlock
 72
     0
 43
0.020833
 43
0.0
 43
0.0
 43
0.0
 43
0.0
 43
0.020833
 43
0.0
 43
0.0
 43
0.0
 43
0.0
 43
1.0
 43
0.0
 43
0.0
 43
0.0
 43
0.0
 43
1.0
 77
     0
 47
0.020833
 47
0.0
 47
0.0
 47
0.0
 47
0.0
 47
0.020833
 47
0.0
 47
0.0
 47
0.0
 47
0.0
 47
1.0
 47
0.0
 47
0.0
 47
0.0
 47
0.0
 47
1.0
171
     0
 49
0.020833
 49
0.0
 49
0.0
 49
0.0
 49
0.0
 49
0.020833
 49
0.0
 49
0.0
 49
0.0
 49
0.0
 49
1.0
 49
0.0
 49
0.0
 49
0.0
 49
0.0
 49
1.0
175
     0
142
0.020833
142
0.0
142
0.0
142
0.0
142
0.0
142
0.020833
142
0.0
142
0.0
142
0.0
142
0.0
142
1.0
142
0.0
142
0.0
142
0.0
142
0.0
142
1.0
179
     0
144
0.020833
144
0.0
144
0.0
144
0.0
144
0.0
144
0.020833
144
0.0
144
0.0
144
0.0
144
0.0
144
1.0
144
0.0
144
0.0
144
0.0
144
0.0
144
1.0
147
0.020833
147
0.0
147
0.0
147
0.0
147
0.0
147
0.020833
147
0.0
147
0.0
147
0.0
147
0.0
147
1.0
147
0.0
147
0.0
147
0.0
147
0.0
147
1.0
  0
MATERIAL
  5
11
102
{ACAD_XDICTIONARY
360
12
102
}
102
{ACAD_REACTORS
330
10
102
}
330
10
100
AcDbMaterial
  1
ByLayer
 72
     0
 43
0.020833
 43
0.0
 43
0.0
 43
0.0
 43
0.0
 43
0.020833
 43
0.0
 43
0.0
 43
0.0
 43
0.0
 43
1.0
 43
0.0
 43
0.0
 43
0.0
 43
0.0
 43
1.0
 77
     0
 47
0.020833
 47
0.0
 47
0.0
 47
0.0
 47
0.0
 47
0.020833
 47
0.0
 47
0.0
 47
0.0
 47
0.0
 47
1.0
 47
0.0
 47
0.0
 47
0.0
 47
0.0
 47
1.0
171
     0
 49
0.020833
 49
0.0
 49
0.0
 49
0.0
 49
0.0
 49
0.020833
 49
0.0
 49
0.0
 49
0.0
 49
0.0
 49
1.0
 49
0.0
 49
0.0
 49
0.0
 49
0.0
 49
1.0
175
     0
142
0.020833
142
0.0
142
0.0
142
0.0
142
0.0
142
0.020833
142
0.0
142
0.0
142
0.0
142
0.0
142
1.0
142
0.0
142
0.0
142
0.0
142
0.0
142
1.0
179
     0
144
0.020833
144
0.0
144
0.0
144
0.0
144
0.0
144
0.020833
144
0.0
144
0.0
144
0.0
144
0.0
144
1.0
144
0.0
144
0.0
144
0.0
144
0.0
144
1.0
147
0.020833
147
0.0
147
0.0
147
0.0
147
0.0
147
0.020833
147
0.0
147
0.0
147
0.0
147
0.0
147
1.0
147
0.0
147
0.0
147
0.0
147
0.0
147
1.0
  0
MATERIAL
  5
21
102
{ACAD_XDICTIONARY
360
22
102
}
102
{ACAD_REACTORS
330
10
102
}
330
10
100
AcDbMaterial
  1
Global
 72
     0
 43
0.020833
 43
0.0
 43
0.0
 43
0.0
 43
0.0
 43
0.020833
 43
0.0
 43
0.0
 43
0.0
 43
0.0
 43
1.0
 43
0.0
 43
0.0
 43
0.0
 43
0.0
 43
1.0
 77
     0
 47
0.020833
 47
0.0
 47
0.0
 47
0.0
 47
0.0
 47
0.020833
 47
0.0
 47
0.0
 47
0.0
 47
0.0
 47
1.0
 47
0.0
 47
0.0
 47
0.0
 47
0.0
 47
1.0
171
     0
 49
0.020833
 49
0.0
 49
0.0
 49
0.0
 49
0.0
 49
0.020833
 49
0.0
 49
0.0
 49
0.0
 49
0.0
 49
1.0
 49
0.0
 49
0.0
 49
0.0
 49
0.0
 49
1.0
175
     0
142
0.020833
142
0.0
142
0.0
142
0.0
142
0.0
142
0.020833
142
0.0
142
0.0
142
0.0
142
0.0
142
1.0
142
0.0
142
0.0
142
0.0
142
0.0
142
1.0
179
     0
144
0.020833
144
0.0
144
0.0
144
0.0
144
0.0
144
0.020833
144
0.0
144
0.0
144
0.0
144
0.0
144
1.0
144
0.0
144
0.0
144
0.0
144
0.0
144
1.0
147
0.020833
147
0.0
147
0.0
147
0.0
147
0.0
147
0.020833
147
0.0
147
0.0
147
0.0
147
0.0
147
1.0
147
0.0
147
0.0
147
0.0
147
0.0
147
1.0
  0
MLEADERSTYLE
  5
67
102
{ACAD_REACTORS
330
66
102
}
330
66
100
AcDbMLeaderStyle
179
     2
170
     2
171
     1
172
     0
 90
        2
 40
0.0
 41
0.0
173
     1
 91
-1056964608
340
5B
 92
       -2
290
     1
 42
0.09
291
     1
 43
0.36
  3
Standard
 44
0.18
300

342
55
174
     1
178
     6
175
     1
176
     0
 93
-1056964608
 45
0.18
292
     0
297
     0
 46
0.18
 94
-1056964608
 47
1.0
 49
1.0
140
1.0
293
     1
141
0.0
294
     1
177
     0
142
1.0
295
     0
296
     0
143
0.125
271
     0
272
     9
273
     9
298
     1
  0
MLINESTYLE
  5
60
102
{ACAD_REACTORS
330
5F
102
}
330
5F
100
AcDbMlineStyle
  2
STANDARD
 70
     0
  3

 62
   256
 51
90.0
 52
90.0
 71
     0
  0
ACDBPLACEHOLDER
  5
F
102
{ACAD_REACTORS
330
E
102
}
330
E
  0
SCALE
  5
A2
102
{ACAD_REACTORS
330
42
102
}
330
42
100
AcDbScale
 70
     0
300
1:2
140
1.0
141
2.0
290
     0
  0
SCALE
  5
AB
102
{ACAD_REACTORS
330
42
102
}
330
42
100
AcDbScale
 70
     0
300
1:50
140
1.0
141
50.0
290
     0
  0
SCALE
  5
AC
102
{ACAD_REACTORS
330
42
102
}
330
42
100
AcDbScale
 70
     0
300
1:100
140
1.0
141
100.0
290
     0
  0
SCALE
  5
AD
102
{ACAD_REACTORS
330
42
102
}
330
42
100
AcDbScale
 70
     0
300
2:1
140
2.0
141
1.0
290
     0
  0
SCALE
  5
AE
102
{ACAD_REACTORS
330
42
102
}
330
42
100
AcDbScale
 70
     0
300
4:1
140
4.0
141
1.0
290
     0
  0
SCALE
  5
AF
102
{ACAD_REACTORS
330
42
102
}
330
42
100
AcDbScale
 70
     0
300
8:1
140
8.0
141
1.0
290
     0
  0
SCALE
  5
B0
102
{ACAD_REACTORS
330
42
102
}
330
42
100
AcDbScale
 70
     0
300
10:1
140
10.0
141
1.0
290
     0
  0
SCALE
  5
B1
102
{ACAD_REACTORS
330
42
102
}
330
42
100
AcDbScale
 70
     0
300
100:1
140
100.0
141
1.0
290
     0
  0
SCALE
  5
A3
102
{ACAD_REACTORS
330
42
102
}
330
42
100
AcDbScale
 70
     0
300
1:4
140
1.0
141
4.0
290
     0
  0
SCALE
  5
A4
102
{ACAD_REACTORS
330
42
102
}
330
42
100
AcDbScale
 70
     0
300
1:5
140
1.0
141
5.0
290
     0
  0
SCALE
  5
A5
102
{ACAD_REACTORS
330
42
102
}
330
42
100
AcDbScale
 70
     0
300
1:8
140
1.0
141
8.0
290
     0
  0
SCALE
  5
A6
102
{ACAD_REACTORS
330
42
102
}
330
42
100
AcDbScale
 70
     0
300
1:10
140
1.0
141
10.0
290
     0
  0
SCALE
  5
A7
102
{ACAD_REACTORS
330
42
102
}
330
42
100
AcDbScale
 70
     0
300
1:16
140
1.0
141
16.0
290
     0
  0
SCALE
  5
A8
102
{ACAD_REACTORS
330
42
102
}
330
42
100
AcDbScale
 70
     0
300
1:20
140
1.0
141
20.0
290
     0
  0
SCALE
  5
A9
102
{ACAD_REACTORS
330
42
102
}
330
42
100
AcDbScale
 70
     0
300
1:30
140
1.0
141
30.0
290
     0
  0
SCALE
  5
AA
102
{ACAD_REACTORS
330
42
102
}
330
42
100
AcDbScale
 70
     0
300
1:40
140
1.0
141
40.0
290
     0
  0
SCALE
  5
43
102
{ACAD_REACTORS
330
42
102
}
330
42
100
AcDbScale
 70
     0
300
1:1
140
1.0
141
1.0
290
     1
  0
SCALE
  5
44
102
{ACAD_REACTORS
330
42
102
}
330
42
100
AcDbScale
 70
     0
300
1/128" = 1'-0"
140
0.007813
141
12.0
290
     0
  0
SCALE
  5
45
102
{ACAD_REACTORS
330
42
102
}
330
42
100
AcDbScale
 70
     0
300
1/64" = 1'-0"
140
0.015625
141
12.0
290
     0
  0
SCALE
  5
46
102
{ACAD_REACTORS
330
42
102
}
330
42
100
AcDbScale
 70
     0
300
1/32" = 1'-0"
140
0.03125
141
12.0
290
     0
  0
SCALE
  5
47
102
{ACAD_REACTORS
330
42
102
}
330
42
100
AcDbScale
 70
     0
300
1/16" = 1'-0"
140
0.0625
141
12.0
290
     0
  0
SCALE
  5
48
102
{ACAD_REACTORS
330
42
102
}
330
42
100
AcDbScale
 70
     0
300
3/32" = 1'-0"
140
0.09375
141
12.0
290
     0
  0
SCALE
  5
49
102
{ACAD_REACTORS
330
42
102
}
330
42
100
AcDbScale
 70
     0
300
1/8" = 1'-0"
140
0.125
141
12.0
290
     0
  0
SCALE
  5
4A
102
{ACAD_REACTORS
330
42
102
}
330
42
100
AcDbScale
 70
     0
300
3/16" = 1'-0"
140
0.1875
141
12.0
290
     0
  0
SCALE
  5
4B
102
{ACAD_REACTORS
330
42
102
}
330
42
100
AcDbScale
 70
     0
300
1/4" = 1'-0"
140
0.25
141
12.0
290
     0
  0
SCALE
  5
4C
102
{ACAD_REACTORS
330
42
102
}
330
42
100
AcDbScale
 70
     0
300
3/8" = 1'-0"
140
0.375
141
12.0
290
     0
  0
SCALE
  5
4D
102
{ACAD_REACTORS
330
42
102
}
330
42
100
AcDbScale
 70
     0
300
1/2" = 1'-0"
140
0.5
141
12.0
290
     0
  0
SCALE
  5
4E
102
{ACAD_REACTORS
330
42
102
}
330
42
100
AcDbScale
 70
     0
300
3/4" = 1'-0"
140
0.75
141
12.0
290
     0
  0
SCALE
  5
4F
102
{ACAD_REACTORS
330
42
102
}
330
42
100
AcDbScale
 70
     0
300
1" = 1'-0"
140
1.0
141
12.0
290
     0
  0
SCALE
  5
50
102
{ACAD_REACTORS
330
42
102
}
330
42
100
AcDbScale
 70
     0
300
1-1/2" = 1'-0"
140
1.5
141
12.0
290
     0
  0
SCALE
  5
51
102
{ACAD_REACTORS
330
42
102
}
330
42
100
AcDbScale
 70
     0
300
3" = 1'-0"
140
3.0
141
12.0
290
     0
  0
SCALE
  5
52
102
{ACAD_REACTORS
330
42
102
}
330
42
100
AcDbScale
 70
     0
300
6" = 1'-0"
140
6.0
141
12.0
290
     0
  0
SCALE
  5
53
102
{ACAD_REACTORS
330
42
102
}
330
42
100
AcDbScale
 70
     0
300
1'-0" = 1'-0"
140
12.0
141
12.0
290
     0
  0
ACDBSECTIONVIEWSTYLE
  5
69
102
{ACAD_XDICTIONARY
360
41F
102
}
102
{ACAD_REACTORS
330
68
102
}
330
68
100
AcDbModelDocViewStyle
 70
     0
  3
Imperial24
290
     0
100
AcDbSectionViewStyle
 70
     0
 71
     0
 90
       78
 71
     1
340
55
 62
   256
 40
0.24
340
0
340
0
 62
   256
 40
0.24
300
I, O, Q, S, X, Z
 40
0.48
 90
        3
 40
0.18
 90
        1
 71
     2
340
5D
 90
       25
 62
   256
340
5D
 90
       50
 62
   256
 40
0.24
 40
0.0
 40
0.24
 71
     3
340
55
 62
   256
 40
0.24
 90
        1
 40
0.75
 90
        1
300
%<\AcVar ViewType \f "%tc1">% %<\AcVar ViewSectionStartId>%-%<\AcVar ViewSectionEndId>%\PSCALE %<\AcVar ViewScale \f "%sn">%
 71
     4
 62
   256
 62
   257
300
ANSI31
 40
1.0
 90
        0
290
     0
290
     0
 90
        6
 40
0.0
 40
1.570796
 40
0.261799
 40
1.308997
 40
-0.261799
 40
1.832596
  0
TABLESTYLE
  5
65
102
{ACAD_XDICTIONARY
360
41C
102
}
102
{ACAD_REACTORS
330
64
102
}
330
64
100
AcDbTableStyle
280
     0
  3
Standard
 70
     0
 71
     0
 40
0.06
 41
0.06
280
     0
281
     0
  7
Standard
140
0.18
170
     2
 62
     0
 63
     7
283
     0
 90
      512
 91
        0
  1

274
    -2
284
     1
 64
     0
275
    -2
285
     1
 65
     0
276
    -2
286
     1
 66
     0
277
    -2
287
     1
 67
     0
278
    -2
288
     1
 68
     0
279
    -2
289
     1
 69
     0
  7
Standard
140
0.25
170
     5
 62
     0
 63
     7
283
     0
 90
      512
 91
        0
  1

274
    -2
284
     1
 64
     0
275
    -2
285
     1
 65
     0
276
    -2
286
     1
 66
     0
277
    -2
287
     1
 67
     0
278
    -2
288
     1
 68
     0
279
    -2
289
     1
 69
     0
  7
Standard
140
0.18
170
     5
 62
     0
 63
     7
283
     0
 90
      512
 91
        0
  1

274
    -2
284
     1
 64
     0
275
    -2
285
     1
 65
     0
276
    -2
286
     1
 66
     0
277
    -2
287
     1
 67
     0
278
    -2
288
     1
 68
     0
279
    -2
289
     1
 69
     0
  0
VISUALSTYLE
  5
2F
102
{ACAD_REACTORS
330
29
102
}
330
29
100
AcDbVisualStyle
  2
2dWireframe
 70
     4
177
     3
291
     0
 70
    58
 90
        0
176
     1
 90
        2
176
     1
 90
        0
176
     1
 90
        0
176
     1
 40
0.6
176
     1
 40
30.0
176
     1
 62
     7
420
 16777215
176
     1
 90
        1
176
     1
 90
        4
176
     1
 62
     7
176
     1
 62
   257
176
     1
 90
        1
176
     1
 90
        1
176
     1
 40
1.0
176
     1
 90
        0
176
     1
 62
   257
176
     1
 40
1.0
176
     1
 90
        1
176
     1
 90
        6
176
     1
 90
        2
176
     1
 62
     7
176
     1
 90
        5
176
     1
 90
        0
176
     1
 90
        0
176
     1
290
     0
176
     1
 90
        1
176
     1
 40
0.0
176
     1
 90
        0
176
     1
290
     1
176
     1
290
     1
176
     1
290
     0
176
     1
290
     0
176
     1
290
     0
176
     1
290
     0
176
     1
290
     0
176
     1
290
     0
176
     1
290
     0
176
     1
 90
       50
176
     1
 40
0.0
176
     1
 40
1.0
176
     1
 90
        0
176
     1
 62
    18
420
        0
176
     1
 90
       50
176
     1
 90
        3
176
     1
 62
     5
420
      255
176
     1
290
     0
176
     1
 90
       50
176
     1
 90
       50
176
     1
 90
       50
176
     1
290
     0
176
     1
 90
       50
176
     1
 62
   256
176
     0
 40
1.0
176
     0
 90
        2
176
     1
  1
strokes_ogs.tif
176
     1
290
     0
176
     1
 40
1.0
176
     1
 40
1.0
176
     1
1001
ACAD
1000
AcDbSavedByObjectVersion
1070
     0
  0
VISUALSTYLE
  5
2E
102
{ACAD_REACTORS
330
29
102
}
330
29
100
AcDbVisualStyle
  2
Basic
 70
     7
177
     3
291
     1
 70
    58
 90
        1
176
     1
 90
        0
176
     1
 90
        1
176
     1
 90
        0
176
     1
 40
0.6
176
     1
 40
30.0
176
     1
 62
     7
420
 16777215
176
     1
 90
        0
176
     1
 90
        4
176
     1
 62
     7
176
     1
 62
   257
176
     1
 90
        1
176
     1
 90
        1
176
     1
 40
1.0
176
     1
 90
        8
176
     1
 62
     7
176
     1
 40
1.0
176
     1
 90
        1
176
     1
 90
        6
176
     1
 90
        2
176
     1
 62
     7
176
     1
 90
        5
176
     1
 90
        0
176
     1
 90
        0
176
     1
290
     0
176
     1
 90
        1
176
     1
 40
0.0
176
     1
 90
        0
176
     1
290
     0
176
     1
290
     1
176
     1
290
     1
176
     1
290
     0
176
     1
290
     0
176
     1
290
     0
176
     1
290
     0
176
     1
290
     0
176
     1
290
     0
176
     1
 90
       50
176
     1
 40
0.0
176
     1
 40
1.0
176
     1
 90
        0
176
     1
 62
    18
420
        0
176
     1
 90
       50
176
     1
 90
        3
176
     1
 62
     5
420
      255
176
     1
290
     0
176
     1
 90
       50
176
     1
 90
       50
176
     1
 90
       50
176
     1
290
     0
176
     1
 90
       50
176
     1
 62
   256
176
     0
 40
1.0
176
     0
 90
        2
176
     1
  1
strokes_ogs.tif
176
     1
290
     0
176
     1
 40
1.0
176
     1
 40
1.0
176
     1
1001
ACAD
1000
AcDbSavedByObjectVersion
1070
     0
  0
VISUALSTYLE
  5
35
102
{ACAD_REACTORS
330
29
102
}
330
29
100
AcDbVisualStyle
  2
Brighten
 70
    12
177
     3
291
     1
 70
    58
 90
        2
176
     1
 90
        2
176
     1
 90
        0
176
     1
 90
        0
176
     1
 40
0.6
176
     1
 40
30.0
176
     1
 62
     7
420
 16777215
176
     1
 90
        1
176
     1
 90
        4
176
     1
 62
     7
176
     1
 62
   257
176
     1
 90
        1
176
     1
 90
        1
176
     1
 40
1.0
176
     1
 90
        8
176
     1
 62
     7
176
     1
 40
1.0
176
     1
 90
        1
176
     1
 90
        6
176
     1
 90
        2
176
     1
 62
     7
176
     1
 90
        5
176
     1
 90
        0
176
     1
 90
        0
176
     1
290
     0
176
     1
 90
        1
176
     1
 40
50.0
176
     1
 90
        0
176
     1
290
     0
176
     1
290
     1
176
     1
290
     1
176
     1
290
     0
176
     1
290
     0
176
     1
290
     0
176
     1
290
     0
176
     1
290
     0
176
     1
290
     0
176
     1
 90
       50
176
     1
 40
0.0
176
     1
 40
1.0
176
     1
 90
        0
176
     1
 62
    18
420
        0
176
     1
 90
       50
176
     1
 90
        3
176
     1
 62
     5
420
      255
176
     1
290
     0
176
     1
 90
       50
176
     1
 90
       50
176
     1
 90
       50
176
     1
290
     0
176
     1
 90
       50
176
     1
 62
   256
176
     0
 40
1.0
176
     0
 90
        2
176
     1
  1
strokes_ogs.tif
176
     1
290
     0
176
     1
 40
1.0
176
     1
 40
1.0
176
     1
1001
ACAD
1000
AcDbSavedByObjectVersion
1070
     0
  0
VISUALSTYLE
  5
39
102
{ACAD_REACTORS
330
29
102
}
330
29
100
AcDbVisualStyle
  2
ColorChange
 70
    16
177
     3
291
     1
 70
    58
 90
        2
176
     1
 90
        2
176
     1
 90
        3
176
     1
 90
        0
176
     1
 40
0.6
176
     1
 40
30.0
176
     1
 62
     8
420
  8421504
176
     1
 90
        1
176
     1
 90
        4
176
     1
 62
     7
176
     1
 62
   257
176
     1
 90
        1
176
     1
 90
        1
176
     1
 40
1.0
176
     1
 90
        8
176
     1
 62
     8
420
  8421504
176
     1
 40
1.0
176
     1
 90
        1
176
     1
 90
        6
176
     1
 90
        2
176
     1
 62
     7
176
     1
 90
        5
176
     1
 90
        0
176
     1
 90
        0
176
     1
290
     0
176
     1
 90
        1
176
     1
 40
0.0
176
     1
 90
        0
176
     1
290
     0
176
     1
290
     1
176
     1
290
     1
176
     1
290
     0
176
     1
290
     0
176
     1
290
     0
176
     1
290
     0
176
     1
290
     0
176
     1
290
     0
176
     1
 90
       50
176
     1
 40
0.0
176
     1
 40
1.0
176
     1
 90
        0
176
     1
 62
    18
420
        0
176
     1
 90
       50
176
     1
 90
        3
176
     1
 62
     5
420
      255
176
     1
290
     0
176
     1
 90
       50
176
     1
 90
       50
176
     1
 90
       50
176
     1
290
     0
176
     1
 90
       50
176
     1
 62
   256
176
     0
 40
1.0
176
     0
 90
        2
176
     1
  1
strokes_ogs.tif
176
     1
290
     0
176
     1
 40
1.0
176
     1
 40
1.0
176
     1
1001
ACAD
1000
AcDbSavedByObjectVersion
1070
     0
  0
VISUALSTYLE
  5
32
102
{ACAD_REACTORS
330
29
102
}
330
29
100
AcDbVisualStyle
  2
Conceptual
 70
     9
177
     3
291
     0
 70
    58
 90
        3
176
     1
 90
        2
176
     1
 90
        0
176
     1
 90
        0
176
     1
 40
0.6
176
     1
 40
30.0
176
     1
 62
     7
420
 16777215
176
     1
 90
        2
176
     1
 90
        2
176
     1
 62
     7
176
     1
 62
   257
176
     1
 90
        1
176
     1
 90
        1
176
     1
 40
179.0
176
     1
 90
        8
176
     1
 62
     7
176
     1
 40
1.0
176
     1
 90
        1
176
     1
 90
        6
176
     1
 90
        2
176
     1
 62
     7
176
     1
 90
        3
176
     1
 90
        0
176
     1
 90
        0
176
     1
290
     0
176
     1
 90
        1
176
     1
 40
0.0
176
     1
 90
        0
176
     1
290
     0
176
     1
290
     1
176
     1
290
     1
176
     1
290
     0
176
     1
290
     0
176
     1
290
     0
176
     1
290
     0
176
     1
290
     0
176
     1
290
     0
176
     1
 90
       50
176
     1
 40
0.0
176
     1
 40
1.0
176
     1
 90
        0
176
     1
 62
    18
420
        0
176
     1
 90
       50
176
     1
 90
        3
176
     1
 62
     5
420
      255
176
     1
290
     0
176
     1
 90
       50
176
     1
 90
       50
176
     1
 90
       50
176
     1
290
     0
176
     1
 90
       50
176
     1
 62
   256
176
     0
 40
1.0
176
     0
 90
        2
176
     1
  1
strokes_ogs.tif
176
     1
290
     0
176
     1
 40
1.0
176
     1
 40
1.0
176
     1
1001
ACAD
1000
AcDbSavedByObjectVersion
1070
     0
  0
VISUALSTYLE
  5
34
102
{ACAD_REACTORS
330
29
102
}
330
29
100
AcDbVisualStyle
  2
Dim
 70
    11
177
     3
291
     1
 70
    58
 90
        2
176
     1
 90
        2
176
     1
 90
        0
176
     1
 90
        0
176
     1
 40
0.6
176
     1
 40
30.0
176
     1
 62
     7
420
 16777215
176
     1
 90
        1
176
     1
 90
        4
176
     1
 62
     7
176
     1
 62
   257
176
     1
 90
        1
176
     1
 90
        1
176
     1
 40
1.0
176
     1
 90
        8
176
     1
 62
     7
176
     1
 40
1.0
176
     1
 90
        1
176
     1
 90
        6
176
     1
 90
        2
176
     1
 62
     7
176
     1
 90
        5
176
     1
 90
        0
176
     1
 90
        0
176
     1
290
     0
176
     1
 90
        1
176
     1
 40
-50.0
176
     1
 90
        0
176
     1
290
     0
176
     1
290
     1
176
     1
290
     1
176
     1
290
     0
176
     1
290
     0
176
     1
290
     0
176
     1
290
     0
176
     1
290
     0
176
     1
290
     0
176
     1
 90
       50
176
     1
 40
0.0
176
     1
 40
1.0
176
     1
 90
        0
176
     1
 62
    18
420
        0
176
     1
 90
       50
176
     1
 90
        3
176
     1
 62
     5
420
      255
176
     1
290
     0
176
     1
 90
       50
176
     1
 90
       50
176
     1
 90
       50
176
     1
290
     0
176
     1
 90
       50
176
     1
 62
   256
176
     0
 40
1.0
176
     0
 90
        2
176
     1
  1
strokes_ogs.tif
176
     1
290
     0
176
     1
 40
1.0
176
     1
 40
1.0
176
     1
1001
ACAD
1000
AcDbSavedByObjectVersion
1070
     0
  0
VISUALSTYLE
  5
41
102
{ACAD_REACTORS
330
29
102
}
330
29
100
AcDbVisualStyle
  2
EdgeColorOff
 70
    22
177
     3
291
     1
 70
    58
 90
        2
176
     0
 90
        2
176
     0
 90
        0
176
     0
 90
        0
176
     0
 40
0.6
176
     0
 40
30.0
176
     0
 62
     7
420
 16777215
176
     0
 90
        1
176
     0
 90
        4
176
     0
 62
     7
176
     0
 62
   257
176
     0
 90
        1
176
     0
 90
        1
176
     0
 40
1.0
176
     0
 90
        8
176
     2
 62
     7
176
     0
 40
1.0
176
     0
 90
        1
176
     0
 90
        6
176
     0
 90
        2
176
     0
 62
     7
176
     0
 90
        5
176
     0
 90
        0
176
     0
 90
        0
176
     0
290
     0
176
     0
 90
        1
176
     0
 40
0.0
176
     0
 90
        0
176
     0
290
     0
176
     0
290
     1
176
     0
290
     1
176
     0
290
     0
176
     0
290
     0
176
     0
290
     0
176
     0
290
     0
176
     0
290
     0
176
     0
290
     0
176
     0
 90
       50
176
     0
 40
0.0
176
     0
 40
1.0
176
     0
 90
        0
176
     0
 62
    18
420
        0
176
     0
 90
       50
176
     0
 90
        3
176
     0
 62
     5
420
      255
176
     0
290
     0
176
     0
 90
       50
176
     0
 90
       50
176
     0
 90
       50
176
     0
290
     0
176
     0
 90
       50
176
     0
 62
   256
176
     0
 40
1.0
176
     0
 90
        2
176
     0
  1
strokes_ogs.tif
176
     0
290
     0
176
     0
 40
1.0
176
     0
 40
1.0
176
     0
1001
ACAD
1000
AcDbSavedByObjectVersion
1070
     0
  0
VISUALSTYLE
  5
38
102
{ACAD_REACTORS
330
29
102
}
330
29
100
AcDbVisualStyle
  2
Facepattern
 70
    15
177
     3
291
     1
 70
    58
 90
        2
176
     1
 90
        2
176
     1
 90
        0
176
     1
 90
        0
176
     1
 40
0.6
176
     1
 40
30.0
176
     1
 62
     7
420
 16777215
176
     1
 90
        1
176
     1
 90
        4
176
     1
 62
     7
176
     1
 62
   257
176
     1
 90
        1
176
     1
 90
        1
176
     1
 40
1.0
176
     1
 90
        8
176
     1
 62
     7
176
     1
 40
1.0
176
     1
 90
        1
176
     1
 90
        6
176
     1
 90
        2
176
     1
 62
     7
176
     1
 90
        5
176
     1
 90
        0
176
     1
 90
        0
176
     1
290
     0
176
     1
 90
        1
176
     1
 40
0.0
176
     1
 90
        0
176
     1
290
     0
176
     1
290
     1
176
     1
290
     1
176
     1
290
     0
176
     1
290
     0
176
     1
290
     0
176
     1
290
     0
176
     1
290
     0
176
     1
290
     0
176
     1
 90
       50
176
     1
 40
0.0
176
     1
 40
1.0
176
     1
 90
        0
176
     1
 62
    18
420
        0
176
     1
 90
       50
176
     1
 90
        3
176
     1
 62
     5
420
      255
176
     1
290
     0
176
     1
 90
       50
176
     1
 90
       50
176
     1
 90
       50
176
     1
290
     0
176
     1
 90
       50
176
     1
 62
   256
176
     0
 40
1.0
176
     0
 90
        2
176
     1
  1
strokes_ogs.tif
176
     1
290
     0
176
     1
 40
1.0
176
     1
 40
1.0
176
     1
1001
ACAD
1000
AcDbSavedByObjectVersion
1070
     0
  0
VISUALSTYLE
  5
2A
102
{ACAD_REACTORS
330
29
102
}
330
29
100
AcDbVisualStyle
  2
Flat
 70
     0
177
     3
291
     1
 70
    58
 90
        2
176
     1
 90
        1
176
     1
 90
        1
176
     1
 90
        2
176
     1
 40
0.6
176
     1
 40
30.0
176
     1
 62
     7
420
 16777215
176
     1
 90
        0
176
     1
 90
        0
176
     1
 62
     7
176
     1
 62
   257
176
     1
 90
        1
176
     1
 90
        1
176
     1
 40
1.0
176
     1
 90
        8
176
     1
 62
     7
176
     1
 40
1.0
176
     1
 90
        1
176
     1
 90
        6
176
     1
 90
        2
176
     1
 62
     7
176
     1
 90
        5
176
     1
 90
        0
176
     1
 90
        0
176
     1
290
     0
176
     1
 90
       13
176
     1
 40
0.0
176
     1
 90
        0
176
     1
290
     0
176
     1
290
     1
176
     1
290
     1
176
     1
290
     0
176
     1
290
     0
176
     1
290
     0
176
     1
290
     0
176
     1
290
     0
176
     1
290
     0
176
     1
 90
       50
176
     1
 40
0.0
176
     1
 40
1.0
176
     1
 90
        0
176
     1
 62
    18
420
        0
176
     1
 90
       50
176
     1
 90
        3
176
     1
 62
     5
420
      255
176
     1
290
     0
176
     1
 90
       50
176
     1
 90
       50
176
     1
 90
       50
176
     1
290
     0
176
     1
 90
       50
176
     1
 62
   256
176
     0
 40
1.0
176
     0
 90
        2
176
     1
  1
strokes_ogs.tif
176
     1
290
     0
176
     1
 40
1.0
176
     1
 40
1.0
176
     1
1001
ACAD
1000
AcDbSavedByObjectVersion
1070
     0
  0
VISUALSTYLE
  5
2B
102
{ACAD_REACTORS
330
29
102
}
330
29
100
AcDbVisualStyle
  2
FlatWithEdges
 70
     1
177
     3
291
     1
 70
    58
 90
        2
176
     1
 90
        1
176
     1
 90
        1
176
     1
 90
        2
176
     1
 40
0.6
176
     1
 40
30.0
176
     1
 62
     7
420
 16777215
176
     1
 90
        1
176
     1
 90
        0
176
     1
 62
     7
176
     1
 62
   257
176
     1
 90
        1
176
     1
 90
        1
176
     1
 40
1.0
176
     1
 90
        0
176
     1
 62
   257
176
     1
 40
1.0
176
     1
 90
        1
176
     1
 90
        6
176
     1
 90
        2
176
     1
 62
     7
176
     1
 90
        5
176
     1
 90
        0
176
     1
 90
        0
176
     1
290
     0
176
     1
 90
       13
176
     1
 40
0.0
176
     1
 90
        0
176
     1
290
     0
176
     1
290
     1
176
     1
290
     1
176
     1
290
     0
176
     1
290
     0
176
     1
290
     0
176
     1
290
     0
176
     1
290
     0
176
     1
290
     0
176
     1
 90
       50
176
     1
 40
0.0
176
     1
 40
1.0
176
     1
 90
        0
176
     1
 62
    18
420
        0
176
     1
 90
       50
176
     1
 90
        3
176
     1
 62
     5
420
      255
176
     1
290
     0
176
     1
 90
       50
176
     1
 90
       50
176
     1
 90
       50
176
     1
290
     0
176
     1
 90
       50
176
     1
 62
   256
176
     0
 40
1.0
176
     0
 90
        2
176
     1
  1
strokes_ogs.tif
176
     1
290
     0
176
     1
 40
1.0
176
     1
 40
1.0
176
     1
1001
ACAD
1000
AcDbSavedByObjectVersion
1070
     0
  0
VISUALSTYLE
  5
2C
102
{ACAD_REACTORS
330
29
102
}
330
29
100
AcDbVisualStyle
  2
Gouraud
 70
     2
177
     3
291
     1
 70
    58
 90
        2
176
     1
 90
        2
176
     1
 90
        1
176
     1
 90
        2
176
     1
 40
0.6
176
     1
 40
30.0
176
     1
 62
     7
420
 16777215
176
     1
 90
        0
176
     1
 90
        0
176
     1
 62
     7
176
     1
 62
   257
176
     1
 90
        1
176
     1
 90
        1
176
     1
 40
1.0
176
     1
 90
        0
176
     1
 62
     7
176
     1
 40
1.0
176
     1
 90
        1
176
     1
 90
        6
176
     1
 90
        2
176
     1
 62
     7
176
     1
 90
        5
176
     1
 90
        0
176
     1
 90
        0
176
     1
290
     0
176
     1
 90
       13
176
     1
 40
0.0
176
     1
 90
        0
176
     1
290
     0
176
     1
290
     1
176
     1
290
     1
176
     1
290
     0
176
     1
290
     0
176
     1
290
     0
176
     1
290
     0
176
     1
290
     0
176
     1
290
     0
176
     1
 90
       50
176
     1
 40
0.0
176
     1
 40
1.0
176
     1
 90
        0
176
     1
 62
    18
420
        0
176
     1
 90
       50
176
     1
 90
        3
176
     1
 62
     5
420
      255
176
     1
290
     0
176
     1
 90
       50
176
     1
 90
       50
176
     1
 90
       50
176
     1
290
     0
176
     1
 90
       50
176
     1
 62
   256
176
     0
 40
1.0
176
     0
 90
        2
176
     1
  1
strokes_ogs.tif
176
     1
290
     0
176
     1
 40
1.0
176
     1
 40
1.0
176
     1
1001
ACAD
1000
AcDbSavedByObjectVersion
1070
     0
  0
VISUALSTYLE
  5
2D
102
{ACAD_REACTORS
330
29
102
}
330
29
100
AcDbVisualStyle
  2
GouraudWithEdges
 70
     3
177
     3
291
     1
 70
    58
 90
        2
176
     1
 90
        2
176
     1
 90
        1
176
     1
 90
        2
176
     1
 40
0.6
176
     1
 40
30.0
176
     1
 62
     7
420
 16777215
176
     1
 90
        1
176
     1
 90
        0
176
     1
 62
     7
176
     1
 62
   257
176
     1
 90
        1
176
     1
 90
        1
176
     1
 40
1.0
176
     1
 90
        0
176
     1
 62
   257
176
     1
 40
1.0
176
     1
 90
        1
176
     1
 90
        6
176
     1
 90
        2
176
     1
 62
     7
176
     1
 90
        5
176
     1
 90
        0
176
     1
 90
        0
176
     1
290
     0
176
     1
 90
       13
176
     1
 40
0.0
176
     1
 90
        0
176
     1
290
     0
176
     1
290
     1
176
     1
290
     1
176
     1
290
     0
176
     1
290
     0
176
     1
290
     0
176
     1
290
     0
176
     1
290
     0
176
     1
290
     0
176
     1
 90
       50
176
     1
 40
0.0
176
     1
 40
1.0
176
     1
 90
        0
176
     1
 62
    18
420
        0
176
     1
 90
       50
176
     1
 90
        3
176
     1
 62
     5
420
      255
176
     1
290
     0
176
     1
 90
       50
176
     1
 90
       50
176
     1
 90
       50
176
     1
290
     0
176
     1
 90
       50
176
     1
 62
   256
176
     0
 40
1.0
176
     0
 90
        2
176
     1
  1
strokes_ogs.tif
176
     1
290
     0
176
     1
 40
1.0
176
     1
 40
1.0
176
     1
1001
ACAD
1000
AcDbSavedByObjectVersion
1070
     0
  0
VISUALSTYLE
  5
31
102
{ACAD_REACTORS
330
29
102
}
330
29
100
AcDbVisualStyle
  2
Hidden
 70
     6
177
     3
291
     0
 70
    58
 90
        1
176
     1
 90
        2
176
     1
 90
        2
176
     1
 90
        0
176
     1
 40
0.6
176
     1
 40
30.0
176
     1
 62
     7
420
 16777215
176
     1
 90
        2
176
     1
 90
        2
176
     1
 62
     7
176
     1
 62
   257
176
     1
 90
        2
176
     1
 90
        1
176
     1
 40
40.0
176
     1
 90
        0
176
     1
 62
   257
176
     1
 40
1.0
176
     1
 90
        1
176
     1
 90
        6
176
     1
 90
        2
176
     1
 62
     7
176
     1
 90
        3
176
     1
 90
        0
176
     1
 90
        0
176
     1
290
     0
176
     1
 90
        1
176
     1
 40
0.0
176
     1
 90
        0
176
     1
290
     0
176
     1
290
     1
176
     1
290
     1
176
     1
290
     0
176
     1
290
     0
176
     1
290
     0
176
     1
290
     0
176
     1
290
     0
176
     1
290
     0
176
     1
 90
       50
176
     1
 40
0.0
176
     1
 40
1.0
176
     1
 90
        0
176
     1
 62
    18
420
        0
176
     1
 90
       50
176
     1
 90
        3
176
     1
 62
     5
420
      255
176
     1
290
     0
176
     1
 90
       50
176
     1
 90
       50
176
     1
 90
       50
176
     1
290
     0
176
     1
 90
       50
176
     1
 62
   256
176
     0
 40
1.0
176
     0
 90
        2
176
     1
  1
strokes_ogs.tif
176
     1
290
     0
176
     1
 40
1.0
176
     1
 40
1.0
176
     1
1001
ACAD
1000
AcDbSavedByObjectVersion
1070
     0
  0
VISUALSTYLE
  5
3F
102
{ACAD_REACTORS
330
29
102
}
330
29
100
AcDbVisualStyle
  2
JitterOff
 70
    20
177
     3
291
     1
 70
    58
 90
        2
176
     0
 90
        2
176
     0
 90
        0
176
     0
 90
        0
176
     0
 40
0.6
176
     0
 40
30.0
176
     0
 62
     7
420
 16777215
176
     0
 90
        1
176
     0
 90
        4
176
     0
 62
     7
176
     0
 62
   257
176
     0
 90
        1
176
     0
 90
        1
176
     0
 40
1.0
176
     0
 90
       10
176
     2
 62
     7
176
     0
 40
1.0
176
     0
 90
        1
176
     0
 90
        6
176
     0
 90
        2
176
     0
 62
     7
176
     0
 90
        5
176
     0
 90
        0
176
     0
 90
        0
176
     0
290
     0
176
     0
 90
        1
176
     0
 40
0.0
176
     0
 90
        0
176
     0
290
     0
176
     0
290
     1
176
     0
290
     1
176
     0
290
     0
176
     0
290
     0
176
     0
290
     0
176
     0
290
     0
176
     0
290
     0
176
     0
290
     0
176
     0
 90
       50
176
     0
 40
0.0
176
     0
 40
1.0
176
     0
 90
        0
176
     0
 62
    18
420
        0
176
     0
 90
       50
176
     0
 90
        3
176
     0
 62
     5
420
      255
176
     0
290
     0
176
     0
 90
       50
176
     0
 90
       50
176
     0
 90
       50
176
     0
290
     0
176
     0
 90
       50
176
     0
 62
   256
176
     0
 40
1.0
176
     0
 90
        2
176
     0
  1
strokes_ogs.tif
176
     0
290
     0
176
     0
 40
1.0
176
     0
 40
1.0
176
     0
1001
ACAD
1000
AcDbSavedByObjectVersion
1070
     0
  0
VISUALSTYLE
  5
37
102
{ACAD_REACTORS
330
29
102
}
330
29
100
AcDbVisualStyle
  2
Linepattern
 70
    14
177
     3
291
     1
 70
    58
 90
        2
176
     1
 90
        2
176
     1
 90
        0
176
     1
 90
        0
176
     1
 40
0.6
176
     1
 40
30.0
176
     1
 62
     7
420
 16777215
176
     1
 90
        1
176
     1
 90
        4
176
     1
 62
     7
176
     1
 62
   257
176
     1
 90
        7
176
     1
 90
        7
176
     1
 40
1.0
176
     1
 90
        8
176
     1
 62
     7
176
     1
 40
1.0
176
     1
 90
        1
176
     1
 90
        6
176
     1
 90
        2
176
     1
 62
     7
176
     1
 90
        5
176
     1
 90
        0
176
     1
 90
        0
176
     1
290
     0
176
     1
 90
        1
176
     1
 40
0.0
176
     1
 90
        0
176
     1
290
     0
176
     1
290
     1
176
     1
290
     1
176
     1
290
     0
176
     1
290
     0
176
     1
290
     0
176
     1
290
     0
176
     1
290
     0
176
     1
290
     0
176
     1
 90
       50
176
     1
 40
0.0
176
     1
 40
1.0
176
     1
 90
        0
176
     1
 62
    18
420
        0
176
     1
 90
       50
176
     1
 90
        3
176
     1
 62
     5
420
      255
176
     1
290
     0
176
     1
 90
       50
176
     1
 90
       50
176
     1
 90
       50
176
     1
290
     0
176
     1
 90
       50
176
     1
 62
   256
176
     0
 40
1.0
176
     0
 90
        2
176
     1
  1
strokes_ogs.tif
176
     1
290
     0
176
     1
 40
1.0
176
     1
 40
1.0
176
     1
1001
ACAD
1000
AcDbSavedByObjectVersion
1070
     0
  0
VISUALSTYLE
  5
40
102
{ACAD_REACTORS
330
29
102
}
330
29
100
AcDbVisualStyle
  2
OverhangOff
 70
    21
177
     3
291
     1
 70
    58
 90
        2
176
     0
 90
        2
176
     0
 90
        0
176
     0
 90
        0
176
     0
 40
0.6
176
     0
 40
30.0
176
     0
 62
     7
420
 16777215
176
     0
 90
        1
176
     0
 90
        4
176
     0
 62
     7
176
     0
 62
   257
176
     0
 90
        1
176
     0
 90
        1
176
     0
 40
1.0
176
     0
 90
        9
176
     2
 62
     7
176
     0
 40
1.0
176
     0
 90
        1
176
     0
 90
        6
176
     0
 90
        2
176
     0
 62
     7
176
     0
 90
        5
176
     0
 90
        0
176
     0
 90
        0
176
     0
290
     0
176
     0
 90
        1
176
     0
 40
0.0
176
     0
 90
        0
176
     0
290
     0
176
     0
290
     1
176
     0
290
     1
176
     0
290
     0
176
     0
290
     0
176
     0
290
     0
176
     0
290
     0
176
     0
290
     0
176
     0
290
     0
176
     0
 90
       50
176
     0
 40
0.0
176
     0
 40
1.0
176
     0
 90
        0
176
     0
 62
    18
420
        0
176
     0
 90
       50
176
     0
 90
        3
176
     0
 62
     5
420
      255
176
     0
290
     0
176
     0
 90
       50
176
     0
 90
       50
176
     0
 90
       50
176
     0
290
     0
176
     0
 90
       50
176
     0
 62
   256
176
     0
 40
1.0
176
     0
 90
        2
176
     0
  1
strokes_ogs.tif
176
     0
290
     0
176
     0
 40
1.0
176
     0
 40
1.0
176
     0
1001
ACAD
1000
AcDbSavedByObjectVersion
1070
     0
  0
VISUALSTYLE
  5
33
102
{ACAD_REACTORS
330
29
102
}
330
29
100
AcDbVisualStyle
  2
Realistic
 70
     8
177
     3
291
     0
 70
    58
 90
        2
176
     1
 90
        3
176
     1
 90
        0
176
     1
 90
        2
176
     1
 40
0.6
176
     1
 40
30.0
176
     1
 62
     7
420
 16777215
176
     1
 90
        0
176
     1
 90
        0
176
     1
 62
     7
176
     1
 62
   257
176
     1
 90
        1
176
     1
 90
        1
176
     1
 40
1.0
176
     1
 90
        8
176
     1
 62
   257
176
     1
 40
1.0
176
     1
 90
        1
176
     1
 90
        6
176
     1
 90
        2
176
     1
 62
     7
176
     1
 90
        3
176
     1
 90
        0
176
     1
 90
        0
176
     1
290
     0
176
     1
 90
       13
176
     1
 40
0.0
176
     1
 90
        0
176
     1
290
     0
176
     1
290
     1
176
     1
290
     1
176
     1
290
     0
176
     1
290
     0
176
     1
290
     0
176
     1
290
     0
176
     1
290
     0
176
     1
290
     0
176
     1
 90
       50
176
     1
 40
0.0
176
     1
 40
1.0
176
     1
 90
        0
176
     1
 62
    18
420
        0
176
     1
 90
       50
176
     1
 90
        3
176
     1
 62
     5
420
      255
176
     1
290
     0
176
     1
 90
       50
176
     1
 90
       50
176
     1
 90
       50
176
     1
290
     0
176
     1
 90
       50
176
     1
 62
   256
176
     0
 40
1.0
176
     0
 90
        2
176
     1
  1
strokes_ogs.tif
176
     1
290
     0
176
     1
 40
1.0
176
     1
 40
1.0
176
     1
1001
ACAD
1000
AcDbSavedByObjectVersion
1070
     0
  0
VISUALSTYLE
  5
3E
102
{ACAD_REACTORS
330
29
102
}
330
29
100
AcDbVisualStyle
  2
Shaded
 70
    27
177
     3
291
     0
 70
    58
 90
        2
176
     1
 90
        2
176
     1
 90
        1
176
     1
 90
        2
176
     1
 40
0.6
176
     1
 40
30.0
176
     1
 62
     7
420
 16777215
176
     1
 90
        0
176
     1
 90
        4
176
     1
 62
     7
176
     1
 62
   257
176
     1
 90
        1
176
     1
 90
        1
176
     1
 40
1.0
176
     1
 90
        8
176
     1
 62
   257
176
     1
 40
1.0
176
     1
 90
        1
176
     1
 90
        6
176
     1
 90
        2
176
     1
 62
     8
420
  7895160
176
     1
 90
        3
176
     1
 90
        0
176
     1
 90
        0
176
     1
290
     0
176
     1
 90
        5
176
     1
 40
0.0
176
     1
 90
        0
176
     1
290
     0
176
     1
290
     1
176
     1
290
     1
176
     1
290
     0
176
     1
290
     0
176
     1
290
     0
176
     1
290
     0
176
     1
290
     0
176
     1
290
     0
176
     1
 90
       50
176
     1
 40
0.0
176
     1
 40
1.0
176
     1
 90
        0
176
     1
 62
    18
420
        0
176
     1
 90
       50
176
     1
 90
        3
176
     1
 62
     5
420
      255
176
     1
290
     0
176
     1
 90
       50
176
     1
 90
       50
176
     1
 90
       50
176
     1
290
     0
176
     1
 90
       50
176
     1
 62
   256
176
     0
 40
1.0
176
     0
 90
        2
176
     1
  1
strokes_ogs.tif
176
     1
290
     0
176
     1
 40
1.0
176
     1
 40
1.0
176
     1
1001
ACAD
1000
AcDbSavedByObjectVersion
1070
     0
  0
VISUALSTYLE
  5
3D
102
{ACAD_REACTORS
330
29
102
}
330
29
100
AcDbVisualStyle
  2
Shaded with edges
 70
    26
177
     3
291
     0
 70
    58
 90
        2
176
     1
 90
        2
176
     1
 90
        1
176
     1
 90
        2
176
     1
 40
0.6
176
     1
 40
30.0
176
     1
 62
     7
420
 16777215
176
     1
 90
        1
176
     1
 90
        2
176
     1
 62
     7
176
     1
 62
   257
176
     1
 90
        2
176
     1
 90
        1
176
     1
 40
1.0
176
     1
 90
        8
176
     1
 62
   257
176
     1
 40
1.0
176
     1
 90
        1
176
     1
 90
        6
176
     1
 90
        2
176
     1
 62
     7
176
     1
 90
        3
176
     1
 90
        0
176
     1
 90
        0
176
     1
290
     0
176
     1
 90
        5
176
     1
 40
0.0
176
     1
 90
        0
176
     1
290
     0
176
     1
290
     1
176
     1
290
     1
176
     1
290
     0
176
     1
290
     0
176
     1
290
     0
176
     1
290
     0
176
     1
290
     0
176
     1
290
     0
176
     1
 90
       50
176
     1
 40
0.0
176
     1
 40
1.0
176
     1
 90
        0
176
     1
 62
    18
420
        0
176
     1
 90
       50
176
     1
 90
        3
176
     1
 62
     5
420
      255
176
     1
290
     0
176
     1
 90
       50
176
     1
 90
       50
176
     1
 90
       50
176
     1
290
     0
176
     1
 90
       50
176
     1
 62
   256
176
     0
 40
1.0
176
     0
 90
        2
176
     1
  1
strokes_ogs.tif
176
     1
290
     0
176
     1
 40
1.0
176
     1
 40
1.0
176
     1
1001
ACAD
1000
AcDbSavedByObjectVersion
1070
     0
  0
VISUALSTYLE
  5
3A
102
{ACAD_REACTORS
330
29
102
}
330
29
100
AcDbVisualStyle
  2
Shades of Gray
 70
    23
177
     3
291
     0
 70
    58
 90
        2
176
     1
 90
        2
176
     1
 90
        3
176
     1
 90
        0
176
     1
 40
0.6
176
     1
 40
30.0
176
     1
 62
     7
420
 16777215
176
     1
 90
        2
176
     1
 90
        2
176
     1
 62
     7
176
     1
 62
     7
176
     1
 90
        1
176
     1
 90
        1
176
     1
 40
40.0
176
     1
 90
        8
176
     1
 62
     7
176
     1
 40
1.0
176
     1
 90
        1
176
     1
 90
        6
176
     1
 90
        2
176
     1
 62
     7
176
     1
 90
        3
176
     1
 90
        0
176
     1
 90
        0
176
     1
290
     0
176
     1
 90
        1
176
     1
 40
0.0
176
     1
 90
        0
176
     1
290
     0
176
     1
290
     1
176
     1
290
     1
176
     1
290
     0
176
     1
290
     0
176
     1
290
     0
176
     1
290
     0
176
     1
290
     0
176
     1
290
     0
176
     1
 90
       50
176
     1
 40
0.0
176
     1
 40
1.0
176
     1
 90
        0
176
     1
 62
    18
420
        0
176
     1
 90
       50
176
     1
 90
        3
176
     1
 62
     5
420
      255
176
     1
290
     0
176
     1
 90
       50
176
     1
 90
       50
176
     1
 90
       50
176
     1
290
     0
176
     1
 90
       50
176
     1
 62
   256
176
     0
 40
1.0
176
     0
 90
        2
176
     1
  1
strokes_ogs.tif
176
     1
290
     0
176
     1
 40
1.0
176
     1
 40
1.0
176
     1
1001
ACAD
1000
AcDbSavedByObjectVersion
1070
     0
  0
VISUALSTYLE
  5
3B
102
{ACAD_REACTORS
330
29
102
}
330
29
100
AcDbVisualStyle
  2
Sketchy
 70
    24
177
     3
291
     0
 70
    58
 90
        1
176
     1
 90
        2
176
     1
 90
        2
176
     1
 90
        0
176
     1
 40
0.6
176
     1
 40
30.0
176
     1
 62
     7
420
 16777215
176
     1
 90
        2
176
     1
 90
        2
176
     1
 62
     7
176
     1
 62
     7
176
     1
 90
        1
176
     1
 90
        1
176
     1
 40
40.0
176
     1
 90
       11
176
     1
 62
     7
176
     1
 40
1.0
176
     1
 90
        1
176
     1
 90
        6
176
     1
 90
        2
176
     1
 62
     7
176
     1
 90
        6
176
     1
 90
        0
176
     1
 90
        0
176
     1
290
     0
176
     1
 90
        1
176
     1
 40
0.0
176
     1
 90
        0
176
     1
290
     0
176
     1
290
     1
176
     1
290
     1
176
     1
290
     0
176
     1
290
     0
176
     1
290
     0
176
     1
290
     0
176
     1
290
     0
176
     1
290
     0
176
     1
 90
       50
176
     1
 40
0.0
176
     1
 40
1.0
176
     1
 90
        0
176
     1
 62
    18
420
        0
176
     1
 90
       50
176
     1
 90
        3
176
     1
 62
     5
420
      255
176
     1
290
     0
176
     1
 90
       50
176
     1
 90
       50
176
     1
 90
       50
176
     1
290
     0
176
     1
 90
       50
176
     1
 62
   256
176
     0
 40
1.0
176
     0
 90
        2
176
     1
  1
strokes_ogs.tif
176
     1
290
     0
176
     1
 40
1.0
176
     1
 40
1.0
176
     1
1001
ACAD
1000
AcDbSavedByObjectVersion
1070
     0
  0
VISUALSTYLE
  5
36
102
{ACAD_REACTORS
330
29
102
}
330
29
100
AcDbVisualStyle
  2
Thicken
 70
    13
177
     3
291
     1
 70
    58
 90
        2
176
     1
 90
        2
176
     1
 90
        0
176
     1
 90
        0
176
     1
 40
0.6
176
     1
 40
30.0
176
     1
 62
     7
420
 16777215
176
     1
 90
        1
176
     1
 90
        4
176
     1
 62
     7
176
     1
 62
   257
176
     1
 90
        1
176
     1
 90
        1
176
     1
 40
1.0
176
     1
 90
       12
176
     1
 62
     7
176
     1
 40
1.0
176
     1
 90
        1
176
     1
 90
        6
176
     1
 90
        2
176
     1
 62
     7
176
     1
 90
        5
176
     1
 90
        0
176
     1
 90
        0
176
     1
290
     0
176
     1
 90
        1
176
     1
 40
0.0
176
     1
 90
        0
176
     1
290
     0
176
     1
290
     1
176
     1
290
     1
176
     1
290
     0
176
     1
290
     0
176
     1
290
     0
176
     1
290
     0
176
     1
290
     0
176
     1
290
     0
176
     1
 90
       50
176
     1
 40
0.0
176
     1
 40
1.0
176
     1
 90
        0
176
     1
 62
    18
420
        0
176
     1
 90
       50
176
     1
 90
        3
176
     1
 62
     5
420
      255
176
     1
290
     0
176
     1
 90
       50
176
     1
 90
       50
176
     1
 90
       50
176
     1
290
     0
176
     1
 90
       50
176
     1
 62
   256
176
     0
 40
1.0
176
     0
 90
        2
176
     1
  1
strokes_ogs.tif
176
     1
290
     0
176
     1
 40
1.0
176
     1
 40
1.0
176
     1
1001
ACAD
1000
AcDbSavedByObjectVersion
1070
     0
  0
VISUALSTYLE
  5
30
102
{ACAD_REACTORS
330
29
102
}
330
29
100
AcDbVisualStyle
  2
Wireframe
 70
     5
177
     3
291
     0
 70
    58
 90
        0
176
     1
 90
        2
176
     1
 90
        0
176
     1
 90
        0
176
     1
 40
0.6
176
     1
 40
30.0
176
     1
 62
     7
420
 16777215
176
     1
 90
        1
176
     1
 90
        4
176
     1
 62
     7
176
     1
 62
   257
176
     1
 90
        1
176
     1
 90
        1
176
     1
 40
1.0
176
     1
 90
        0
176
     1
 62
   257
176
     1
 40
1.0
176
     1
 90
        1
176
     1
 90
        6
176
     1
 90
        2
176
     1
 62
     7
176
     1
 90
        3
176
     1
 90
        0
176
     1
 90
        0
176
     1
290
     0
176
     1
 90
        1
176
     1
 40
0.0
176
     1
 90
        0
176
     1
290
     0
176
     1
290
     1
176
     1
290
     1
176
     1
290
     0
176
     1
290
     0
176
     1
290
     0
176
     1
290
     0
176
     1
290
     0
176
     1
290
     0
176
     1
 90
       50
176
     1
 40
0.0
176
     1
 40
1.0
176
     1
 90
        0
176
     1
 62
    18
420
        0
176
     1
 90
       50
176
     1
 90
        3
176
     1
 62
     5
420
      255
176
     1
290
     0
176
     1
 90
       50
176
     1
 90
       50
176
     1
 90
       50
176
     1
290
     0
176
     1
 90
       50
176
     1
 62
   256
176
     0
 40
1.0
176
     0
 90
        2
176
     1
  1
strokes_ogs.tif
176
     1
290
     0
176
     1
 40
1.0
176
     1
 40
1.0
176
     1
1001
ACAD
1000
AcDbSavedByObjectVersion
1070
     0
  0
VISUALSTYLE
  5
3C
102
{ACAD_REACTORS
330
29
102
}
330
29
100
AcDbVisualStyle
  2
X-Ray
 70
    25
177
     3
291
     0
 70
    58
 90
        2
176
     1
 90
        2
176
     1
 90
        1
176
     1
 90
        1
176
     1
 40
0.5
176
     1
 40
30.0
176
     1
 62
     7
420
 16777215
176
     1
 90
        1
176
     1
 90
        0
176
     1
 62
     7
176
     1
 62
   257
176
     1
 90
        1
176
     1
 90
        1
176
     1
 40
1.0
176
     1
 90
        8
176
     1
 62
     7
176
     1
 40
1.0
176
     1
 90
        1
176
     1
 90
        6
176
     1
 90
        2
176
     1
 62
     7
176
     1
 90
        3
176
     1
 90
        0
176
     1
 90
        0
176
     1
290
     0
176
     1
 90
       13
176
     1
 40
0.0
176
     1
 90
        0
176
     1
290
     0
176
     1
290
     1
176
     1
290
     1
176
     1
290
     0
176
     1
290
     0
176
     1
290
     0
176
     1
290
     0
176
     1
290
     0
176
     1
290
     0
176
     1
 90
       50
176
     1
 40
0.0
176
     1
 40
1.0
176
     1
 90
        0
176
     1
 62
    18
420
        0
176
     1
 90
       50
176
     1
 90
        3
176
     1
 62
     5
420
      255
176
     1
290
     0
176
     1
 90
       50
176
     1
 90
       50
176
     1
 90
       50
176
     1
290
     0
176
     1
 90
       50
176
     1
 62
   256
176
     0
 40
1.0
176
     0
 90
        2
176
     1
  1
strokes_ogs.tif
176
     1
290
     0
176
     1
 40
1.0
176
     1
 40
1.0
176
     1
1001
ACAD
1000
AcDbSavedByObjectVersion
1070
     0
  0
DICTIONARYVAR
  5
41A
102
{ACAD_REACTORS
330
415
102
}
330
415
100
DictionaryVariables
280
     0
  1
0
  0
DICTIONARYVAR
  5
41B
102
{ACAD_REACTORS
330
415
102
}
330
415
100
DictionaryVariables
280
     0
  1
1:1
  0
DICTIONARYVAR
  5
417
102
{ACAD_REACTORS
330
415
102
}
330
415
100
DictionaryVariables
280
     0
  1
STANDARD
  0
DICTIONARYVAR
  5
416
102
{ACAD_REACTORS
330
415
102
}
330
415
100
DictionaryVariables
280
     0
  1
STANDARD
  0
DICTIONARYVAR
  5
418
102
{ACAD_REACTORS
330
415
102
}
330
415
100
DictionaryVariables
280
     0
  1
Imperial24
  0
DICTIONARYVAR
  5
419
102
{ACAD_REACTORS
330
415
102
}
330
415
100
DictionaryVariables
280
     0
  1
Imperial24
  0
DICTIONARY
  5
421
330
6B
100
AcDbDictionary
280
     1
281
     1
  3
ACAD_XREC_ROUNDTRIP
360
422
  0
DICTIONARY
  5
1A
330
19
100
AcDbDictionary
280
     1
281
     1
  3
BUMPTILE
360
1C
  3
DIFFUSETILE
360
1B
  3
OPACITYTILE
360
1F
  3
REFLECTIONTILE
360
1E
  3
REFRACTIONTILE
360
20
  3
SPECULARTILE
360
1D
  0
DICTIONARY
  5
12
330
11
100
AcDbDictionary
280
     1
281
     1
  3
BUMPTILE
360
14
  3
DIFFUSETILE
360
13
  3
OPACITYTILE
360
17
  3
REFLECTIONTILE
360
16
  3
REFRACTIONTILE
360
18
  3
SPECULARTILE
360
15
  0
DICTIONARY
  5
22
330
21
100
AcDbDictionary
280
     1
281
     1
  3
BUMPTILE
360
24
  3
DIFFUSETILE
360
23
  3
OPACITYTILE
360
27
  3
REFLECTIONTILE
360
26
  3
REFRACTIONTILE
360
28
  3
SPECULARTILE
360
25
  0
DICTIONARY
  5
41F
330
69
100
AcDbDictionary
280
     1
281
     1
  3
ACAD_XREC_ROUNDTRIP
360
420
  0
DICTIONARY
  5
41C
330
65
100
AcDbDictionary
280
     1
281
     1
  3
ACAD_ROUNDTRIP_2008_TABLESTYLE_CELLSTYLEMAP
360
41D
  0
XRECORD
  5
422
102
{ACAD_REACTORS
330
421
102
}
330
421
100
AcDbXrecord
280
     1
102
DISPLAYNAME
  1
Imperial24
102
FLAGS
 90
        0
  0
XRECORD
  5
1C
102
{ACAD_REACTORS
330
1A
102
}
330
1A
100
AcDbXrecord
280
     1
270
     1
271
     1
  0
XRECORD
  5
1B
102
{ACAD_REACTORS
330
1A
102
}
330
1A
100
AcDbXrecord
280
     1
270
     1
271
     1
  0
XRECORD
  5
1F
102
{ACAD_REACTORS
330
1A
102
}
330
1A
100
AcDbXrecord
280
     1
270
     1
271
     1
  0
XRECORD
  5
1E
102
{ACAD_REACTORS
330
1A
102
}
330
1A
100
AcDbXrecord
280
     1
270
     1
271
     1
  0
XRECORD
  5
20
102
{ACAD_REACTORS
330
1A
102
}
330
1A
100
AcDbXrecord
280
     1
270
     1
271
     1
  0
XRECORD
  5
1D
102
{ACAD_REACTORS
330
1A
102
}
330
1A
100
AcDbXrecord
280
     1
270
     1
271
     1
  0
XRECORD
  5
14
102
{ACAD_REACTORS
330
12
102
}
330
12
100
AcDbXrecord
280
     1
270
     1
271
     1
  0
XRECORD
  5
13
102
{ACAD_REACTORS
330
12
102
}
330
12
100
AcDbXrecord
280
     1
270
     1
271
     1
  0
XRECORD
  5
17
102
{ACAD_REACTORS
330
12
102
}
330
12
100
AcDbXrecord
280
     1
270
     1
271
     1
  0
XRECORD
  5
16
102
{ACAD_REACTORS
330
12
102
}
330
12
100
AcDbXrecord
280
     1
270
     1
271
     1
  0
XRECORD
  5
18
102
{ACAD_REACTORS
330
12
102
}
330
12
100
AcDbXrecord
280
     1
270
     1
271
     1
  0
XRECORD
  5
15
102
{ACAD_REACTORS
330
12
102
}
330
12
100
AcDbXrecord
280
     1
270
     1
271
     1
  0
XRECORD
  5
24
102
{ACAD_REACTORS
330
22
102
}
330
22
100
AcDbXrecord
280
     1
270
     1
271
     1
  0
XRECORD
  5
23
102
{ACAD_REACTORS
330
22
102
}
330
22
100
AcDbXrecord
280
     1
270
     1
271
     1
  0
XRECORD
  5
27
102
{ACAD_REACTORS
330
22
102
}
330
22
100
AcDbXrecord
280
     1
270
     1
271
     1
  0
XRECORD
  5
26
102
{ACAD_REACTORS
330
22
102
}
330
22
100
AcDbXrecord
280
     1
270
     1
271
     1
  0
XRECORD
  5
28
102
{ACAD_REACTORS
330
22
102
}
330
22
100
AcDbXrecord
280
     1
270
     1
271
     1
  0
XRECORD
  5
25
102
{ACAD_REACTORS
330
22
102
}
330
22
100
AcDbXrecord
280
     1
270
     1
271
     1
  0
XRECORD
  5
420
102
{ACAD_REACTORS
330
41F
102
}
330
41F
100
AcDbXrecord
280
     1
102
DISPLAYNAME
  1
Imperial24
102
FLAGS
 90
        0
  0
CELLSTYLEMAP
  5
41D
102
{ACAD_REACTORS
330
41C
102
}
330
41C
100
AcDbCellStyleMap
 90
        3
300
CELLSTYLE
  1
TABLEFORMAT_BEGIN
 90
        5
170
     1
 91
        0
 92
    32768
 62
   257
 93
        1
300
CONTENTFORMAT
  1
CONTENTFORMAT_BEGIN
 90
        0
 91
        0
 92
      512
 93
        0
300

 40
0.0
140
1.0
 94
        5
 62
     0
340
55
144
0.25
309
CONTENTFORMAT_END
171
     0
 94
        0
309
TABLEFORMAT_END
  1
CELLSTYLE_BEGIN
 90
        1
 91
        1
300
_TITLE
309
CELLSTYLE_END
300
CELLSTYLE
  1
TABLEFORMAT_BEGIN
 90
        5
170
     1
 91
        0
 92
        0
 62
   257
 93
        1
300
CONTENTFORMAT
  1
CONTENTFORMAT_BEGIN
 90
        0
 91
        0
 92
      512
 93
        0
300

 40
0.0
140
1.0
 94
        5
 62
     0
340
55
144
0.18
309
CONTENTFORMAT_END
171
     0
 94
        0
309
TABLEFORMAT_END
  1
CELLSTYLE_BEGIN
 90
        2
 91
        1
300
_HEADER
309
CELLSTYLE_END
300
CELLSTYLE
  1
TABLEFORMAT_BEGIN
 90
        5
170
     1
 91
        0
 92
        0
 62
   257
 93
        1
300
CONTENTFORMAT
  1
CONTENTFORMAT_BEGIN
 90
        0
 91
        0
 92
      512
 93
        0
300

 40
0.0
140
1.0
 94
        2
 62
     0
340
55
144
0.18
309
CONTENTFORMAT_END
171
     0
 94
        0
309
TABLEFORMAT_END
  1
CELLSTYLE_BEGIN
 90
        3
 91
        2
300
_DATA
309
CELLSTYLE_END
  0
ENDSEC
  0
EOF
