  0
SECTION
  2
HEADER
  9
$ACADVER
  1
AC1027
  9
$ACADMAINTVER
 70
   125
  9
$DWGCODEPAGE
  3
ANSI_1252
  9
$LASTSAVEDBY
  1
Administrator
  9
$REQUIREDVERSIONS
160
                 0
  9
$INSBASE
 10
0.0
 20
0.0
 30
0.0
  9
$EXTMIN
 10
0.0
 20
0.0
 30
-2.476404
  9
$EXTMAX
 10
17.0
 20
11.0
 30
2.924577
  9
$LIMMIN
 10
0.0
 20
0.0
  9
$LIMMAX
 10
17.0
 20
11.0
  9
$ORTHOMODE
 70
     0
  9
$REGENMODE
 70
     1
  9
$FILLMODE
 70
     1
  9
$QTEXTMODE
 70
     0
  9
$MIRRTEXT
 70
     0
  9
$LTSCALE
 40
0.75
  9
$ATTMODE
 70
     1
  9
$TEXTSIZE
 40
0.12
  9
$TRACEWID
 40
0.05
  9
$TEXTSTYLE
  7
Standard
  9
$CLAYER
  8
Titleblock
  9
$CELTYPE
  6
ByLayer
  9
$CECOLOR
 62
   256
  9
$CELTSCALE
 40
1.0
  9
$DISPSILH
 70
     0
  9
$DIMSCALE
 40
1.0
  9
$DIMASZ
 40
0.12
  9
$DIMEXO
 40
0.05
  9
$DIMDLI
 40
0.339411
  9
$DIMRND
 40
0.0
  9
$DIMDLE
 40
0.0
  9
$DIMEXE
 40
0.1
  9
$DIMTP
 40
0.01
  9
$DIMTM
 40
0.01
  9
$DIMTXT
 40
0.12
  9
$DIMCEN
 40
0.0
  9
$DIMTSZ
 40
0.0
  9
$DIMTOL
 70
     0
  9
$DIMLIM
 70
     0
  9
$DIMTIH
 70
     1
  9
$DIMTOH
 70
     1
  9
$DIMSE1
 70
     0
  9
$DIMSE2
 70
     0
  9
$DIMTAD
 70
     0
  9
$DIMZIN
 70
    12
  9
$DIMBLK
  1

  9
$DIMASO
 70
     1
  9
$DIMSHO
 70
     1
  9
$DIMPOST
  1
in
  9
$DIMAPOST
  1
mm
  9
$DIMALT
 70
     0
  9
$DIMALTD
 70
     2
  9
$DIMALTF
 40
25.4
  9
$DIMLFAC
 40
1.0
  9
$DIMTOFL
 70
     0
  9
$DIMTVP
 40
0.0
  9
$DIMTIX
 70
     0
  9
$DIMSOXD
 70
     0
  9
$DIMSAH
 70
     0
  9
$DIMBLK1
  1

  9
$DIMBLK2
  1

  9
$DIMSTYLE
  2
Standard
  9
$DIMCLRD
 70
   256
  9
$DIMCLRE
 70
   256
  9
$DIMCLRT
 70
   256
  9
$DIMTFAC
 40
1.0
  9
$DIMGAP
 40
0.06
  9
$DIMJUST
 70
     0
  9
$DIMSD1
 70
     0
  9
$DIMSD2
 70
     0
  9
$DIMTOLJ
 70
     1
  9
$DIMTZIN
 70
    12
  9
$DIMALTZ
 70
    12
  9
$DIMALTTZ
 70
    12
  9
$DIMUPT
 70
     0
  9
$DIMDEC
 70
     2
  9
$DIMTDEC
 70
     2
  9
$DIMALTU
 70
     2
  9
$DIMALTTD
 70
     2
  9
$DIMTXSTY
  7
Standard
  9
$DIMAUNIT
 70
     0
  9
$DIMADEC
 70
     2
  9
$DIMALTRND
 40
0.0
  9
$DIMAZIN
 70
     3
  9
$DIMDSEP
 70
    46
  9
$DIMATFIT
 70
     3
  9
$DIMFRAC
 70
     0
  9
$DIMLDRBLK
  1

  9
$DIMLUNIT
 70
     2
  9
$DIMLWD
 70
    -2
  9
$DIMLWE
 70
    -2
  9
$DIMTMOVE
 70
     0
  9
$DIMFXL
 40
1.0
  9
$DIMFXLON
 70
     0
  9
$DIMJOGANG
 40
0.785398
  9
$DIMTFILL
 70
     0
  9
$DIMTFILLCLR
 70
     0
  9
$DIMARCSYM
 70
     1
  9
$DIMLTYPE
  6

  9
$DIMLTEX1
  6

  9
$DIMLTEX2
  6

  9
$DIMTXTDIRECTION
 70
     0
  9
$LUNITS
 70
     2
  9
$LUPREC
 70
     4
  9
$SKETCHINC
 40
0.1
  9
$FILLETRAD
 40
0.0
  9
$AUNITS
 70
     0
  9
$AUPREC
 70
     0
  9
$MENU
  1
.
  9
$ELEVATION
 40
0.0
  9
$PELEVATION
 40
0.0
  9
$THICKNESS
 40
0.0
  9
$LIMCHECK
 70
     0
  9
$CHAMFERA
 40
0.0
  9
$CHAMFERB
 40
0.0
  9
$CHAMFERC
 40
0.0
  9
$CHAMFERD
 40
0.0
  9
$SKPOLY
 70
     0
  9
$TDCREATE
 40
2458891.603379630
  9
$TDUCREATE
 40
2458891.936712963
  9
$TDUPDATE
 40
2458891.603379630
  9
$TDUUPDATE
 40
2458891.936712963
  9
$TDINDWG
 40
0.0000000000
  9
$TDUSRTIMER
 40
0.0000000000
  9
$USRTIMER
 70
     1
  9
$ANGBASE
 50
0.0
  9
$ANGDIR
 70
     0
  9
$PDMODE
 70
     0
  9
$PDSIZE
 40
0.0
  9
$PLINEWID
 40
0.0
  9
$SPLFRAME
 70
     0
  9
$SPLINETYPE
 70
     6
  9
$SPLINESEGS
 70
     8
  9
$HANDSEED
  5
56F
  9
$SURFTAB1
 70
     6
  9
$SURFTAB2
 70
     6
  9
$SURFTYPE
 70
     6
  9
$SURFU
 70
     6
  9
$SURFV
 70
     6
  9
$UCSBASE
  2

  9
$UCSNAME
  2

  9
$UCSORG
 10
0.0
 20
0.0
 30
0.0
  9
$UCSXDIR
 10
1.0
 20
0.0
 30
0.0
  9
$UCSYDIR
 10
0.0
 20
1.0
 30
0.0
  9
$UCSORTHOREF
  2

  9
$UCSORTHOVIEW
 70
     0
  9
$UCSORGTOP
 10
0.0
 20
0.0
 30
0.0
  9
$UCSORGBOTTOM
 10
0.0
 20
0.0
 30
0.0
  9
$UCSORGLEFT
 10
0.0
 20
0.0
 30
0.0
  9
$UCSORGRIGHT
 10
0.0
 20
0.0
 30
0.0
  9
$UCSORGFRONT
 10
0.0
 20
0.0
 30
0.0
  9
$UCSORGBACK
 10
0.0
 20
0.0
 30
0.0
  9
$PUCSBASE
  2

  9
$PUCSNAME
  2

  9
$PUCSORG
 10
0.0
 20
0.0
 30
0.0
  9
$PUCSXDIR
 10
1.0
 20
0.0
 30
0.0
  9
$PUCSYDIR
 10
0.0
 20
1.0
 30
0.0
  9
$PUCSORTHOREF
  2

  9
$PUCSORTHOVIEW
 70
     0
  9
$PUCSORGTOP
 10
0.0
 20
0.0
 30
0.0
  9
$PUCSORGBOTTOM
 10
0.0
 20
0.0
 30
0.0
  9
$PUCSORGLEFT
 10
0.0
 20
0.0
 30
0.0
  9
$PUCSORGRIGHT
 10
0.0
 20
0.0
 30
0.0
  9
$PUCSORGFRONT
 10
0.0
 20
0.0
 30
0.0
  9
$PUCSORGBACK
 10
0.0
 20
0.0
 30
0.0
  9
$USERI1
 70
     0
  9
$USERI2
 70
     0
  9
$USERI3
 70
     0
  9
$USERI4
 70
     0
  9
$USERI5
 70
     0
  9
$USERR1
 40
0.0
  9
$USERR2
 40
0.0
  9
$USERR3
 40
0.0
  9
$USERR4
 40
0.0
  9
$USERR5
 40
0.0
  9
$WORLDVIEW
 70
     1
  9
$SHADEDGE
 70
     3
  9
$SHADEDIF
 70
    70
  9
$TILEMODE
 70
     1
  9
$MAXACTVP
 70
    64
  9
$PINSBASE
 10
0.0
 20
0.0
 30
0.0
  9
$PLIMCHECK
 70
     0
  9
$PEXTMIN
 10
1.000000E+20
 20
1.000000E+20
 30
1.000000E+20
  9
$PEXTMAX
 10
-1.000000E+20
 20
-1.000000E+20
 30
-1.000000E+20
  9
$PLIMMIN
 10
0.0
 20
0.0
  9
$PLIMMAX
 10
12.0
 20
9.0
  9
$UNITMODE
 70
     0
  9
$VISRETAIN
 70
     1
  9
$PLINEGEN
 70
     0
  9
$PSLTSCALE
 70
     1
  9
$TREEDEPTH
 70
  3020
  9
$CMLSTYLE
  2
Standard
  9
$CMLJUST
 70
     0
  9
$CMLSCALE
 40
1.0
  9
$PROXYGRAPHICS
 70
     1
  9
$MEASUREMENT
 70
     0
  9
$CELWEIGHT
370
    -1
  9
$ENDCAPS
280
     0
  9
$JOINSTYLE
280
     0
  9
$LWDISPLAY
290
     0
  9
$INSUNITS
 70
     1
  9
$HYPERLINKBASE
  1

  9
$STYLESHEET
  1

  9
$XEDIT
290
     1
  9
$CEPSNTYPE
380
     0
  9
$PSTYLEMODE
290
     1
  9
$FINGERPRINTGUID
  2
{72049616-8A7F-9B43-82CC-826C9D5CEB7E}
  9
$VERSIONGUID
  2
{87D03CBD-F870-7E40-8E56-0E1DCD52E719}
  9
$EXTNAMES
290
     1
  9
$PSVPSCALE
 40
0.0
  9
$OLESTARTUP
290
     0
  9
$SORTENTS
280
   127
  9
$INDEXCTL
280
     0
  9
$HIDETEXT
280
     1
  9
$XCLIPFRAME
280
     2
  9
$HALOGAP
280
     0
  9
$OBSCOLOR
 70
   257
  9
$OBSLTYPE
280
     0
  9
$INTERSECTIONDISPLAY
280
     0
  9
$INTERSECTIONCOLOR
 70
   257
  9
$DIMASSOC
280
     2
  9
$PROJECTNAME
  1

  9
$CAMERADISPLAY
290
     0
  9
$LENSLENGTH
 40
50.0
  9
$CAMERAHEIGHT
 40
0.0
  9
$STEPSPERSEC
 40
2.0
  9
$STEPSIZE
 40
6.0
  9
$3DDWFPREC
 40
2.0
  9
$PSOLWIDTH
 40
0.25
  9
$PSOLHEIGHT
 40
4.0
  9
$LOFTANG1
 40
1.570796
  9
$LOFTANG2
 40
1.570796
  9
$LOFTMAG1
 40
0.0
  9
$LOFTMAG2
 40
0.0
  9
$LOFTPARAM
 70
     7
  9
$LOFTNORMALS
280
     1
  9
$LATITUDE
 40
37.795
  9
$LONGITUDE
 40
-122.394
  9
$NORTHDIRECTION
 40
0.0
  9
$TIMEZONE
 70
 -8000
  9
$LIGHTGLYPHDISPLAY
280
     1
  9
$TILEMODELIGHTSYNCH
280
     1
  9
$CMATERIAL
347
11
  9
$SOLIDHIST
280
     0
  9
$SHOWHIST
280
     1
  9
$DWFFRAME
280
     2
  9
$DGNFRAME
280
     0
  9
$REALWORLDSCALE
290
     1
  9
$INTERFERECOLOR
 62
     1
  9
$INTERFEREOBJVS
345
33
  9
$INTERFEREVPVS
346
30
  9
$CSHADOW
280
     0
  9
$SHADOWPLANELOCATION
 40
0.0
  0
ENDSEC
  0
SECTION
  2
CLASSES
  0
CLASS
  1
ACDBDICTIONARYWDFLT
  2
AcDbDictionaryWithDefault
  3
ObjectDBX Classes
 90
        0
 91
        1
280
     0
281
     0
  0
CLASS
  1
MATERIAL
  2
AcDbMaterial
  3
ObjectDBX Classes
 90
     1153
 91
        3
280
     0
281
     0
  0
CLASS
  1
VISUALSTYLE
  2
AcDbVisualStyle
  3
ObjectDBX Classes
 90
     4095
 91
       24
280
     0
281
     0
  0
CLASS
  1
SCALE
  2
AcDbScale
  3
ObjectDBX Classes
 90
     1153
 91
       33
280
     0
281
     0
  0
CLASS
  1
TABLESTYLE
  2
AcDbTableStyle
  3
ObjectDBX Classes
 90
     4095
 91
        1
280
     0
281
     0
  0
CLASS
  1
MLEADERSTYLE
  2
AcDbMLeaderStyle
  3
ACDB_MLEADERSTYLE_CLASS
 90
     4095
 91
        1
280
     0
281
     0
  0
CLASS
  1
ACDBSECTIONVIEWSTYLE
  2
AcDbSectionViewStyle
  3
ObjectDBX Classes
 90
     1025
 91
        1
280
     0
281
     0
  0
CLASS
  1
ACDBDETAILVIEWSTYLE
  2
AcDbDetailViewStyle
  3
ObjectDBX Classes
 90
     1025
 91
        1
280
     0
281
     0
  0
CLASS
  1
ACMESCOPE
  2
AcMeScope
  3
AcMeServices
 90
     1024
 91
        1
280
     0
281
     0
  0
CLASS
  1
ACMECOMMANDHISTORY
  2
AcMeCommandHistory
  3
AcMeServices
 90
     1024
 91
        1
280
     0
281
     0
  0
CLASS
  1
ACIMSYSVARMAN
  2
AcImSysVarManager
  3
AcMeServices
 90
     1024
 91
        1
280
     0
281
     0
  0
CLASS
  1
ACIMINTSYSVAR
  2
AcImIntSysVar
  3
AcMeServices
 90
     1024
 91
        1
280
     0
281
     0
  0
CLASS
  1
ACMESTATEMGR
  2
AcMeStateMgr
  3
AcMeServices
 90
     1024
 91
        1
280
     0
281
     0
  0
CLASS
  1
ACGREFMASTER
  2
AcGrefMaster
  3
AcAttribServices
 90
     1024
 91
        1
280
     0
281
     0
  0
CLASS
  1
SORTENTSTABLE
  2
AcDbSortentsTable
  3
ObjectDBX Classes
 90
        0
 91
        6
280
     0
281
     0
  0
CLASS
  1
IMAGE
  2
AcDbRasterImage
  3
ISM
 90
     2175
 91
        1
280
     0
281
     1
  0
CLASS
  1
IMAGEDEF
  2
AcDbRasterImageDef
  3
ISM
 90
        0
 91
        1
280
     0
281
     0
  0
CLASS
  1
IMAGEDEF_REACTOR
  2
AcDbRasterImageDefReactor
  3
ISM
 90
        1
 91
        2
280
     0
281
     0
  0
CLASS
  1
RASTERVARIABLES
  2
AcDbRasterVariables
  3
ISM
 90
        0
 91
        1
280
     0
281
     0
  0
CLASS
  1
DICTIONARYVAR
  2
AcDbDictionaryVar
  3
ObjectDBX Classes
 90
        0
 91
        6
280
     0
281
     0
  0
CLASS
  1
CELLSTYLEMAP
  2
AcDbCellStyleMap
  3
ObjectDBX Classes
 90
     1152
 91
        1
280
     0
281
     0
  0
ENDSEC
  0
SECTION
  2
TABLES
  0
TABLE
  2
VPORT
  5
8
330
0
100
AcDbSymbolTable
 70
     1
1001
ACAD
1000
DbSaveVer
1071
      251
  0
VPORT
  5
57
330
8
100
AcDbSymbolTableRecord
100
AcDbViewportTableRecord
  2
*Active
 70
     0
 10
0.0
 20
0.0
 11
1.0
 21
1.0
 12
8.5
 22
5.5
 13
0.0
 23
0.0
 14
0.5
 24
0.5
 15
0.0
 25
0.0
 16
0.0
 26
0.0
 36
1.0
 17
0.0
 27
0.0
 37
0.0
 40
11.0
 41
1.777518
 42
50.0
 43
0.0
 44
0.0
 50
0.0
 51
0.0
 71
     0
 72
 20000
 73
     1
 74
     0
 75
     0
 76
     0
 77
     0
 78
     0
281
     0
 65
     1
110
0.0
120
0.0
130
0.0
111
1.0
121
0.0
131
0.0
112
0.0
122
1.0
132
0.0
 79
     0
146
0.0
348
2F
 60
     3
 61
     5
292
     1
282
     1
141
0.0
142
0.0
 63
   250
421
  3355443
  0
ENDTAB
  0
TABLE
  2
LTYPE
  5
5
330
0
100
AcDbSymbolTable
 70
    10
  0
LTYPE
  5
5B
330
5
100
AcDbSymbolTableRecord
100
AcDbLinetypeTableRecord
  2
ByBlock
 70
     0
  3

 72
    65
 73
     0
 40
0.0
  0
LTYPE
  5
5C
330
5
100
AcDbSymbolTableRecord
100
AcDbLinetypeTableRecord
  2
ByLayer
 70
     0
  3

 72
    65
 73
     0
 40
0.0
  0
LTYPE
  5
5D
330
5
100
AcDbSymbolTableRecord
100
AcDbLinetypeTableRecord
  2
Continuous
 70
     0
  3
Solid line
 72
    65
 73
     0
 40
0.0
  0
LTYPE
  5
81
330
5
100
AcDbSymbolTableRecord
100
AcDbLinetypeTableRecord
  2
HIDDEN
 70
     0
  3
Hidden __ __ __ __ __ __ __ __ __ __ __ __ __ _
 72
    65
 73
     2
 40
0.375
 49
0.25
 74
     0
 49
-0.125
 74
     0
  0
LTYPE
  5
82
330
5
100
AcDbSymbolTableRecord
100
AcDbLinetypeTableRecord
  2
PHANTOM2
 70
     0
  3
Phantom (.5x) ___ _ _ ___ _ _ ___ _ _ ___ _ _
 72
    65
 73
     6
 40
1.25
 49
0.625
 74
     0
 49
-0.125
 74
     0
 49
0.125
 74
     0
 49
-0.125
 74
     0
 49
0.125
 74
     0
 49
-0.125
 74
     0
  0
LTYPE
  5
83
330
5
100
AcDbSymbolTableRecord
100
AcDbLinetypeTableRecord
  2
CENTER
 70
     0
  3
Center ____ _ ____ _ ____ _ ____ _ ____ _ ____
 72
    65
 73
     4
 40
2.0
 49
1.25
 74
     0
 49
-0.25
 74
     0
 49
0.25
 74
     0
 49
-0.25
 74
     0
  0
LTYPE
  5
99
330
5
100
AcDbSymbolTableRecord
100
AcDbLinetypeTableRecord
  2
CENTER2
 70
     0
  3
Center (.5x) ___ _ ___ _ ___ _ ___ _ ___ _ ___
 72
    65
 73
     4
 40
1.125
 49
0.75
 74
     0
 49
-0.125
 74
     0
 49
0.125
 74
     0
 49
-0.125
 74
     0
  0
LTYPE
  5
9A
330
5
100
AcDbSymbolTableRecord
100
AcDbLinetypeTableRecord
  2
HIDDEN2
 70
     0
  3
Hidden (.5x) _ _ _ _ _ _ _ _ _ _ _ _ _ _ _ _ _
 72
    65
 73
     2
 40
0.1875
 49
0.125
 74
     0
 49
-0.0625
 74
     0
  0
LTYPE
  5
9B
330
5
100
AcDbSymbolTableRecord
100
AcDbLinetypeTableRecord
  2
Amconstr
 70
     0
  3
_______________________
 72
    65
 73
     2
 40
9999.0
 49
9999.0
 74
     0
 49
0.0
 74
     0
  0
LTYPE
  5
9C
330
5
100
AcDbSymbolTableRecord
100
AcDbLinetypeTableRecord
  2
Amzigzag2
 70
     0
  3
/\/-/\/-/\/-/\/-/\/-/\/
 72
    65
 73
     2
 40
0.4401
 49
0.0001
 74
     4
 75
   136
340
96
 46
0.0016
 50
0.0
 44
0.0
 45
0.0
 49
-0.44
 74
     0
  0
LTYPE
  5
9D
330
5
100
AcDbSymbolTableRecord
100
AcDbLinetypeTableRecord
  2
ACANSTGB
 70
     0
  3
__ . . __ . .
 72
    65
 73
     6
 40
0.354331
 49
0.15748
 74
     0
 49
-0.03937
 74
     0
 49
0.03937
 74
     0
 49
-0.03937
 74
     0
 49
0.03937
 74
     0
 49
-0.03937
 74
     0
  0
LTYPE
  5
9E
330
5
100
AcDbSymbolTableRecord
100
AcDbLinetypeTableRecord
  2
ACANSTGL
 70
     0
  3
_ _ _ _ _
 72
    65
 73
     2
 40
0.11811
 49
0.07874
 74
     0
 49
-0.03937
 74
     0
  0
ENDTAB
  0
TABLE
  2
LAYER
  5
2
330
0
100
AcDbSymbolTable
 70
    11
  0
LAYER
  5
54
330
2
100
AcDbSymbolTableRecord
100
AcDbLayerTableRecord
  2
0
 70
     0
 62
     7
  6
Continuous
370
    -3
390
F
347
21
348
0
1001
AcAecLayerStandard
1000

1000

  0
LAYER
  5
79
330
2
100
AcDbSymbolTableRecord
100
AcDbLayerTableRecord
  2
Defpoints
 70
     0
 62
     7
  6
Continuous
290
     0
370
    -3
390
F
347
21
348
0
1001
AcAecLayerStandard
1000

1000

  0
LAYER
  5
B8
330
2
100
AcDbSymbolTableRecord
100
AcDbLayerTableRecord
  2
Visible
 70
     0
 62
     7
  6
Continuous
370
    50
390
F
347
21
348
0
  0
LAYER
  5
175
330
2
100
AcDbSymbolTableRecord
100
AcDbLayerTableRecord
  2
Visible Narrow
 70
     0
 62
     7
  6
Continuous
370
    35
390
F
347
21
348
0
  0
LAYER
  5
18F
330
2
100
AcDbSymbolTableRecord
100
AcDbLayerTableRecord
  2
Titleblock
 70
     0
 62
     7
  6
Continuous
370
    -3
390
F
347
21
348
0
1001
AcAecLayerStandard
1000

1000

1001
AcCmTransparency
1071
        0
  0
LAYER
  5
1B4
330
2
100
AcDbSymbolTableRecord
100
AcDbLayerTableRecord
  2
Border
 70
     0
 62
     7
  6
Continuous
370
    -3
390
F
347
21
348
0
1001
AcAecLayerStandard
1000

1000

1001
AcCmTransparency
1071
        0
  0
LAYER
  5
1D5
330
2
100
AcDbSymbolTableRecord
100
AcDbLayerTableRecord
  2
Dimensions
 70
     0
 62
     7
  6
Continuous
370
    25
390
F
347
21
348
0
  0
LAYER
  5
22B
330
2
100
AcDbSymbolTableRecord
100
AcDbLayerTableRecord
  2
Center Lines
 70
     0
 62
     7
  6
CENTER2
370
    25
390
F
347
21
348
0
  0
ENDTAB
  0
TABLE
  2
STYLE
  5
3
330
0
100
AcDbSymbolTable
 70
     4
  0
STYLE
  5
55
330
3
100
AcDbSymbolTableRecord
100
AcDbTextStyleTableRecord
  2
Standard
 70
     0
 40
0.0
 41
1.0
 50
0.0
 71
     0
 42
0.12
  3
arial.ttf
  4

1001
ACAD
1000
Arial
1071
       34
  0
STYLE
  5
5A
330
3
100
AcDbSymbolTableRecord
100
AcDbTextStyleTableRecord
  2
Annotative
 70
     0
 40
0.0
 41
1.0
 50
0.0
 71
     0
 42
0.2
  3
txt
  4

1001
AcadAnnotative
1000
AnnotativeData
1002
{
1070
     1
1070
     1
1002
}
  0
STYLE
  5
96
330
3
100
AcDbSymbolTableRecord
100
AcDbTextStyleTableRecord
  2

 70
     1
 40
0.0
 41
1.0
 50
0.0
 71
     0
 42
0.12
  3
genltshp.shx
  4

  0
STYLE
  5
97
330
3
100
AcDbSymbolTableRecord
100
AcDbTextStyleTableRecord
  2
ACANSGDT
 70
     0
 40
0.0
 41
1.0
 50
0.0
 71
     0
 42
0.12
  3
amgdt.shx
  4

  0
ENDTAB
  0
TABLE
  2
VIEW
  5
6
330
0
100
AcDbSymbolTable
 70
     0
  0
ENDTAB
  0
TABLE
  2
UCS
  5
7
330
0
100
AcDbSymbolTable
 70
     0
  0
ENDTAB
  0
TABLE
  2
APPID
  5
9
330
0
100
AcDbSymbolTable
 70
    23
  0
APPID
  5
56
330
9
100
AcDbSymbolTableRecord
100
AcDbRegAppTableRecord
  2
ACAD
 70
     0
  0
APPID
  5
5E
330
9
100
AcDbSymbolTableRecord
100
AcDbRegAppTableRecord
  2
AcadAnnotative
 70
     0
  0
APPID
  5
78
330
9
100
AcDbSymbolTableRecord
100
AcDbRegAppTableRecord
  2
ACAD_PSEXT
 70
     0
  0
APPID
  5
7A
330
9
100
AcDbSymbolTableRecord
100
AcDbRegAppTableRecord
  2
MCAD_NO_VIS
 70
     0
  0
APPID
  5
7B
330
9
100
AcDbSymbolTableRecord
100
AcDbRegAppTableRecord
  2
ACAD_TEMP_GRAPHIC
 70
     0
  0
APPID
  5
84
330
9
100
AcDbSymbolTableRecord
100
AcDbRegAppTableRecord
  2
ACAD_DSTYLE_DIMJAG
 70
     0
  0
APPID
  5
85
330
9
100
AcDbSymbolTableRecord
100
AcDbRegAppTableRecord
  2
ACAD_DSTYLE_DIMTALN
 70
     0
  0
APPID
  5
86
330
9
100
AcDbSymbolTableRecord
100
AcDbRegAppTableRecord
  2
ACAD_NAV_VCDISPLAY
 70
     0
  0
APPID
  5
87
330
9
100
AcDbSymbolTableRecord
100
AcDbRegAppTableRecord
  2
AcAecLayerStandard
 70
     0
  0
APPID
  5
88
330
9
100
AcDbSymbolTableRecord
100
AcDbRegAppTableRecord
  2
AcCmTransparency
 70
     0
  0
APPID
  5
89
330
9
100
AcDbSymbolTableRecord
100
AcDbRegAppTableRecord
  2
ACAD_DSTYLE_DIMBREAK
 70
     0
  0
APPID
  5
8A
330
9
100
AcDbSymbolTableRecord
100
AcDbRegAppTableRecord
  2
FUSIONTITLEBLOCK
 70
     0
  0
APPID
  5
8B
330
9
100
AcDbSymbolTableRecord
100
AcDbRegAppTableRecord
  2
FUSIONCURRENTTITLEBLOCK
 70
     0
  0
APPID
  5
8C
330
9
100
AcDbSymbolTableRecord
100
AcDbRegAppTableRecord
  2
AcSynergy
 70
     0
  0
APPID
  5
8D
330
9
100
AcDbSymbolTableRecord
100
AcDbRegAppTableRecord
  2
ACAD_VIEW_EDGE_ID
 70
     0
  0
APPID
  5
8E
330
9
100
AcDbSymbolTableRecord
100
AcDbRegAppTableRecord
  2
GENIUS_GENSCREG_15
 70
     0
  0
APPID
  5
8F
330
9
100
AcDbSymbolTableRecord
100
AcDbRegAppTableRecord
  2
GENIUS_GENOBJ-N-SDF_13
 70
     0
  0
APPID
  5
90
330
9
100
AcDbSymbolTableRecord
100
AcDbRegAppTableRecord
  2
GENIUS_GENODEF_13
 70
     0
  0
APPID
  5
91
330
9
100
AcDbSymbolTableRecord
100
AcDbRegAppTableRecord
  2
ACAD_DIMASSOC_CALC_DIMLFAC
 70
     0
  0
APPID
  5
92
330
9
100
AcDbSymbolTableRecord
100
AcDbRegAppTableRecord
  2
ACAD_DIMASSOC_DIMLFAC
 70
     0
  0
APPID
  5
93
330
9
100
AcDbSymbolTableRecord
100
AcDbRegAppTableRecord
  2
ACAD_DIMASSOC_OVERRIDDEN_DIMLFAC
 70
     0
  0
APPID
  5
94
330
9
100
AcDbSymbolTableRecord
100
AcDbRegAppTableRecord
  2
FD_ATT_APPNAME
 70
     0
  0
APPID
  5
95
330
9
100
AcDbSymbolTableRecord
100
AcDbRegAppTableRecord
  2
ACATTRIBSERVICES
 70
     0
  0
ENDTAB
  0
TABLE
  2
DIMSTYLE
  5
A
330
0
100
AcDbSymbolTable
 70
     2
100
AcDbDimStyleTable
 71
     1
340
58
  0
DIMSTYLE
105
58
102
{ACAD_REACTORS
330
1D4
330
1E3
330
1F2
330
200
330
20E
330
21C
330
230
330
23E
330
24C
102
}
330
A
100
AcDbSymbolTableRecord
100
AcDbDimStyleTableRecord
  2
Standard
 70
     0
  3
in
  4
mm
 41
0.12
 42
0.05
 43
0.339411
 44
0.1
 47
0.01
 48
0.01
 78
    12
 79
     3
 90
     1
140
0.12
141
0.0
147
0.06
176
   256
177
   256
178
   256
179
     2
271
     2
272
     2
284
    12
285
    12
286
    12
340
55
  0
DIMSTYLE
105
59
330
A
100
AcDbSymbolTableRecord
100
AcDbDimStyleTableRecord
  2
Annotative
 70
     0
  3
in
 40
0.0
 43
0.339411
 78
    12
 79
     3
140
0.12
179
     2
271
     2
272
     2
284
    12
285
    12
286
    12
340
55
1001
AcadAnnotative
1000
AnnotativeData
1002
{
1070
     1
1070
     1
1002
}
  0
ENDTAB
  0
TABLE
  2
BLOCK_RECORD
  5
1
330
0
100
AcDbSymbolTable
 70
    25
  0
BLOCK_RECORD
  5
70
102
{ACAD_XDICTIONARY
360
B1
102
}
330
1
100
AcDbSymbolTableRecord
100
AcDbBlockTableRecord
  2
*Model_Space
340
73
 70
     0
280
     1
281
     0
  0
BLOCK_RECORD
  5
6C
330
1
100
AcDbSymbolTableRecord
100
AcDbBlockTableRecord
  2
*Paper_Space
340
6F
 70
     0
280
     1
281
     0
  0
BLOCK_RECORD
  5
74
330
1
100
AcDbSymbolTableRecord
100
AcDbBlockTableRecord
  2
*Paper_Space0
340
77
 70
     0
280
     1
281
     0
  0
BLOCK_RECORD
  5
190
102
{ACAD_XDICTIONARY
360
191
102
}
330
1
100
AcDbSymbolTableRecord
100
AcDbBlockTableRecord
  2
Shower
340
0
102
{BLKREFS
331
18E
102
}
 70
     1
280
     1
281
     0
1001
FUSIONTITLEBLOCK
1000
TitleBlock
  0
BLOCK_RECORD
  5
1B5
330
1
100
AcDbSymbolTableRecord
100
AcDbBlockTableRecord
  2
ANSI_B_SHEET
340
0
310
2800000020000000200000000100080000000000000400000000000000000000000000000000000000000000000080000080000000808000800000008000800080800000C0C0C000C0DCC000F0CAA6000020400000206000002080000020A0000020C0000020E00000400000004020000040400000406000004080000040A0
310
000040C0000040E00000600000006020000060400000606000006080000060A0000060C0000060E00000800000008020000080400000806000008080000080A0000080C0000080E00000A0000000A0200000A0400000A0600000A0800000A0A00000A0C00000A0E00000C0000000C0200000C0400000C0600000C0800000C0
310
A00000C0C00000C0E00000E0000000E0200000E0400000E0600000E0800000E0A00000E0C00000E0E00040000000400020004000400040006000400080004000A0004000C0004000E00040200000402020004020400040206000402080004020A0004020C0004020E000404000004040200040404000404060004040800040
310
40A0004040C0004040E00040600000406020004060400040606000406080004060A0004060C0004060E00040800000408020004080400040806000408080004080A0004080C0004080E00040A0000040A0200040A0400040A0600040A0800040A0A00040A0C00040A0E00040C0000040C0200040C0400040C0600040C08000
310
40C0A00040C0C00040C0E00040E0000040E0200040E0400040E0600040E0800040E0A00040E0C00040E0E00080000000800020008000400080006000800080008000A0008000C0008000E00080200000802020008020400080206000802080008020A0008020C0008020E00080400000804020008040400080406000804080
310
008040A0008040C0008040E00080600000806020008060400080606000806080008060A0008060C0008060E00080800000808020008080400080806000808080008080A0008080C0008080E00080A0000080A0200080A0400080A0600080A0800080A0A00080A0C00080A0E00080C0000080C0200080C0400080C0600080C0
310
800080C0A00080C0C00080C0E00080E0000080E0200080E0400080E0600080E0800080E0A00080E0C00080E0E000C0000000C0002000C0004000C0006000C0008000C000A000C000C000C000E000C0200000C0202000C0204000C0206000C0208000C020A000C020C000C020E000C0400000C0402000C0404000C0406000C0
310
408000C040A000C040C000C040E000C0600000C0602000C0604000C0606000C0608000C060A000C060C000C060E000C0800000C0802000C0804000C0806000C0808000C080A000C080C000C080E000C0A00000C0A02000C0A04000C0A06000C0A08000C0A0A000C0A0C000C0A0E000C0C00000C0C02000C0C04000C0C06000
310
C0C08000C0C0A000F0FBFF00A4A0A000808080000000FF0000FF000000FFFF00FF000000FF00FF00FFFF0000FFFFFF0049494949494949494949494949494949494949494949494949494949494949494949494949494949494949494949494949494949494949494949494949494949494949494949494949494949494949
310
494949494949494949494949494949494949494949494949494949494949494949494949494949494949494949494949494949494949494949494949494949494949494949494949494949494949494949494949494949494949494949494949494949494949494949494949494949494949FFFF4949494949494949494949
310
494949494949494949494949494949FFFF4949FFFFFFFFFFFFFFFFFFFFFFFFFFFFFFFFFFFFFFFFFFFFFFFFFFFFFFFFFFFF494949FF4949494949494949494949494949494949494949494949494949FF49494949FF4949494949494949494949494949494949494949494949494949FF49494949FF49494949494949494949
310
49494949494949494949494949494949FF49494949FF4949494949494949494949494949494949494949494949494949FF49494949FF4949494949494949494949494949494949494949494949494949FF49494949FF4949494949494949494949494949494949494949494949494949FF49494949FF494949494949494949
310
4949494949494949494949494949494949FF49494949FF4949494949494949494949494949494949494949494949494949FF49494949FF4949494949494949494949494949494949494949494949494949FF49494949FF4949494949494949494949494949494949494949494949494949FF49494949FF4949494949494949
310
494949494949494949494949494949494949FF49494949FF4949494949494949494949494949494949494949494949494949FF49494949FF4949494949494949494949494949494949494949494949494949FF49494949FF4949494949494949494949494949494949494949494949494949FF49494949FF49494949494949
310
49494949494949494949494949494949494949FF49494949FF4949494949494949494949494949494949494949494949494949FF494949FFFFFFFFFFFFFFFFFFFFFFFFFFFFFFFFFFFFFFFFFFFFFFFFFFFFFFFFFFFF4949FFFF4949494949494949494949494949494949494949494949494949FFFF49494949494949494949
310
49494949494949494949494949494949494949494949494949494949494949494949494949494949494949494949494949494949494949494949494949494949494949494949494949494949494949494949494949494949494949494949494949494949494949494949494949494949494949494949494949494949494949
310
4949494949494949494949494949494949494949494949494949494949494949494949494949494949494949494949494949494949494949
102
{BLKREFS
331
1B3
102
}
 70
     1
280
     1
281
     0
  0
BLOCK_RECORD
  5
1D6
330
1
100
AcDbSymbolTableRecord
100
AcDbBlockTableRecord
  2
*D6
340
0
 70
     0
280
     1
281
     0
  0
BLOCK_RECORD
  5
1E4
330
1
100
AcDbSymbolTableRecord
100
AcDbBlockTableRecord
  2
*D7
340
0
 70
     0
280
     1
281
     0
  0
BLOCK_RECORD
  5
1F3
330
1
100
AcDbSymbolTableRecord
100
AcDbBlockTableRecord
  2
*D8
340
0
 70
     0
280
     1
281
     0
  0
BLOCK_RECORD
  5
201
330
1
100
AcDbSymbolTableRecord
100
AcDbBlockTableRecord
  2
*D9
340
0
 70
     0
280
     1
281
     0
  0
BLOCK_RECORD
  5
20F
330
1
100
AcDbSymbolTableRecord
100
AcDbBlockTableRecord
  2
*D10
340
0
 70
     0
280
     1
281
     0
  0
BLOCK_RECORD
  5
21D
330
1
100
AcDbSymbolTableRecord
100
AcDbBlockTableRecord
  2
*D11
340
0
 70
     0
280
     1
281
     0
  0
BLOCK_RECORD
  5
22C
330
1
100
AcDbSymbolTableRecord
100
AcDbBlockTableRecord
  2
*U12
340
0
102
{BLKREFS
331
22A
102
}
 70
     0
280
     1
281
     0
  0
BLOCK_RECORD
  5
231
330
1
100
AcDbSymbolTableRecord
100
AcDbBlockTableRecord
  2
*D13
340
0
 70
     0
280
     1
281
     0
  0
BLOCK_RECORD
  5
23F
330
1
100
AcDbSymbolTableRecord
100
AcDbBlockTableRecord
  2
*D14
340
0
 70
     0
280
     1
281
     0
  0
BLOCK_RECORD
  5
24D
330
1
100
AcDbSymbolTableRecord
100
AcDbBlockTableRecord
  2
*D15
340
0
 70
     0
280
     1
281
     0
  0
BLOCK_RECORD
  5
25B
330
1
100
AcDbSymbolTableRecord
100
AcDbBlockTableRecord
  2
*D16
340
0
 70
     0
280
     1
281
     0
  0
BLOCK_RECORD
  5
268
330
1
100
AcDbSymbolTableRecord
100
AcDbBlockTableRecord
  2
*D17
340
0
 70
     0
280
     1
281
     0
  0
BLOCK_RECORD
  5
276
330
1
100
AcDbSymbolTableRecord
100
AcDbBlockTableRecord
  2
*D18
340
0
 70
     0
280
     1
281
     0
  0
BLOCK_RECORD
  5
283
330
1
100
AcDbSymbolTableRecord
100
AcDbBlockTableRecord
  2
*D19
340
0
 70
     0
280
     1
281
     0
  0
BLOCK_RECORD
  5
290
330
1
100
AcDbSymbolTableRecord
100
AcDbBlockTableRecord
  2
*D20
340
0
 70
     0
280
     1
281
     0
  0
BLOCK_RECORD
  5
29D
330
1
100
AcDbSymbolTableRecord
100
AcDbBlockTableRecord
  2
*D21
340
0
 70
     0
280
     1
281
     0
  0
BLOCK_RECORD
  5
2AA
330
1
100
AcDbSymbolTableRecord
100
AcDbBlockTableRecord
  2
*D22
340
0
 70
     0
280
     1
281
     0
  0
BLOCK_RECORD
  5
2B7
330
1
100
AcDbSymbolTableRecord
100
AcDbBlockTableRecord
  2
*D23
340
0
 70
     0
280
     1
281
     0
  0
BLOCK_RECORD
  5
2C4
330
1
100
AcDbSymbolTableRecord
100
AcDbBlockTableRecord
  2
*D24
340
0
 70
     0
280
     1
281
     0
  0
ENDTAB
  0
ENDSEC
  0
SECTION
  2
BLOCKS
  0
BLOCK
  5
71
330
70
100
AcDbEntity
  8
0
100
AcDbBlockBegin
  2
*Model_Space
 70
     0
 10
0.0
 20
0.0
 30
0.0
  3
*Model_Space
  1

  0
ENDBLK
  5
72
330
70
100
AcDbEntity
  8
0
100
AcDbBlockEnd
  0
BLOCK
  5
6D
330
6C
100
AcDbEntity
 67
     1
  8
0
100
AcDbBlockBegin
  2
*Paper_Space
 70
     0
 10
0.0
 20
0.0
 30
0.0
  3
*Paper_Space
  1

  0
ENDBLK
  5
6E
330
6C
100
AcDbEntity
 67
     1
  8
0
100
AcDbBlockEnd
  0
BLOCK
  5
75
330
74
100
AcDbEntity
 67
     1
  8
0
100
AcDbBlockBegin
  2
*Paper_Space0
 70
     0
 10
0.0
 20
0.0
 30
0.0
  3
*Paper_Space0
  1

  0
ENDBLK
  5
76
330
74
100
AcDbEntity
 67
     1
  8
0
100
AcDbBlockEnd
  0
BLOCK
  5
193
330
190
100
AcDbEntity
  8
0
100
AcDbBlockBegin
  2
Shower
 70
     2
 10
0.0
 20
0.0
 30
0.0
  3
Shower
  1

  0
LWPOLYLINE
  5
194
330
190
100
AcDbEntity
  8
Titleblock
100
AcDbPolyline
 90
        4
 70
     1
 43
0.0
 10
0.0
 20
0.0
 10
-4.9375
 20
0.0
 10
-4.9375
 20
2.5
 10
0.0
 20
2.5
  0
IMAGE
  5
195
330
190
100
AcDbEntity
  8
Titleblock
  6
Continuous
160
               140
310
8C0000000100000084000000060000000500000000000000008013C000B87FA8928AB03F000000000000000000000000008013C035B4911D6523F03F000000000000000001000000008001C035B4911D6523F03F000000000000000001000000008001C000B87FA8928AB03F000000000000000000000000008013C000B87F
310
A8928AB03F0000000000000000
370
     0
100
AcDbRasterImage
 90
        0
 10
-4.875
 20
0.064614
 30
0.0
 11
0.0028349156118143
 21
0.0
 31
0.0
 12
0.0
 22
0.0028349156118143
 32
0.0
 13
948.0
 23
333.0
340
196
 70
    15
280
     0
281
    50
282
    50
283
     0
290
     0
360
198
 71
     1
 91
        2
 14
-0.5
 24
-0.5
 14
947.5
 24
332.5
  0
LWPOLYLINE
  5
19A
330
190
100
AcDbEntity
  8
Titleblock
  6
Continuous
370
    25
100
AcDbPolyline
 90
        4
 70
     1
 43
0.0
 10
0.0
 20
1.0625
 10
-4.9375
 20
1.061638
 10
-4.9375
 20
0.0
 10
0.0
 20
0.0
  0
LWPOLYLINE
  5
19B
330
190
100
AcDbEntity
  8
Titleblock
  6
Continuous
370
    25
100
AcDbPolyline
 90
        4
 70
     1
 43
0.0
 10
-1.75
 20
2.5
 10
0.0
 20
2.5
 10
0.0
 20
2.5
 10
-1.75
 20
2.5
  0
ATTDEF
  5
19C
330
190
100
AcDbEntity
  8
Titleblock
  6
Continuous
370
    25
100
AcDbText
 10
-3.6875
 20
2.3125
 30
0.0
 40
0.12
  1

100
AcDbAttributeDefinition
280
     0
  3

  2
PROJECT
 70
     0
280
     1
  0
MTEXT
  5
19D
330
190
100
AcDbEntity
  8
Titleblock
  6
Continuous
370
    25
100
AcDbMText
 10
-4.875
 20
1.653875
 30
0.0
 40
0.12
 41
0.6875
 46
0.0
 71
     1
 72
     5
  1
Description:
 73
     1
 44
1.0
1001
ACAD
1000
ACAD_MTEXT_COLUMN_INFO_BEGIN
1070
    75
1070
     2
1070
    79
1070
     0
1070
    76
1070
     1
1070
    78
1070
     0
1070
    48
1040
0.6875
1070
    49
1040
0.6
1070
    50
1070
     1
1040
0.0
1000
ACAD_MTEXT_COLUMN_INFO_END
  0
ATTDEF
  5
19E
330
190
100
AcDbEntity
  8
Titleblock
  6
Continuous
370
    25
100
AcDbText
 10
-1.6875
 20
0.6875
 30
0.0
 40
0.12
  1

100
AcDbAttributeDefinition
280
     0
  3

  2
DRAWN_DATE
 70
     0
280
     1
  0
ATTDEF
  5
19F
330
190
100
AcDbEntity
  8
Titleblock
  6
Continuous
370
    25
100
AcDbText
 10
-4.3125
 20
1.8125
 30
0.0
 40
0.3048
  1

100
AcDbAttributeDefinition
280
     0
  3

  2
TITLE_1
 70
     0
280
     1
  0
ATTDEF
  5
1A0
330
190
100
AcDbEntity
  8
Titleblock
  6
Continuous
370
    25
100
AcDbText
 10
-1.6875
 20
0.91994
 30
0.0
 40
0.12
  1

100
AcDbAttributeDefinition
280
     0
  3

  2
SCALE
 70
     0
280
     1
  0
LWPOLYLINE
  5
1A1
330
190
100
AcDbEntity
  8
Titleblock
  6
Continuous
370
    25
100
AcDbPolyline
 90
        4
 70
     1
 43
0.0
 10
0.0
 20
1.0625
 10
0.0
 20
1.0625
 10
0.0
 20
0.0
 10
0.0
 20
0.0
  0
LWPOLYLINE
  5
1A2
330
190
100
AcDbEntity
  8
Titleblock
  6
Continuous
370
    25
100
AcDbPolyline
 90
        4
 70
     1
 43
0.0
 10
0.0
 20
1.0625
 10
0.0
 20
1.0625
 10
0.0
 20
0.0
 10
0.0
 20
0.0
  0
LINE
  5
1A3
330
190
100
AcDbEntity
  8
Titleblock
  6
Continuous
370
    25
100
AcDbLine
 10
-2.125
 20
1.062165
 30
0.0
 11
-2.125
 21
0.0
 31
0.0
  0
LWPOLYLINE
  5
1A4
330
190
100
AcDbEntity
  8
Titleblock
  6
Continuous
370
    25
100
AcDbPolyline
 90
        4
 70
     1
 43
0.0
 10
-4.9375
 20
2.5
 10
0.0
 20
2.5
 10
0.0
 20
2.5
 10
-4.9375
 20
2.5
  0
LINE
  5
1A5
330
190
100
AcDbEntity
  8
Titleblock
  6
Continuous
370
    25
100
AcDbLine
 10
-4.9375
 20
2.25
 30
0.0
 11
0.0
 21
2.25
 31
0.0
  0
LINE
  5
1A6
330
190
100
AcDbEntity
  8
Titleblock
  6
Continuous
370
    25
100
AcDbLine
 10
-4.9375
 20
1.6875
 30
0.0
 11
0.0
 21
1.6875
 31
0.0
  0
MTEXT
  5
1A7
330
190
100
AcDbEntity
  8
Titleblock
100
AcDbMText
 10
-4.875
 20
2.467284
 30
0.0
 40
0.12
 41
0.375
 46
0.0
 71
     1
 72
     5
  1
Project:
 73
     1
 44
1.0
1001
ACAD
1000
ACAD_MTEXT_COLUMN_INFO_BEGIN
1070
    75
1070
     2
1070
    79
1070
     0
1070
    76
1070
     1
1070
    78
1070
     0
1070
    48
1040
0.375
1070
    49
1040
0.6
1070
    50
1070
     1
1040
0.0
1000
ACAD_MTEXT_COLUMN_INFO_END
  0
MTEXT
  5
1A8
330
190
100
AcDbEntity
  8
Titleblock
100
AcDbMText
 10
-2.0625
 20
1.045477
 30
0.0
 40
0.075
 41
0.375
 46
0.0
 71
     1
 72
     5
  1
Scale:
 73
     1
 44
1.0
1001
ACAD
1000
ACAD_MTEXT_COLUMN_INFO_BEGIN
1070
    75
1070
     2
1070
    79
1070
     0
1070
    76
1070
     1
1070
    78
1070
     0
1070
    48
1040
0.375
1070
    49
1040
0.6
1070
    50
1070
     1
1040
0.0
1000
ACAD_MTEXT_COLUMN_INFO_END
  0
MTEXT
  5
1A9
330
190
100
AcDbEntity
  8
Titleblock
100
AcDbMText
 10
-2.0625
 20
0.857735
 30
0.0
 40
0.075
 41
0.375
 46
0.0
 71
     1
 72
     5
  1
Date Drawn:
 73
     1
 44
1.0
1001
ACAD
1000
ACAD_MTEXT_COLUMN_INFO_BEGIN
1070
    75
1070
     2
1070
    79
1070
     0
1070
    76
1070
     1
1070
    78
1070
     0
1070
    48
1040
0.375
1070
    49
1040
0.6
1070
    50
1070
     1
1040
0.0
1000
ACAD_MTEXT_COLUMN_INFO_END
  0
LINE
  5
1AA
330
190
100
AcDbEntity
  8
Titleblock
100
AcDbLine
 10
-2.125
 20
0.875
 30
0.0
 11
0.0
 21
0.875
 31
0.0
  0
LINE
  5
1AB
330
190
100
AcDbEntity
  8
Titleblock
100
AcDbLine
 10
-2.125
 20
0.625
 30
0.0
 11
0.0
 21
0.625
 31
0.0
  0
MTEXT
  5
1AC
330
190
100
AcDbEntity
  8
Titleblock
100
AcDbMText
 10
-4.875
 20
2.220603
 30
0.0
 40
0.12
 41
0.625
 46
0.0
 71
     1
 72
     5
  1
Title:
 73
     1
 44
1.0
1001
ACAD
1000
ACAD_MTEXT_COLUMN_INFO_BEGIN
1070
    75
1070
     2
1070
    79
1070
     0
1070
    76
1070
     1
1070
    78
1070
     0
1070
    48
1040
0.625
1070
    49
1040
0.6
1070
    50
1070
     1
1040
0.0
1000
ACAD_MTEXT_COLUMN_INFO_END
  0
ENDBLK
  5
1AD
330
190
100
AcDbEntity
  8
0
100
AcDbBlockEnd
  0
BLOCK
  5
1B6
330
1B5
100
AcDbEntity
  8
0
100
AcDbBlockBegin
  2
ANSI_B_SHEET
 70
     0
 10
0.0
 20
0.0
 30
0.0
  3
ANSI_B_SHEET
  1

  0
LINE
  5
1B7
330
1B5
100
AcDbEntity
  8
Border
100
AcDbLine
 10
0.0
 20
0.0
 30
0.0
 11
0.5
 21
0.0
 31
0.0
  0
LINE
  5
1B8
330
1B5
100
AcDbEntity
  8
Border
100
AcDbLine
 10
16.5
 20
0.0
 30
0.0
 11
17.0
 21
0.0
 31
0.0
  0
LINE
  5
1B9
330
1B5
100
AcDbEntity
  8
Border
100
AcDbLine
 10
0.62
 20
0.38
 30
0.0
 11
16.38
 21
0.38
 31
0.0
  0
LINE
  5
1BA
330
1B5
100
AcDbEntity
  8
Border
100
AcDbLine
 10
17.0
 20
0.0
 30
0.0
 11
17.0
 21
0.5
 31
0.0
  0
LINE
  5
1BB
330
1B5
100
AcDbEntity
  8
Border
100
AcDbLine
 10
17.0
 20
10.5
 30
0.0
 11
17.0
 21
11.0
 31
0.0
  0
LINE
  5
1BC
330
1B5
100
AcDbEntity
  8
Border
100
AcDbLine
 10
16.38
 20
0.38
 30
0.0
 11
16.38
 21
10.62
 31
0.0
  0
LINE
  5
1BD
330
1B5
100
AcDbEntity
  8
Border
100
AcDbLine
 10
17.0
 20
11.0
 30
0.0
 11
16.5
 21
11.0
 31
0.0
  0
LINE
  5
1BE
330
1B5
100
AcDbEntity
  8
Border
100
AcDbLine
 10
0.5
 20
11.0
 30
0.0
 11
0.0
 21
11.0
 31
0.0
  0
LINE
  5
1BF
330
1B5
100
AcDbEntity
  8
Border
100
AcDbLine
 10
16.38
 20
10.62
 30
0.0
 11
0.62
 21
10.62
 31
0.0
  0
LINE
  5
1C0
330
1B5
100
AcDbEntity
  8
Border
100
AcDbLine
 10
0.0
 20
11.0
 30
0.0
 11
0.0
 21
10.5
 31
0.0
  0
LINE
  5
1C1
330
1B5
100
AcDbEntity
  8
Border
100
AcDbLine
 10
0.0
 20
0.5
 30
0.0
 11
0.0
 21
0.0
 31
0.0
  0
LINE
  5
1C2
330
1B5
100
AcDbEntity
  8
Border
100
AcDbLine
 10
0.62
 20
10.62
 30
0.0
 11
0.62
 21
0.38
 31
0.0
  0
LINE
  5
1C3
330
1B5
100
AcDbEntity
  8
Border
100
AcDbLine
 10
8.413397
 20
0.23
 30
0.0
 11
8.586603
 21
0.23
 31
0.0
  0
LINE
  5
1C4
330
1B5
100
AcDbEntity
  8
Border
100
AcDbLine
 10
8.5
 20
0.38
 30
0.0
 11
8.5
 21
0.13
 31
0.0
  0
LINE
  5
1C5
330
1B5
100
AcDbEntity
  8
Border
100
AcDbLine
 10
8.5
 20
0.38
 30
0.0
 11
8.413397
 21
0.23
 31
0.0
  0
LINE
  5
1C6
330
1B5
100
AcDbEntity
  8
Border
100
AcDbLine
 10
8.5
 20
0.38
 30
0.0
 11
8.586603
 21
0.23
 31
0.0
  0
LINE
  5
1C7
330
1B5
100
AcDbEntity
  8
Border
100
AcDbLine
 10
0.47
 20
5.586603
 30
0.0
 11
0.47
 21
5.413397
 31
0.0
  0
LINE
  5
1C8
330
1B5
100
AcDbEntity
  8
Border
100
AcDbLine
 10
0.62
 20
5.5
 30
0.0
 11
0.37
 21
5.5
 31
0.0
  0
LINE
  5
1C9
330
1B5
100
AcDbEntity
  8
Border
100
AcDbLine
 10
0.62
 20
5.5
 30
0.0
 11
0.47
 21
5.586603
 31
0.0
  0
LINE
  5
1CA
330
1B5
100
AcDbEntity
  8
Border
100
AcDbLine
 10
0.62
 20
5.5
 30
0.0
 11
0.47
 21
5.413397
 31
0.0
  0
LINE
  5
1CB
330
1B5
100
AcDbEntity
  8
Border
100
AcDbLine
 10
16.53
 20
5.586603
 30
0.0
 11
16.53
 21
5.413397
 31
0.0
  0
LINE
  5
1CC
330
1B5
100
AcDbEntity
  8
Border
100
AcDbLine
 10
16.38
 20
5.5
 30
0.0
 11
16.63
 21
5.5
 31
0.0
  0
LINE
  5
1CD
330
1B5
100
AcDbEntity
  8
Border
100
AcDbLine
 10
16.38
 20
5.5
 30
0.0
 11
16.53
 21
5.586603
 31
0.0
  0
LINE
  5
1CE
330
1B5
100
AcDbEntity
  8
Border
100
AcDbLine
 10
16.38
 20
5.5
 30
0.0
 11
16.53
 21
5.413397
 31
0.0
  0
LINE
  5
1CF
330
1B5
100
AcDbEntity
  8
Border
100
AcDbLine
 10
8.413397
 20
10.77
 30
0.0
 11
8.586603
 21
10.77
 31
0.0
  0
LINE
  5
1D0
330
1B5
100
AcDbEntity
  8
Border
100
AcDbLine
 10
8.5
 20
10.62
 30
0.0
 11
8.5
 21
10.87
 31
0.0
  0
LINE
  5
1D1
330
1B5
100
AcDbEntity
  8
Border
100
AcDbLine
 10
8.5
 20
10.62
 30
0.0
 11
8.413397
 21
10.77
 31
0.0
  0
LINE
  5
1D2
330
1B5
100
AcDbEntity
  8
Border
100
AcDbLine
 10
8.5
 20
10.62
 30
0.0
 11
8.586603
 21
10.77
 31
0.0
  0
ENDBLK
  5
1D3
330
1B5
100
AcDbEntity
  8
0
100
AcDbBlockEnd
  0
BLOCK
  5
1D7
330
1D6
100
AcDbEntity
  8
0
100
AcDbBlockBegin
  2
*D6
 70
     1
 10
0.0
 20
0.0
 30
0.0
  3
*D6
  1

  0
LINE
  5
1D8
330
1D6
100
AcDbEntity
  8
Dimensions
440
 16777216
370
    -2
100
AcDbLine
 10
7.220473
 20
7.597254
 30
0.0
 11
7.220472
 21
7.953113
 31
0.0
  0
LINE
  5
1D9
330
1D6
100
AcDbEntity
  8
Dimensions
440
 16777216
370
    -2
100
AcDbLine
 10
9.779527
 20
7.597257
 30
0.0
 11
9.779527
 21
7.953115
 31
0.0
  0
LINE
  5
1DA
330
1D6
100
AcDbEntity
  8
Dimensions
440
 16777216
370
    -2
100
AcDbLine
 10
7.340472
 20
7.853113
 30
0.0
 11
8.21985
 21
7.853114
 31
0.0
  0
LINE
  5
1DB
330
1D6
100
AcDbEntity
  8
Dimensions
440
 16777216
370
    -2
100
AcDbLine
 10
9.659527
 20
7.853115
 30
0.0
 11
8.78015
 21
7.853114
 31
0.0
  0
SOLID
  5
1DC
330
1D6
100
AcDbEntity
  8
Dimensions
440
 16777216
100
AcDbTrace
 10
7.340472
 20
7.873113
 30
0.0
 11
7.340472
 21
7.833113
 31
0.0
 12
7.220472
 22
7.853113
 32
0.0
 13
7.220472
 23
7.853113
 33
0.0
  0
SOLID
  5
1DD
330
1D6
100
AcDbEntity
  8
Dimensions
440
 16777216
100
AcDbTrace
 10
9.659527
 20
7.873115
 30
0.0
 11
9.659527
 21
7.833115
 31
0.0
 12
9.779527
 22
7.853115
 32
0.0
 13
9.779527
 23
7.853115
 33
0.0
  0
MTEXT
  5
1DE
330
1D6
100
AcDbEntity
  8
Dimensions
440
 16777216
100
AcDbMText
 10
8.5
 20
7.853114
 30
0.0
 40
0.12
 41
0.0
 46
0.0
 71
     5
 72
     1
  1
\A1;2.56in
 73
     1
 44
1.0
  0
POINT
  5
1DF
330
1D6
100
AcDbEntity
  8
Defpoints
 62
     0
440
 16777216
100
AcDbPoint
 10
7.220473
 20
7.547254
 30
0.0
  0
POINT
  5
1E0
330
1D6
100
AcDbEntity
  8
Defpoints
 62
     0
440
 16777216
100
AcDbPoint
 10
9.779527
 20
7.547257
 30
0.0
  0
POINT
  5
1E1
330
1D6
100
AcDbEntity
  8
Defpoints
 62
     0
440
 16777216
100
AcDbPoint
 10
9.779527
 20
7.853115
 30
0.0
  0
ENDBLK
  5
1E2
330
1D6
100
AcDbEntity
  8
0
100
AcDbBlockEnd
  0
BLOCK
  5
1E5
330
1E4
100
AcDbEntity
  8
0
100
AcDbBlockBegin
  2
*D7
 70
     1
 10
0.0
 20
0.0
 30
0.0
  3
*D7
  1

  0
LINE
  5
1E6
330
1E4
100
AcDbEntity
  8
Dimensions
440
 16777216
370
    -2
100
AcDbLine
 10
9.829527
 20
7.547257
 30
0.0
 11
10.14719
 21
7.547257
 31
0.0
  0
LINE
  5
1E7
330
1E4
100
AcDbEntity
  8
Dimensions
440
 16777216
370
    -2
100
AcDbLine
 10
9.829527
 20
7.350407
 30
0.0
 11
10.147191
 21
7.350407
 31
0.0
  0
LINE
  5
1E8
330
1E4
100
AcDbEntity
  8
Dimensions
440
 16777216
370
    -2
100
AcDbLine
 10
10.04719
 20
7.667257
 30
0.0
 11
10.04719
 21
7.787257
 31
0.0
  0
LINE
  5
1E9
330
1E4
100
AcDbEntity
  8
Dimensions
440
 16777216
370
    -2
100
AcDbLine
 10
10.047191
 20
7.230407
 30
0.0
 11
10.047191
 21
7.110407
 31
0.0
  0
LINE
  5
1EA
330
1E4
100
AcDbEntity
  8
Dimensions
440
 16777216
370
    -2
100
AcDbLine
 10
10.047191
 20
7.110407
 30
0.0
 11
10.167191
 21
7.110407
 31
0.0
  0
SOLID
  5
1EB
330
1E4
100
AcDbEntity
  8
Dimensions
440
 16777216
100
AcDbTrace
 10
10.06719
 20
7.667257
 30
0.0
 11
10.02719
 21
7.667257
 31
0.0
 12
10.04719
 22
7.547257
 32
0.0
 13
10.04719
 23
7.547257
 33
0.0
  0
SOLID
  5
1EC
330
1E4
100
AcDbEntity
  8
Dimensions
440
 16777216
100
AcDbTrace
 10
10.067191
 20
7.230407
 30
0.0
 11
10.027191
 21
7.230407
 31
0.0
 12
10.047191
 22
7.350407
 32
0.0
 13
10.047191
 23
7.350407
 33
0.0
  0
MTEXT
  5
1ED
330
1E4
100
AcDbEntity
  8
Dimensions
440
 16777216
100
AcDbMText
 10
10.348951
 20
7.110407
 30
0.0
 40
0.12
 41
0.0
 46
0.0
 71
     5
 72
     1
  1
\A1;.2in
 73
     1
 44
1.0
  0
POINT
  5
1EE
330
1E4
100
AcDbEntity
  8
Defpoints
 62
     0
440
 16777216
100
AcDbPoint
 10
9.779527
 20
7.547257
 30
0.0
  0
POINT
  5
1EF
330
1E4
100
AcDbEntity
  8
Defpoints
 62
     0
440
 16777216
100
AcDbPoint
 10
9.779527
 20
7.350407
 30
0.0
  0
POINT
  5
1F0
330
1E4
100
AcDbEntity
  8
Defpoints
 62
     0
440
 16777216
100
AcDbPoint
 10
10.047191
 20
7.350407
 30
0.0
  0
ENDBLK
  5
1F1
330
1E4
100
AcDbEntity
  8
0
100
AcDbBlockEnd
  0
BLOCK
  5
1F4
330
1F3
100
AcDbEntity
  8
0
100
AcDbBlockBegin
  2
*D8
 70
     1
 10
0.0
 20
0.0
 30
0.0
  3
*D8
  1

  0
LINE
  5
1F5
330
1F3
100
AcDbEntity
  8
Dimensions
440
 16777216
370
    -2
100
AcDbLine
 10
9.681486
 20
3.796573
 30
0.0
 11
9.681486
 21
2.728129
 31
0.0
  0
LINE
  5
1F6
330
1F3
100
AcDbEntity
  8
Dimensions
440
 16777216
370
    -2
100
AcDbLine
 10
7.319282
 20
3.796363
 30
0.0
 11
7.319282
 21
2.728129
 31
0.0
  0
LINE
  5
1F7
330
1F3
100
AcDbEntity
  8
Dimensions
440
 16777216
370
    -2
100
AcDbLine
 10
9.561486
 20
2.828129
 30
0.0
 11
8.780534
 21
2.828129
 31
0.0
  0
LINE
  5
1F8
330
1F3
100
AcDbEntity
  8
Dimensions
440
 16777216
370
    -2
100
AcDbLine
 10
7.439282
 20
2.828129
 30
0.0
 11
8.220234
 21
2.828129
 31
0.0
  0
SOLID
  5
1F9
330
1F3
100
AcDbEntity
  8
Dimensions
440
 16777216
100
AcDbTrace
 10
9.561486
 20
2.848129
 30
0.0
 11
9.561486
 21
2.808129
 31
0.0
 12
9.681486
 22
2.828129
 32
0.0
 13
9.681486
 23
2.828129
 33
0.0
  0
SOLID
  5
1FA
330
1F3
100
AcDbEntity
  8
Dimensions
440
 16777216
100
AcDbTrace
 10
7.439282
 20
2.848129
 30
0.0
 11
7.439282
 21
2.808129
 31
0.0
 12
7.319282
 22
2.828129
 32
0.0
 13
7.319282
 23
2.828129
 33
0.0
  0
MTEXT
  5
1FB
330
1F3
100
AcDbEntity
  8
Dimensions
440
 16777216
100
AcDbMText
 10
8.500384
 20
2.828129
 30
0.0
 40
0.12
 41
0.0
 46
0.0
 71
     5
 72
     1
  1
\A1;2.36in
 73
     1
 44
1.0
  0
POINT
  5
1FC
330
1F3
100
AcDbEntity
  8
Defpoints
 62
     0
440
 16777216
100
AcDbPoint
 10
9.681486
 20
3.846573
 30
0.0
  0
POINT
  5
1FD
330
1F3
100
AcDbEntity
  8
Defpoints
 62
     0
440
 16777216
100
AcDbPoint
 10
7.319282
 20
3.846363
 30
0.0
  0
POINT
  5
1FE
330
1F3
100
AcDbEntity
  8
Defpoints
 62
     0
440
 16777216
100
AcDbPoint
 10
7.319282
 20
2.828129
 30
0.0
  0
ENDBLK
  5
1FF
330
1F3
100
AcDbEntity
  8
0
100
AcDbBlockEnd
  0
BLOCK
  5
202
330
201
100
AcDbEntity
  8
0
100
AcDbBlockBegin
  2
*D9
 70
     1
 10
0.0
 20
0.0
 30
0.0
  3
*D9
  1

  0
LINE
  5
203
330
201
100
AcDbEntity
  8
Dimensions
440
 16777216
370
    -2
100
AcDbLine
 10
7.269141
 20
5.421161
 30
0.0
 11
6.87973
 21
5.421127
 31
0.0
  0
LINE
  5
204
330
201
100
AcDbEntity
  8
Dimensions
440
 16777216
370
    -2
100
AcDbLine
 10
7.269282
 20
3.846358
 30
0.0
 11
6.87987
 21
3.846323
 31
0.0
  0
LINE
  5
205
330
201
100
AcDbEntity
  8
Dimensions
440
 16777216
370
    -2
100
AcDbLine
 10
6.979741
 20
5.301135
 30
0.0
 11
6.979789
 21
4.755003
 31
0.0
  0
LINE
  5
206
330
201
100
AcDbEntity
  8
Dimensions
440
 16777216
370
    -2
100
AcDbLine
 10
6.97986
 20
3.966332
 30
0.0
 11
6.979811
 21
4.512465
 31
0.0
  0
SOLID
  5
207
330
201
100
AcDbEntity
  8
Dimensions
440
 16777216
100
AcDbTrace
 10
6.999741
 20
5.301137
 30
0.0
 11
6.959741
 21
5.301134
 31
0.0
 12
6.97973
 22
5.421135
 32
0.0
 13
6.97973
 23
5.421135
 33
0.0
  0
SOLID
  5
208
330
201
100
AcDbEntity
  8
Dimensions
440
 16777216
100
AcDbTrace
 10
6.99986
 20
3.966334
 30
0.0
 11
6.95986
 21
3.966331
 31
0.0
 12
6.97987
 22
3.846332
 32
0.0
 13
6.97987
 23
3.846332
 33
0.0
  0
MTEXT
  5
209
330
201
100
AcDbEntity
  8
Dimensions
440
 16777216
100
AcDbMText
 10
6.9798
 20
4.633734
 30
0.0
 40
0.12
 41
0.0
 46
0.0
 71
     5
 72
     1
  1
\A1;1.57in
 73
     1
 44
1.0
  0
POINT
  5
20A
330
201
100
AcDbEntity
  8
Defpoints
 62
     0
440
 16777216
100
AcDbPoint
 10
7.319141
 20
5.421166
 30
0.0
  0
POINT
  5
20B
330
201
100
AcDbEntity
  8
Defpoints
 62
     0
440
 16777216
100
AcDbPoint
 10
7.319282
 20
3.846363
 30
0.0
  0
POINT
  5
20C
330
201
100
AcDbEntity
  8
Defpoints
 62
     0
440
 16777216
100
AcDbPoint
 10
6.97987
 20
3.846332
 30
0.0
  0
ENDBLK
  5
20D
330
201
100
AcDbEntity
  8
0
100
AcDbBlockEnd
  0
BLOCK
  5
210
330
20F
100
AcDbEntity
  8
0
100
AcDbBlockBegin
  2
*D10
 70
     1
 10
0.0
 20
0.0
 30
0.0
  3
*D10
  1

  0
LINE
  5
211
330
20F
100
AcDbEntity
  8
Dimensions
440
 16777216
370
    -2
100
AcDbLine
 10
8.944053
 20
5.027531
 30
0.0
 11
9.333465
 21
5.027496
 31
0.0
  0
LINE
  5
212
330
20F
100
AcDbEntity
  8
Dimensions
440
 16777216
370
    -2
100
AcDbLine
 10
8.943983
 20
4.240129
 30
0.0
 11
9.333394
 21
4.240094
 31
0.0
  0
LINE
  5
213
330
20F
100
AcDbEntity
  8
Dimensions
440
 16777216
370
    -2
100
AcDbLine
 10
9.233454
 20
4.907505
 30
0.0
 11
9.23344
 21
4.755073
 31
0.0
  0
LINE
  5
214
330
20F
100
AcDbEntity
  8
Dimensions
440
 16777216
370
    -2
100
AcDbLine
 10
9.233405
 20
4.360103
 30
0.0
 11
9.233419
 21
4.512535
 31
0.0
  0
SOLID
  5
215
330
20F
100
AcDbEntity
  8
Dimensions
440
 16777216
100
AcDbTrace
 10
9.213454
 20
4.907507
 30
0.0
 11
9.253454
 21
4.907503
 31
0.0
 12
9.233465
 22
5.027505
 32
0.0
 13
9.233465
 23
5.027505
 33
0.0
  0
SOLID
  5
216
330
20F
100
AcDbEntity
  8
Dimensions
440
 16777216
100
AcDbTrace
 10
9.213405
 20
4.360105
 30
0.0
 11
9.253405
 21
4.360101
 31
0.0
 12
9.233394
 22
4.240103
 32
0.0
 13
9.233394
 23
4.240103
 33
0.0
  0
MTEXT
  5
217
330
20F
100
AcDbEntity
  8
Dimensions
440
 16777216
100
AcDbMText
 10
9.233429
 20
4.633804
 30
0.0
 40
0.12
 41
0.0
 46
0.0
 71
     5
 72
     1
  1
\A1;.79in
 73
     1
 44
1.0
  0
POINT
  5
218
330
20F
100
AcDbEntity
  8
Defpoints
 62
     0
440
 16777216
100
AcDbPoint
 10
8.894053
 20
5.027535
 30
0.0
  0
POINT
  5
219
330
20F
100
AcDbEntity
  8
Defpoints
 62
     0
440
 16777216
100
AcDbPoint
 10
8.893983
 20
4.240134
 30
0.0
  0
POINT
  5
21A
330
20F
100
AcDbEntity
  8
Defpoints
 62
     0
440
 16777216
100
AcDbPoint
 10
9.233394
 20
4.240103
 30
0.0
  0
ENDBLK
  5
21B
330
20F
100
AcDbEntity
  8
0
100
AcDbBlockEnd
  0
BLOCK
  5
21E
330
21D
100
AcDbEntity
  8
0
100
AcDbBlockBegin
  2
*D11
 70
     1
 10
0.0
 20
0.0
 30
0.0
  3
*D11
  1

  0
LINE
  5
21F
330
21D
100
AcDbEntity
  8
Dimensions
440
 16777216
370
    -2
100
AcDbLine
 10
8.775487
 20
3.402743
 30
0.0
 11
8.775473
 21
3.24809
 31
0.0
  0
LINE
  5
220
330
21D
100
AcDbEntity
  8
Dimensions
440
 16777216
370
    -2
100
AcDbLine
 10
8.224306
 20
3.402792
 30
0.0
 11
8.224292
 21
3.248139
 31
0.0
  0
LINE
  5
221
330
21D
100
AcDbEntity
  8
Dimensions
440
 16777216
370
    -2
100
AcDbLine
 10
8.895482
 20
3.348079
 30
0.0
 11
9.015482
 21
3.348069
 31
0.0
  0
LINE
  5
222
330
21D
100
AcDbEntity
  8
Dimensions
440
 16777216
370
    -2
100
AcDbLine
 10
8.104301
 20
3.34815
 30
0.0
 11
7.984301
 21
3.348161
 31
0.0
  0
SOLID
  5
223
330
21D
100
AcDbEntity
  8
Dimensions
440
 16777216
100
AcDbTrace
 10
8.895484
 20
3.368079
 30
0.0
 11
8.89548
 21
3.328079
 31
0.0
 12
8.775482
 22
3.34809
 32
0.0
 13
8.775482
 23
3.34809
 33
0.0
  0
SOLID
  5
224
330
21D
100
AcDbEntity
  8
Dimensions
440
 16777216
100
AcDbTrace
 10
8.104303
 20
3.36815
 30
0.0
 11
8.104299
 21
3.32815
 31
0.0
 12
8.224301
 22
3.348139
 32
0.0
 13
8.224301
 23
3.348139
 33
0.0
  0
MTEXT
  5
225
330
21D
100
AcDbEntity
  8
Dimensions
440
 16777216
100
AcDbMText
 10
8.499892
 20
3.348115
 30
0.0
 40
0.12
 41
0.0
 46
0.0
 71
     5
 72
     1
  1
\A1;.55in
 73
     1
 44
1.0
  0
POINT
  5
226
330
21D
100
AcDbEntity
  8
Defpoints
 62
     0
440
 16777216
100
AcDbPoint
 10
8.775491
 20
3.452743
 30
0.0
  0
POINT
  5
227
330
21D
100
AcDbEntity
  8
Defpoints
 62
     0
440
 16777216
100
AcDbPoint
 10
8.22431
 20
3.452792
 30
0.0
  0
POINT
  5
228
330
21D
100
AcDbEntity
  8
Defpoints
 62
     0
440
 16777216
100
AcDbPoint
 10
8.224301
 20
3.348139
 30
0.0
  0
ENDBLK
  5
229
330
21D
100
AcDbEntity
  8
0
100
AcDbBlockEnd
  0
BLOCK
  5
22D
330
22C
100
AcDbEntity
  8
0
100
AcDbBlockBegin
  2
*U12
 70
     1
 10
0.0
 20
0.0
 30
0.0
  3
*U12
  1

  0
LINE
  5
22E
330
22C
100
AcDbEntity
  8
Center Lines
 62
     0
440
 16777216
 48
0.75
100
AcDbLine
 10
0.0
 20
0.218425
 30
0.0
 11
0.0
 21
-0.218425
 31
0.0
  0
ENDBLK
  5
22F
330
22C
100
AcDbEntity
  8
0
100
AcDbBlockEnd
  0
BLOCK
  5
232
330
231
100
AcDbEntity
  8
0
100
AcDbBlockBegin
  2
*D13
 70
     1
 10
0.0
 20
0.0
 30
0.0
  3
*D13
  1

  0
LINE
  5
233
330
231
100
AcDbEntity
  8
Dimensions
440
 16777216
370
    -2
100
AcDbLine
 10
12.137884
 20
7.717256
 30
0.0
 11
12.137884
 21
8.106667
 31
0.0
  0
LINE
  5
234
330
231
100
AcDbEntity
  8
Dimensions
440
 16777216
370
    -2
100
AcDbLine
 10
15.720875
 20
5.471166
 30
0.0
 11
15.720875
 21
8.106667
 31
0.0
  0
LINE
  5
235
330
231
100
AcDbEntity
  8
Dimensions
440
 16777216
370
    -2
100
AcDbLine
 10
12.257884
 20
8.006667
 30
0.0
 11
13.650294
 21
8.006667
 31
0.0
  0
LINE
  5
236
330
231
100
AcDbEntity
  8
Dimensions
440
 16777216
370
    -2
100
AcDbLine
 10
15.600875
 20
8.006667
 30
0.0
 11
14.208465
 21
8.006667
 31
0.0
  0
SOLID
  5
237
330
231
100
AcDbEntity
  8
Dimensions
440
 16777216
100
AcDbTrace
 10
12.257884
 20
8.026667
 30
0.0
 11
12.257884
 21
7.986667
 31
0.0
 12
12.137884
 22
8.006667
 32
0.0
 13
12.137884
 23
8.006667
 33
0.0
  0
SOLID
  5
238
330
231
100
AcDbEntity
  8
Dimensions
440
 16777216
100
AcDbTrace
 10
15.600875
 20
8.026667
 30
0.0
 11
15.600875
 21
7.986667
 31
0.0
 12
15.720875
 22
8.006667
 32
0.0
 13
15.720875
 23
8.006667
 33
0.0
  0
MTEXT
  5
239
330
231
100
AcDbEntity
  8
Dimensions
440
 16777216
100
AcDbMText
 10
13.92938
 20
8.006667
 30
0.0
 40
0.12
 41
0.0
 46
0.0
 71
     5
 72
     1
  1
\A1;3.58in
 73
     1
 44
1.0
  0
POINT
  5
23A
330
231
100
AcDbEntity
  8
Defpoints
 62
     0
440
 16777216
100
AcDbPoint
 10
12.137884
 20
7.667256
 30
0.0
  0
POINT
  5
23B
330
231
100
AcDbEntity
  8
Defpoints
 62
     0
440
 16777216
100
AcDbPoint
 10
15.720875
 20
5.421166
 30
0.0
  0
POINT
  5
23C
330
231
100
AcDbEntity
  8
Defpoints
 62
     0
440
 16777216
100
AcDbPoint
 10
15.720875
 20
8.006667
 30
0.0
  0
ENDBLK
  5
23D
330
231
100
AcDbEntity
  8
0
100
AcDbBlockEnd
  0
BLOCK
  5
240
330
23F
100
AcDbEntity
  8
0
100
AcDbBlockBegin
  2
*D14
 70
     1
 10
0.0
 20
0.0
 30
0.0
  3
*D14
  1

  0
LINE
  5
241
330
23F
100
AcDbEntity
  8
Dimensions
440
 16777216
370
    -2
100
AcDbLine
 10
15.720929
 20
5.471166
 30
0.0
 11
15.721345
 21
5.860577
 31
0.0
  0
LINE
  5
242
330
23F
100
AcDbEntity
  8
Dimensions
440
 16777216
370
    -2
100
AcDbLine
 10
15.523858
 20
5.471376
 30
0.0
 11
15.524274
 21
5.860787
 31
0.0
  0
LINE
  5
243
330
23F
100
AcDbEntity
  8
Dimensions
440
 16777216
370
    -2
100
AcDbLine
 10
15.841238
 20
5.760449
 30
0.0
 11
15.961238
 21
5.76032
 31
0.0
  0
LINE
  5
244
330
23F
100
AcDbEntity
  8
Dimensions
440
 16777216
370
    -2
100
AcDbLine
 10
15.404167
 20
5.760915
 30
0.0
 11
15.284167
 21
5.761044
 31
0.0
  0
SOLID
  5
245
330
23F
100
AcDbEntity
  8
Dimensions
440
 16777216
100
AcDbTrace
 10
15.841259
 20
5.780449
 30
0.0
 11
15.841216
 21
5.740449
 31
0.0
 12
15.721238
 22
5.760577
 32
0.0
 13
15.721238
 23
5.760577
 33
0.0
  0
SOLID
  5
246
330
23F
100
AcDbEntity
  8
Dimensions
440
 16777216
100
AcDbTrace
 10
15.404188
 20
5.780915
 30
0.0
 11
15.404146
 21
5.740915
 31
0.0
 12
15.524167
 22
5.760787
 32
0.0
 13
15.524167
 23
5.760787
 33
0.0
  0
MTEXT
  5
247
330
23F
100
AcDbEntity
  8
Dimensions
440
 16777216
100
AcDbMText
 10
15.102407
 20
5.761044
 30
0.0
 40
0.12
 41
0.0
 46
0.0
 71
     5
 72
     1
  1
\A1;.2in
 73
     1
 44
1.0
  0
POINT
  5
248
330
23F
100
AcDbEntity
  8
Defpoints
 62
     0
440
 16777216
100
AcDbPoint
 10
15.720875
 20
5.421166
 30
0.0
  0
POINT
  5
249
330
23F
100
AcDbEntity
  8
Defpoints
 62
     0
440
 16777216
100
AcDbPoint
 10
15.523804
 20
5.421376
 30
0.0
  0
POINT
  5
24A
330
23F
100
AcDbEntity
  8
Defpoints
 62
     0
440
 16777216
100
AcDbPoint
 10
15.524167
 20
5.760787
 30
0.0
  0
ENDBLK
  5
24B
330
23F
100
AcDbEntity
  8
0
100
AcDbBlockEnd
  0
BLOCK
  5
24E
330
24D
100
AcDbEntity
  8
0
100
AcDbBlockBegin
  2
*D15
 70
     1
 10
0.0
 20
0.0
 30
0.0
  3
*D15
  1

  0
LINE
  5
24F
330
24D
100
AcDbEntity
  8
Dimensions
440
 16777216
370
    -2
100
AcDbLine
 10
15.720875
 20
5.471166
 30
0.0
 11
15.720875
 21
8.96073
 31
0.0
  0
LINE
  5
250
330
24D
100
AcDbEntity
  8
Dimensions
440
 16777216
370
    -2
100
AcDbLine
 10
11.62624
 20
5.077536
 30
0.0
 11
11.62624
 21
8.96073
 31
0.0
  0
LINE
  5
251
330
24D
100
AcDbEntity
  8
Dimensions
440
 16777216
370
    -2
100
AcDbLine
 10
15.600875
 20
8.86073
 30
0.0
 11
13.955099
 21
8.86073
 31
0.0
  0
LINE
  5
252
330
24D
100
AcDbEntity
  8
Dimensions
440
 16777216
370
    -2
100
AcDbLine
 10
11.74624
 20
8.86073
 30
0.0
 11
13.392016
 21
8.86073
 31
0.0
  0
SOLID
  5
253
330
24D
100
AcDbEntity
  8
Dimensions
440
 16777216
100
AcDbTrace
 10
15.600875
 20
8.88073
 30
0.0
 11
15.600875
 21
8.84073
 31
0.0
 12
15.720875
 22
8.86073
 32
0.0
 13
15.720875
 23
8.86073
 33
0.0
  0
SOLID
  5
254
330
24D
100
AcDbEntity
  8
Dimensions
440
 16777216
100
AcDbTrace
 10
11.74624
 20
8.88073
 30
0.0
 11
11.74624
 21
8.84073
 31
0.0
 12
11.62624
 22
8.86073
 32
0.0
 13
11.62624
 23
8.86073
 33
0.0
  0
MTEXT
  5
255
330
24D
100
AcDbEntity
  8
Dimensions
440
 16777216
100
AcDbMText
 10
13.673558
 20
8.86073
 30
0.0
 40
0.12
 41
0.0
 46
0.0
 71
     5
 72
     1
  1
\A1;4.09in
 73
     1
 44
1.0
  0
POINT
  5
256
330
24D
100
AcDbEntity
  8
Defpoints
 62
     0
440
 16777216
100
AcDbPoint
 10
15.720875
 20
5.421166
 30
0.0
  0
POINT
  5
257
330
24D
100
AcDbEntity
  8
Defpoints
 62
     0
440
 16777216
100
AcDbPoint
 10
11.62624
 20
5.027536
 30
0.0
  0
POINT
  5
258
330
24D
100
AcDbEntity
  8
Defpoints
 62
     0
440
 16777216
100
AcDbPoint
 10
11.62624
 20
8.86073
 30
0.0
  0
ENDBLK
  5
259
330
24D
100
AcDbEntity
  8
0
100
AcDbBlockEnd
  0
BLOCK
  5
25C
330
25B
100
AcDbEntity
  8
0
100
AcDbBlockBegin
  2
*D16
 70
     1
 10
0.0
 20
0.0
 30
0.0
  3
*D16
  1

  0
LINE
  5
514
330
25B
100
AcDbEntity
  8
Dimensions
440
 16777216
370
    -2
100
AcDbLine
 10
7.220473
 20
7.597254
 30
0.0
 11
7.220472
 21
7.953113
 31
0.0
  0
LINE
  5
515
330
25B
100
AcDbEntity
  8
Dimensions
440
 16777216
370
    -2
100
AcDbLine
 10
9.779527
 20
7.597257
 30
0.0
 11
9.779527
 21
7.953115
 31
0.0
  0
LINE
  5
516
330
25B
100
AcDbEntity
  8
Dimensions
440
 16777216
370
    -2
100
AcDbLine
 10
7.340472
 20
7.853113
 30
0.0
 11
8.21985
 21
7.853114
 31
0.0
  0
LINE
  5
517
330
25B
100
AcDbEntity
  8
Dimensions
440
 16777216
370
    -2
100
AcDbLine
 10
9.659527
 20
7.853115
 30
0.0
 11
8.78015
 21
7.853114
 31
0.0
  0
SOLID
  5
518
330
25B
100
AcDbEntity
  8
Dimensions
440
 16777216
100
AcDbTrace
 10
7.340472
 20
7.873113
 30
0.0
 11
7.340472
 21
7.833113
 31
0.0
 12
7.220472
 22
7.853113
 32
0.0
 13
7.220472
 23
7.853113
 33
0.0
  0
SOLID
  5
519
330
25B
100
AcDbEntity
  8
Dimensions
440
 16777216
100
AcDbTrace
 10
9.659527
 20
7.873115
 30
0.0
 11
9.659527
 21
7.833115
 31
0.0
 12
9.779527
 22
7.853115
 32
0.0
 13
9.779527
 23
7.853115
 33
0.0
  0
MTEXT
  5
51A
330
25B
100
AcDbEntity
  8
Dimensions
440
 16777216
100
AcDbMText
 10
8.5
 20
7.853114
 30
0.0
 40
0.12
 41
0.0
 46
0.0
 71
     5
 72
     1
  1
\A1;2.56in
 73
     1
 44
1.0
  0
POINT
  5
51B
330
25B
100
AcDbEntity
  8
Defpoints
 62
     0
440
 16777216
100
AcDbPoint
 10
7.220473
 20
7.547254
 30
0.0
  0
POINT
  5
51C
330
25B
100
AcDbEntity
  8
Defpoints
 62
     0
440
 16777216
100
AcDbPoint
 10
9.779527
 20
7.547257
 30
0.0
  0
POINT
  5
51D
330
25B
100
AcDbEntity
  8
Defpoints
 62
     0
440
 16777216
100
AcDbPoint
 10
9.779527
 20
7.853115
 30
0.0
  0
ENDBLK
  5
25D
330
25B
100
AcDbEntity
  8
0
100
AcDbBlockEnd
  0
BLOCK
  5
269
330
268
100
AcDbEntity
  8
0
100
AcDbBlockBegin
  2
*D17
 70
     1
 10
0.0
 20
0.0
 30
0.0
  3
*D17
  1

  0
LINE
  5
51E
330
268
100
AcDbEntity
  8
Dimensions
440
 16777216
370
    -2
100
AcDbLine
 10
9.829527
 20
7.547257
 30
0.0
 11
10.14719
 21
7.547257
 31
0.0
  0
LINE
  5
51F
330
268
100
AcDbEntity
  8
Dimensions
440
 16777216
370
    -2
100
AcDbLine
 10
9.829527
 20
7.350407
 30
0.0
 11
10.147191
 21
7.350407
 31
0.0
  0
LINE
  5
520
330
268
100
AcDbEntity
  8
Dimensions
440
 16777216
370
    -2
100
AcDbLine
 10
10.04719
 20
7.667257
 30
0.0
 11
10.04719
 21
7.787257
 31
0.0
  0
LINE
  5
521
330
268
100
AcDbEntity
  8
Dimensions
440
 16777216
370
    -2
100
AcDbLine
 10
10.047191
 20
7.230407
 30
0.0
 11
10.047191
 21
7.110407
 31
0.0
  0
LINE
  5
522
330
268
100
AcDbEntity
  8
Dimensions
440
 16777216
370
    -2
100
AcDbLine
 10
10.047191
 20
7.110407
 30
0.0
 11
10.167191
 21
7.110407
 31
0.0
  0
SOLID
  5
523
330
268
100
AcDbEntity
  8
Dimensions
440
 16777216
100
AcDbTrace
 10
10.06719
 20
7.667257
 30
0.0
 11
10.02719
 21
7.667257
 31
0.0
 12
10.04719
 22
7.547257
 32
0.0
 13
10.04719
 23
7.547257
 33
0.0
  0
SOLID
  5
524
330
268
100
AcDbEntity
  8
Dimensions
440
 16777216
100
AcDbTrace
 10
10.067191
 20
7.230407
 30
0.0
 11
10.027191
 21
7.230407
 31
0.0
 12
10.047191
 22
7.350407
 32
0.0
 13
10.047191
 23
7.350407
 33
0.0
  0
MTEXT
  5
525
330
268
100
AcDbEntity
  8
Dimensions
440
 16777216
100
AcDbMText
 10
10.348951
 20
7.110407
 30
0.0
 40
0.12
 41
0.0
 46
0.0
 71
     5
 72
     1
  1
\A1;.2in
 73
     1
 44
1.0
  0
POINT
  5
526
330
268
100
AcDbEntity
  8
Defpoints
 62
     0
440
 16777216
100
AcDbPoint
 10
9.779527
 20
7.547257
 30
0.0
  0
POINT
  5
527
330
268
100
AcDbEntity
  8
Defpoints
 62
     0
440
 16777216
100
AcDbPoint
 10
9.779527
 20
7.350407
 30
0.0
  0
POINT
  5
528
330
268
100
AcDbEntity
  8
Defpoints
 62
     0
440
 16777216
100
AcDbPoint
 10
10.047191
 20
7.350407
 30
0.0
  0
ENDBLK
  5
26A
330
268
100
AcDbEntity
  8
0
100
AcDbBlockEnd
  0
BLOCK
  5
277
330
276
100
AcDbEntity
  8
0
100
AcDbBlockBegin
  2
*D18
 70
     1
 10
0.0
 20
0.0
 30
0.0
  3
*D18
  1

  0
LINE
  5
529
330
276
100
AcDbEntity
  8
Dimensions
440
 16777216
370
    -2
100
AcDbLine
 10
9.681486
 20
3.796573
 30
0.0
 11
9.681486
 21
2.728129
 31
0.0
  0
LINE
  5
52A
330
276
100
AcDbEntity
  8
Dimensions
440
 16777216
370
    -2
100
AcDbLine
 10
7.319282
 20
3.796363
 30
0.0
 11
7.319282
 21
2.728129
 31
0.0
  0
LINE
  5
52B
330
276
100
AcDbEntity
  8
Dimensions
440
 16777216
370
    -2
100
AcDbLine
 10
9.561486
 20
2.828129
 30
0.0
 11
8.780534
 21
2.828129
 31
0.0
  0
LINE
  5
52C
330
276
100
AcDbEntity
  8
Dimensions
440
 16777216
370
    -2
100
AcDbLine
 10
7.439282
 20
2.828129
 30
0.0
 11
8.220234
 21
2.828129
 31
0.0
  0
SOLID
  5
52D
330
276
100
AcDbEntity
  8
Dimensions
440
 16777216
100
AcDbTrace
 10
9.561486
 20
2.848129
 30
0.0
 11
9.561486
 21
2.808129
 31
0.0
 12
9.681486
 22
2.828129
 32
0.0
 13
9.681486
 23
2.828129
 33
0.0
  0
SOLID
  5
52E
330
276
100
AcDbEntity
  8
Dimensions
440
 16777216
100
AcDbTrace
 10
7.439282
 20
2.848129
 30
0.0
 11
7.439282
 21
2.808129
 31
0.0
 12
7.319282
 22
2.828129
 32
0.0
 13
7.319282
 23
2.828129
 33
0.0
  0
MTEXT
  5
52F
330
276
100
AcDbEntity
  8
Dimensions
440
 16777216
100
AcDbMText
 10
8.500384
 20
2.828129
 30
0.0
 40
0.12
 41
0.0
 46
0.0
 71
     5
 72
     1
  1
\A1;2.36in
 73
     1
 44
1.0
  0
POINT
  5
530
330
276
100
AcDbEntity
  8
Defpoints
 62
     0
440
 16777216
100
AcDbPoint
 10
9.681486
 20
3.846573
 30
0.0
  0
POINT
  5
531
330
276
100
AcDbEntity
  8
Defpoints
 62
     0
440
 16777216
100
AcDbPoint
 10
7.319282
 20
3.846363
 30
0.0
  0
POINT
  5
532
330
276
100
AcDbEntity
  8
Defpoints
 62
     0
440
 16777216
100
AcDbPoint
 10
7.319282
 20
2.828129
 30
0.0
  0
ENDBLK
  5
278
330
276
100
AcDbEntity
  8
0
100
AcDbBlockEnd
  0
BLOCK
  5
284
330
283
100
AcDbEntity
  8
0
100
AcDbBlockBegin
  2
*D19
 70
     1
 10
0.0
 20
0.0
 30
0.0
  3
*D19
  1

  0
LINE
  5
533
330
283
100
AcDbEntity
  8
Dimensions
440
 16777216
370
    -2
100
AcDbLine
 10
7.269141
 20
5.421161
 30
0.0
 11
6.87973
 21
5.421127
 31
0.0
  0
LINE
  5
534
330
283
100
AcDbEntity
  8
Dimensions
440
 16777216
370
    -2
100
AcDbLine
 10
7.269282
 20
3.846358
 30
0.0
 11
6.87987
 21
3.846323
 31
0.0
  0
LINE
  5
535
330
283
100
AcDbEntity
  8
Dimensions
440
 16777216
370
    -2
100
AcDbLine
 10
6.979741
 20
5.301135
 30
0.0
 11
6.979789
 21
4.755003
 31
0.0
  0
LINE
  5
536
330
283
100
AcDbEntity
  8
Dimensions
440
 16777216
370
    -2
100
AcDbLine
 10
6.97986
 20
3.966332
 30
0.0
 11
6.979811
 21
4.512465
 31
0.0
  0
SOLID
  5
537
330
283
100
AcDbEntity
  8
Dimensions
440
 16777216
100
AcDbTrace
 10
6.999741
 20
5.301137
 30
0.0
 11
6.959741
 21
5.301134
 31
0.0
 12
6.97973
 22
5.421135
 32
0.0
 13
6.97973
 23
5.421135
 33
0.0
  0
SOLID
  5
538
330
283
100
AcDbEntity
  8
Dimensions
440
 16777216
100
AcDbTrace
 10
6.99986
 20
3.966334
 30
0.0
 11
6.95986
 21
3.966331
 31
0.0
 12
6.97987
 22
3.846332
 32
0.0
 13
6.97987
 23
3.846332
 33
0.0
  0
MTEXT
  5
539
330
283
100
AcDbEntity
  8
Dimensions
440
 16777216
100
AcDbMText
 10
6.9798
 20
4.633734
 30
0.0
 40
0.12
 41
0.0
 46
0.0
 71
     5
 72
     1
  1
\A1;1.57in
 73
     1
 44
1.0
  0
POINT
  5
53A
330
283
100
AcDbEntity
  8
Defpoints
 62
     0
440
 16777216
100
AcDbPoint
 10
7.319141
 20
5.421166
 30
0.0
  0
POINT
  5
53B
330
283
100
AcDbEntity
  8
Defpoints
 62
     0
440
 16777216
100
AcDbPoint
 10
7.319282
 20
3.846363
 30
0.0
  0
POINT
  5
53C
330
283
100
AcDbEntity
  8
Defpoints
 62
     0
440
 16777216
100
AcDbPoint
 10
6.97987
 20
3.846332
 30
0.0
  0
ENDBLK
  5
285
330
283
100
AcDbEntity
  8
0
100
AcDbBlockEnd
  0
BLOCK
  5
291
330
290
100
AcDbEntity
  8
0
100
AcDbBlockBegin
  2
*D20
 70
     1
 10
0.0
 20
0.0
 30
0.0
  3
*D20
  1

  0
LINE
  5
53D
330
290
100
AcDbEntity
  8
Dimensions
440
 16777216
370
    -2
100
AcDbLine
 10
8.944053
 20
5.027531
 30
0.0
 11
9.333465
 21
5.027496
 31
0.0
  0
LINE
  5
53E
330
290
100
AcDbEntity
  8
Dimensions
440
 16777216
370
    -2
100
AcDbLine
 10
8.943983
 20
4.240129
 30
0.0
 11
9.333394
 21
4.240094
 31
0.0
  0
LINE
  5
53F
330
290
100
AcDbEntity
  8
Dimensions
440
 16777216
370
    -2
100
AcDbLine
 10
9.233454
 20
4.907505
 30
0.0
 11
9.23344
 21
4.755073
 31
0.0
  0
LINE
  5
540
330
290
100
AcDbEntity
  8
Dimensions
440
 16777216
370
    -2
100
AcDbLine
 10
9.233405
 20
4.360103
 30
0.0
 11
9.233419
 21
4.512535
 31
0.0
  0
SOLID
  5
541
330
290
100
AcDbEntity
  8
Dimensions
440
 16777216
100
AcDbTrace
 10
9.213454
 20
4.907507
 30
0.0
 11
9.253454
 21
4.907503
 31
0.0
 12
9.233465
 22
5.027505
 32
0.0
 13
9.233465
 23
5.027505
 33
0.0
  0
SOLID
  5
542
330
290
100
AcDbEntity
  8
Dimensions
440
 16777216
100
AcDbTrace
 10
9.213405
 20
4.360105
 30
0.0
 11
9.253405
 21
4.360101
 31
0.0
 12
9.233394
 22
4.240103
 32
0.0
 13
9.233394
 23
4.240103
 33
0.0
  0
MTEXT
  5
543
330
290
100
AcDbEntity
  8
Dimensions
440
 16777216
100
AcDbMText
 10
9.233429
 20
4.633804
 30
0.0
 40
0.12
 41
0.0
 46
0.0
 71
     5
 72
     1
  1
\A1;.79in
 73
     1
 44
1.0
  0
POINT
  5
544
330
290
100
AcDbEntity
  8
Defpoints
 62
     0
440
 16777216
100
AcDbPoint
 10
8.894053
 20
5.027535
 30
0.0
  0
POINT
  5
545
330
290
100
AcDbEntity
  8
Defpoints
 62
     0
440
 16777216
100
AcDbPoint
 10
8.893983
 20
4.240134
 30
0.0
  0
POINT
  5
546
330
290
100
AcDbEntity
  8
Defpoints
 62
     0
440
 16777216
100
AcDbPoint
 10
9.233394
 20
4.240103
 30
0.0
  0
ENDBLK
  5
292
330
290
100
AcDbEntity
  8
0
100
AcDbBlockEnd
  0
BLOCK
  5
29E
330
29D
100
AcDbEntity
  8
0
100
AcDbBlockBegin
  2
*D21
 70
     1
 10
0.0
 20
0.0
 30
0.0
  3
*D21
  1

  0
LINE
  5
547
330
29D
100
AcDbEntity
  8
Dimensions
440
 16777216
370
    -2
100
AcDbLine
 10
8.775487
 20
3.402743
 30
0.0
 11
8.775473
 21
3.24809
 31
0.0
  0
LINE
  5
548
330
29D
100
AcDbEntity
  8
Dimensions
440
 16777216
370
    -2
100
AcDbLine
 10
8.224306
 20
3.402792
 30
0.0
 11
8.224292
 21
3.248139
 31
0.0
  0
LINE
  5
549
330
29D
100
AcDbEntity
  8
Dimensions
440
 16777216
370
    -2
100
AcDbLine
 10
8.895482
 20
3.348079
 30
0.0
 11
9.015482
 21
3.348069
 31
0.0
  0
LINE
  5
54A
330
29D
100
AcDbEntity
  8
Dimensions
440
 16777216
370
    -2
100
AcDbLine
 10
8.104301
 20
3.34815
 30
0.0
 11
7.984301
 21
3.348161
 31
0.0
  0
SOLID
  5
54B
330
29D
100
AcDbEntity
  8
Dimensions
440
 16777216
100
AcDbTrace
 10
8.895484
 20
3.368079
 30
0.0
 11
8.89548
 21
3.328079
 31
0.0
 12
8.775482
 22
3.34809
 32
0.0
 13
8.775482
 23
3.34809
 33
0.0
  0
SOLID
  5
54C
330
29D
100
AcDbEntity
  8
Dimensions
440
 16777216
100
AcDbTrace
 10
8.104303
 20
3.36815
 30
0.0
 11
8.104299
 21
3.32815
 31
0.0
 12
8.224301
 22
3.348139
 32
0.0
 13
8.224301
 23
3.348139
 33
0.0
  0
MTEXT
  5
54D
330
29D
100
AcDbEntity
  8
Dimensions
440
 16777216
100
AcDbMText
 10
8.499892
 20
3.348115
 30
0.0
 40
0.12
 41
0.0
 46
0.0
 71
     5
 72
     1
  1
\A1;.55in
 73
     1
 44
1.0
  0
POINT
  5
54E
330
29D
100
AcDbEntity
  8
Defpoints
 62
     0
440
 16777216
100
AcDbPoint
 10
8.775491
 20
3.452743
 30
0.0
  0
POINT
  5
54F
330
29D
100
AcDbEntity
  8
Defpoints
 62
     0
440
 16777216
100
AcDbPoint
 10
8.22431
 20
3.452792
 30
0.0
  0
POINT
  5
550
330
29D
100
AcDbEntity
  8
Defpoints
 62
     0
440
 16777216
100
AcDbPoint
 10
8.224301
 20
3.348139
 30
0.0
  0
ENDBLK
  5
29F
330
29D
100
AcDbEntity
  8
0
100
AcDbBlockEnd
  0
BLOCK
  5
2AB
330
2AA
100
AcDbEntity
  8
0
100
AcDbBlockBegin
  2
*D22
 70
     1
 10
0.0
 20
0.0
 30
0.0
  3
*D22
  1

  0
LINE
  5
551
330
2AA
100
AcDbEntity
  8
Dimensions
440
 16777216
370
    -2
100
AcDbLine
 10
12.137884
 20
7.717256
 30
0.0
 11
12.137884
 21
8.106667
 31
0.0
  0
LINE
  5
552
330
2AA
100
AcDbEntity
  8
Dimensions
440
 16777216
370
    -2
100
AcDbLine
 10
15.720875
 20
5.471166
 30
0.0
 11
15.720875
 21
8.106667
 31
0.0
  0
LINE
  5
553
330
2AA
100
AcDbEntity
  8
Dimensions
440
 16777216
370
    -2
100
AcDbLine
 10
12.257884
 20
8.006667
 30
0.0
 11
13.650294
 21
8.006667
 31
0.0
  0
LINE
  5
554
330
2AA
100
AcDbEntity
  8
Dimensions
440
 16777216
370
    -2
100
AcDbLine
 10
15.600875
 20
8.006667
 30
0.0
 11
14.208465
 21
8.006667
 31
0.0
  0
SOLID
  5
555
330
2AA
100
AcDbEntity
  8
Dimensions
440
 16777216
100
AcDbTrace
 10
12.257884
 20
8.026667
 30
0.0
 11
12.257884
 21
7.986667
 31
0.0
 12
12.137884
 22
8.006667
 32
0.0
 13
12.137884
 23
8.006667
 33
0.0
  0
SOLID
  5
556
330
2AA
100
AcDbEntity
  8
Dimensions
440
 16777216
100
AcDbTrace
 10
15.600875
 20
8.026667
 30
0.0
 11
15.600875
 21
7.986667
 31
0.0
 12
15.720875
 22
8.006667
 32
0.0
 13
15.720875
 23
8.006667
 33
0.0
  0
MTEXT
  5
557
330
2AA
100
AcDbEntity
  8
Dimensions
440
 16777216
100
AcDbMText
 10
13.92938
 20
8.006667
 30
0.0
 40
0.12
 41
0.0
 46
0.0
 71
     5
 72
     1
  1
\A1;3.58in
 73
     1
 44
1.0
  0
POINT
  5
558
330
2AA
100
AcDbEntity
  8
Defpoints
 62
     0
440
 16777216
100
AcDbPoint
 10
12.137884
 20
7.667256
 30
0.0
  0
POINT
  5
559
330
2AA
100
AcDbEntity
  8
Defpoints
 62
     0
440
 16777216
100
AcDbPoint
 10
15.720875
 20
5.421166
 30
0.0
  0
POINT
  5
55A
330
2AA
100
AcDbEntity
  8
Defpoints
 62
     0
440
 16777216
100
AcDbPoint
 10
15.720875
 20
8.006667
 30
0.0
  0
ENDBLK
  5
2AC
330
2AA
100
AcDbEntity
  8
0
100
AcDbBlockEnd
  0
BLOCK
  5
2B8
330
2B7
100
AcDbEntity
  8
0
100
AcDbBlockBegin
  2
*D23
 70
     1
 10
0.0
 20
0.0
 30
0.0
  3
*D23
  1

  0
LINE
  5
55B
330
2B7
100
AcDbEntity
  8
Dimensions
440
 16777216
370
    -2
100
AcDbLine
 10
15.720929
 20
5.471166
 30
0.0
 11
15.721345
 21
5.860577
 31
0.0
  0
LINE
  5
55C
330
2B7
100
AcDbEntity
  8
Dimensions
440
 16777216
370
    -2
100
AcDbLine
 10
15.523858
 20
5.471376
 30
0.0
 11
15.524274
 21
5.860787
 31
0.0
  0
LINE
  5
55D
330
2B7
100
AcDbEntity
  8
Dimensions
440
 16777216
370
    -2
100
AcDbLine
 10
15.841238
 20
5.760449
 30
0.0
 11
15.961238
 21
5.76032
 31
0.0
  0
LINE
  5
55E
330
2B7
100
AcDbEntity
  8
Dimensions
440
 16777216
370
    -2
100
AcDbLine
 10
15.404167
 20
5.760915
 30
0.0
 11
15.284167
 21
5.761044
 31
0.0
  0
SOLID
  5
55F
330
2B7
100
AcDbEntity
  8
Dimensions
440
 16777216
100
AcDbTrace
 10
15.841259
 20
5.780449
 30
0.0
 11
15.841216
 21
5.740449
 31
0.0
 12
15.721238
 22
5.760577
 32
0.0
 13
15.721238
 23
5.760577
 33
0.0
  0
SOLID
  5
560
330
2B7
100
AcDbEntity
  8
Dimensions
440
 16777216
100
AcDbTrace
 10
15.404188
 20
5.780915
 30
0.0
 11
15.404146
 21
5.740915
 31
0.0
 12
15.524167
 22
5.760787
 32
0.0
 13
15.524167
 23
5.760787
 33
0.0
  0
MTEXT
  5
561
330
2B7
100
AcDbEntity
  8
Dimensions
440
 16777216
100
AcDbMText
 10
15.102407
 20
5.761044
 30
0.0
 40
0.12
 41
0.0
 46
0.0
 71
     5
 72
     1
  1
\A1;.2in
 73
     1
 44
1.0
  0
POINT
  5
562
330
2B7
100
AcDbEntity
  8
Defpoints
 62
     0
440
 16777216
100
AcDbPoint
 10
15.720875
 20
5.421166
 30
0.0
  0
POINT
  5
563
330
2B7
100
AcDbEntity
  8
Defpoints
 62
     0
440
 16777216
100
AcDbPoint
 10
15.523804
 20
5.421376
 30
0.0
  0
POINT
  5
564
330
2B7
100
AcDbEntity
  8
Defpoints
 62
     0
440
 16777216
100
AcDbPoint
 10
15.524167
 20
5.760787
 30
0.0
  0
ENDBLK
  5
2B9
330
2B7
100
AcDbEntity
  8
0
100
AcDbBlockEnd
  0
BLOCK
  5
2C5
330
2C4
100
AcDbEntity
  8
0
100
AcDbBlockBegin
  2
*D24
 70
     1
 10
0.0
 20
0.0
 30
0.0
  3
*D24
  1

  0
LINE
  5
565
330
2C4
100
AcDbEntity
  8
Dimensions
440
 16777216
370
    -2
100
AcDbLine
 10
15.720875
 20
5.471166
 30
0.0
 11
15.720875
 21
8.96073
 31
0.0
  0
LINE
  5
566
330
2C4
100
AcDbEntity
  8
Dimensions
440
 16777216
370
    -2
100
AcDbLine
 10
11.62624
 20
5.077536
 30
0.0
 11
11.62624
 21
8.96073
 31
0.0
  0
LINE
  5
567
330
2C4
100
AcDbEntity
  8
Dimensions
440
 16777216
370
    -2
100
AcDbLine
 10
15.600875
 20
8.86073
 30
0.0
 11
13.955099
 21
8.86073
 31
0.0
  0
LINE
  5
568
330
2C4
100
AcDbEntity
  8
Dimensions
440
 16777216
370
    -2
100
AcDbLine
 10
11.74624
 20
8.86073
 30
0.0
 11
13.392016
 21
8.86073
 31
0.0
  0
SOLID
  5
569
330
2C4
100
AcDbEntity
  8
Dimensions
440
 16777216
100
AcDbTrace
 10
15.600875
 20
8.88073
 30
0.0
 11
15.600875
 21
8.84073
 31
0.0
 12
15.720875
 22
8.86073
 32
0.0
 13
15.720875
 23
8.86073
 33
0.0
  0
SOLID
  5
56A
330
2C4
100
AcDbEntity
  8
Dimensions
440
 16777216
100
AcDbTrace
 10
11.74624
 20
8.88073
 30
0.0
 11
11.74624
 21
8.84073
 31
0.0
 12
11.62624
 22
8.86073
 32
0.0
 13
11.62624
 23
8.86073
 33
0.0
  0
MTEXT
  5
56B
330
2C4
100
AcDbEntity
  8
Dimensions
440
 16777216
100
AcDbMText
 10
13.673558
 20
8.86073
 30
0.0
 40
0.12
 41
0.0
 46
0.0
 71
     5
 72
     1
  1
\A1;4.09in
 73
     1
 44
1.0
  0
POINT
  5
56C
330
2C4
100
AcDbEntity
  8
Defpoints
 62
     0
440
 16777216
100
AcDbPoint
 10
15.720875
 20
5.421166
 30
0.0
  0
POINT
  5
56D
330
2C4
100
AcDbEntity
  8
Defpoints
 62
     0
440
 16777216
100
AcDbPoint
 10
11.62624
 20
5.027536
 30
0.0
  0
POINT
  5
56E
330
2C4
100
AcDbEntity
  8
Defpoints
 62
     0
440
 16777216
100
AcDbPoint
 10
11.62624
 20
8.86073
 30
0.0
  0
ENDBLK
  5
2C6
330
2C4
100
AcDbEntity
  8
0
100
AcDbBlockEnd
  0
ENDSEC
  0
SECTION
  2
ENTITIES
  0
INSERT
  5
18E
330
70
100
AcDbEntity
  8
Titleblock
100
AcDbBlockReference
 66
     1
  2
Shower
 10
16.38
 20
0.38
 30
0.0
  0
ATTRIB
  5
1AE
330
18E
100
AcDbEntity
  8
Titleblock
  6
Continuous
370
    25
100
AcDbText
 10
12.6925
 20
2.6925
 30
0.0
 40
0.12
  1
Railing Products and Mock Ups
100
AcDbAttribute
280
     0
  2
PROJECT
 70
     0
280
     1
1001
FD_ATT_APPNAME
1005
19C
  0
ATTRIB
  5
1AF
330
18E
100
AcDbEntity
  8
Titleblock
  6
Continuous
370
    25
100
AcDbText
 10
14.6925
 20
1.0675
 30
0.0
 40
0.12
  1
2/11/2020
100
AcDbAttribute
280
     0
  2
DRAWN_DATE
 70
     0
280
     1
1001
FD_ATT_APPNAME
1005
19E
  0
ATTRIB
  5
1B0
330
18E
100
AcDbEntity
  8
Titleblock
  6
Continuous
370
    25
100
AcDbText
 10
12.0675
 20
2.1925
 30
0.0
 40
0.3048
  1
R13-4145-000-12
100
AcDbAttribute
280
     0
  2
TITLE_1
 70
     0
280
     1
1001
FD_ATT_APPNAME
1005
19F
  0
ATTRIB
  5
1B1
330
18E
100
AcDbEntity
  8
Titleblock
  6
Continuous
370
    25
100
AcDbText
 10
14.6925
 20
1.29994
 30
0.0
 40
0.12
  1
1:1
100
AcDbAttribute
280
     0
  2
SCALE
 70
     0
280
     1
1001
FD_ATT_APPNAME
1005
1A0
  0
SEQEND
  5
1B2
330
18E
100
AcDbEntity
  8
Titleblock
  0
INSERT
  5
1B3
330
70
100
AcDbEntity
  8
Border
100
AcDbBlockReference
  2
ANSI_B_SHEET
 10
0.0
 20
0.0
 30
0.0
  0
DIMENSION
  5
1D4
330
70
100
AcDbEntity
  8
Dimensions
100
AcDbDimension
280
     0
  2
*D16
 10
9.779527
 20
7.853115
 30
0.0
 11
8.5
 21
7.853114
 31
0.0
 70
   161
 71
     5
 42
2.559055
 73
     0
 74
     0
 75
     0
  3
Standard
100
AcDbAlignedDimension
 13
7.220473
 23
7.547254
 33
0.0
 14
9.779527
 24
7.547257
 34
0.0
1001
ACAD_DIMASSOC_CALC_DIMLFAC
1040
-1.0
1001
ACAD_DIMASSOC_DIMLFAC
1040
-1.0
1001
ACAD_DIMASSOC_OVERRIDDEN_DIMLFAC
1040
0.0
1001
ACAD
1000
DSTYLE
1002
{
1070
   144
1040
1.0
1002
}
  0
DIMENSION
  5
1E3
330
70
100
AcDbEntity
  8
Dimensions
100
AcDbDimension
280
     0
  2
*D17
 10
10.047191
 20
7.350407
 30
0.0
 11
10.348951
 21
7.110407
 31
0.0
 70
    33
 71
     5
 42
0.19685
 73
     0
 74
     0
 75
     0
  3
Standard
100
AcDbAlignedDimension
 13
9.779527
 23
7.547257
 33
0.0
 14
9.779527
 24
7.350407
 34
0.0
1001
ACAD_DIMASSOC_CALC_DIMLFAC
1040
-1.0
1001
ACAD_DIMASSOC_DIMLFAC
1040
-1.0
1001
ACAD_DIMASSOC_OVERRIDDEN_DIMLFAC
1040
0.0
1001
ACAD
1000
DSTYLE
1002
{
1070
   144
1040
1.0
1070
   176
1070
   256
1070
   177
1070
   256
1002
}
  0
DIMENSION
  5
1F2
330
70
100
AcDbEntity
  8
Dimensions
100
AcDbDimension
280
     0
  2
*D18
 10
7.319282
 20
2.828129
 30
0.0
 11
8.500384
 21
2.828129
 31
0.0
 70
    32
 71
     5
 42
2.362205
 73
     0
 74
     0
 75
     0
  3
Standard
100
AcDbAlignedDimension
 13
9.681486
 23
3.846573
 33
0.0
 14
7.319282
 24
3.846363
 34
0.0
100
AcDbRotatedDimension
1001
ACAD_DIMASSOC_CALC_DIMLFAC
1040
-1.0
1001
ACAD_DIMASSOC_DIMLFAC
1040
-1.0
1001
ACAD_DIMASSOC_OVERRIDDEN_DIMLFAC
1040
0.0
1001
ACAD
1000
DSTYLE
1002
{
1070
   177
1070
   256
1070
   176
1070
   256
1070
   144
1040
1.0
1002
}
  0
DIMENSION
  5
200
330
70
100
AcDbEntity
  8
Dimensions
100
AcDbDimension
280
     0
  2
*D19
 10
6.97987
 20
3.846332
 30
0.0
 11
6.9798
 21
4.633734
 31
0.0
 70
    33
 71
     5
 42
1.574803
 73
     0
 74
     0
 75
     0
  3
Standard
100
AcDbAlignedDimension
 13
7.319141
 23
5.421166
 33
0.0
 14
7.319282
 24
3.846363
 34
0.0
1001
ACAD_DIMASSOC_CALC_DIMLFAC
1040
-1.0
1001
ACAD_DIMASSOC_DIMLFAC
1040
-1.0
1001
ACAD_DIMASSOC_OVERRIDDEN_DIMLFAC
1040
0.0
1001
ACAD
1000
DSTYLE
1002
{
1070
   144
1040
1.0
1070
   176
1070
   256
1070
   177
1070
   256
1002
}
  0
DIMENSION
  5
20E
330
70
100
AcDbEntity
  8
Dimensions
100
AcDbDimension
280
     0
  2
*D20
 10
9.233394
 20
4.240103
 30
0.0
 11
9.233429
 21
4.633804
 31
0.0
 70
    33
 71
     5
 42
0.787402
 73
     0
 74
     0
 75
     0
  3
Standard
100
AcDbAlignedDimension
 13
8.894053
 23
5.027535
 33
0.0
 14
8.893983
 24
4.240134
 34
0.0
1001
ACAD_DIMASSOC_CALC_DIMLFAC
1040
-1.0
1001
ACAD_DIMASSOC_DIMLFAC
1040
-1.0
1001
ACAD_DIMASSOC_OVERRIDDEN_DIMLFAC
1040
0.0
1001
ACAD
1000
DSTYLE
1002
{
1070
   144
1040
1.0
1070
   176
1070
   256
1070
   177
1070
   256
1002
}
  0
DIMENSION
  5
21C
330
70
100
AcDbEntity
  8
Dimensions
100
AcDbDimension
280
     0
  2
*D21
 10
8.224301
 20
3.348139
 30
0.0
 11
8.499892
 21
3.348115
 31
0.0
 70
    33
 71
     5
 42
0.551181
 73
     0
 74
     0
 75
     0
  3
Standard
100
AcDbAlignedDimension
 13
8.775491
 23
3.452743
 33
0.0
 14
8.22431
 24
3.452792
 34
0.0
1001
ACAD_DIMASSOC_CALC_DIMLFAC
1040
-1.0
1001
ACAD_DIMASSOC_DIMLFAC
1040
-1.0
1001
ACAD_DIMASSOC_OVERRIDDEN_DIMLFAC
1040
0.0
1001
ACAD
1000
DSTYLE
1002
{
1070
   144
1040
1.0
1070
   176
1070
   256
1070
   177
1070
   256
1002
}
  0
INSERT
  5
22A
330
70
100
AcDbEntity
  8
Center Lines
 48
0.75
100
AcDbBlockReference
  2
*U12
 10
12.137884
 20
7.44883
 30
0.0
  0
DIMENSION
  5
230
330
70
100
AcDbEntity
  8
Dimensions
100
AcDbDimension
280
     0
  2
*D22
 10
15.720875
 20
8.006667
 30
0.0
 11
13.92938
 21
8.006667
 31
0.0
 70
    32
 71
     5
 42
3.582991
 73
     0
 74
     0
 75
     0
  3
Standard
100
AcDbAlignedDimension
 13
12.137884
 23
7.667256
 33
0.0
 14
15.720875
 24
5.421166
 34
0.0
100
AcDbRotatedDimension
1001
ACAD_DIMASSOC_CALC_DIMLFAC
1040
-1.0
1001
ACAD_DIMASSOC_DIMLFAC
1040
-1.0
1001
ACAD_DIMASSOC_OVERRIDDEN_DIMLFAC
1040
0.0
1001
ACAD
1000
DSTYLE
1002
{
1070
   177
1070
   256
1070
   176
1070
   256
1070
   144
1040
1.0
1002
}
  0
DIMENSION
  5
23E
330
70
100
AcDbEntity
  8
Dimensions
100
AcDbDimension
280
     0
  2
*D23
 10
15.524167
 20
5.760787
 30
0.0
 11
15.102407
 21
5.761044
 31
0.0
 70
    33
 71
     5
 42
0.197071
 73
     0
 74
     0
 75
     0
  3
Standard
100
AcDbAlignedDimension
 13
15.720875
 23
5.421166
 33
0.0
 14
15.523804
 24
5.421376
 34
0.0
1001
ACAD_DIMASSOC_CALC_DIMLFAC
1040
-1.0
1001
ACAD_DIMASSOC_DIMLFAC
1040
-1.0
1001
ACAD_DIMASSOC_OVERRIDDEN_DIMLFAC
1040
0.0
1001
ACAD
1000
DSTYLE
1002
{
1070
   177
1070
   256
1070
   176
1070
   256
1070
   144
1040
1.0
1002
}
  0
DIMENSION
  5
24C
330
70
100
AcDbEntity
  8
Dimensions
100
AcDbDimension
280
     0
  2
*D24
 10
11.62624
 20
8.86073
 30
0.0
 11
13.673558
 21
8.86073
 31
0.0
 70
    32
 71
     5
 42
4.094635
 73
     0
 74
     0
 75
     0
  3
Standard
100
AcDbAlignedDimension
 13
15.720875
 23
5.421166
 33
0.0
 14
11.62624
 24
5.027536
 34
0.0
100
AcDbRotatedDimension
1001
ACAD_DIMASSOC_CALC_DIMLFAC
1040
-1.0
1001
ACAD_DIMASSOC_DIMLFAC
1040
-1.0
1001
ACAD_DIMASSOC_OVERRIDDEN_DIMLFAC
1040
0.0
1001
ACAD
1000
DSTYLE
1002
{
1070
   177
1070
   256
1070
   176
1070
   256
1070
   144
1040
1.0
1002
}
  0
LINE
  5
3E3
330
70
100
AcDbEntity
  8
Visible
100
AcDbLine
 10
9.681346
 20
5.421376
 30
-1.850247
 11
9.681486
 21
3.846573
 31
-1.850247
210
0.0
220
1.0
230
0.0
  0
LINE
  5
3E4
330
70
100
AcDbEntity
  8
Visible
100
AcDbLine
 10
7.319141
 20
5.421166
 30
-1.850467
 11
8.224061
 21
5.421246
 31
-1.850383
210
0.0
220
1.0
230
0.0
  0
LINE
  5
3E5
330
70
100
AcDbEntity
  8
Visible
100
AcDbLine
 10
8.775667
 20
5.421295
 30
-1.850331
 11
9.681346
 21
5.421376
 31
-1.850247
210
0.0
220
1.0
230
0.0
  0
LINE
  5
3E6
330
70
100
AcDbEntity
  8
Visible
100
AcDbLine
 10
7.319282
 20
3.846363
 30
-1.850467
 11
7.319141
 21
5.421166
 31
-1.850467
210
0.0
220
1.0
230
0.0
  0
LINE
  5
3E7
330
70
100
AcDbEntity
  8
Visible
100
AcDbLine
 10
9.681486
 20
3.846573
 30
-1.850247
 11
8.775526
 21
3.846492
 31
-1.850331
210
0.0
220
1.0
230
0.0
  0
LINE
  5
3E8
330
70
100
AcDbEntity
  8
Visible
100
AcDbLine
 10
8.22392
 20
3.846443
 30
-1.850383
 11
7.319282
 21
3.846363
 31
-1.850467
210
0.0
220
1.0
230
0.0
  0
LINE
  5
3E9
330
70
100
AcDbEntity
  8
Visible
100
AcDbLine
 10
9.681486
 20
3.846573
 30
-1.850247
 11
9.681505
 21
3.846573
 31
-2.047097
210
0.0
220
1.0
230
0.0
  0
LINE
  5
3EA
330
70
100
AcDbEntity
  8
Visible
100
AcDbLine
 10
9.681505
 20
3.846573
 30
-2.047097
 11
9.681364
 21
5.421376
 31
-2.047097
210
0.0
220
1.0
230
0.0
  0
LINE
  5
3EB
330
70
100
AcDbEntity
  8
Visible
100
AcDbLine
 10
9.681346
 20
5.421376
 30
-1.850247
 11
9.681364
 21
5.421376
 31
-2.047097
210
0.0
220
1.0
230
0.0
  0
LINE
  5
3EC
330
70
100
AcDbEntity
  8
Visible
100
AcDbLine
 10
8.775527
 20
4.240145
 30
1.811086
 11
8.775527
 21
4.240145
 31
1.811052
210
0.0
220
1.0
230
0.0
  0
LINE
  5
3ED
330
70
100
AcDbEntity
  8
Visible
100
AcDbLine
 10
8.775561
 20
4.240145
 30
1.446515
 11
8.775579
 21
4.240144
 31
1.259905
210
0.0
220
1.0
230
0.0
  0
LINE
  5
3EE
330
70
100
AcDbEntity
  8
Visible
100
AcDbLine
 10
8.22435
 20
4.240194
 30
1.771886
 11
8.224346
 21
4.240194
 31
1.811035
210
0.0
220
1.0
230
0.0
  0
LINE
  5
3EF
330
70
100
AcDbEntity
  8
Visible
100
AcDbLine
 10
8.893616
 20
4.240134
 30
2.047318
 11
8.106214
 21
4.240204
 31
2.047244
210
0.0
220
1.0
230
0.0
  0
LINE
  5
3F0
330
70
100
AcDbEntity
  8
Visible
100
AcDbLine
 10
8.106578
 20
4.240204
 30
-1.850394
 11
8.106214
 21
4.240204
 31
2.047244
210
0.0
220
1.0
230
0.0
  0
LINE
  5
3F1
330
70
100
AcDbEntity
  8
Visible
100
AcDbLine
 10
8.893979
 20
4.240134
 30
-1.85032
 11
8.893616
 21
4.240134
 31
2.047318
210
0.0
220
1.0
230
0.0
  0
LINE
  5
3F2
330
70
100
AcDbEntity
  8
Visible
100
AcDbLine
 10
8.106214
 20
4.240204
 30
2.047244
 11
8.106284
 21
5.027606
 31
2.047244
210
0.0
220
1.0
230
0.0
  0
LINE
  5
3F3
330
70
100
AcDbEntity
  8
Visible
100
AcDbLine
 10
8.106284
 20
5.027606
 30
2.047244
 11
8.893686
 21
5.027536
 31
2.047318
210
0.0
220
1.0
230
0.0
  0
LINE
  5
3F4
330
70
100
AcDbEntity
  8
Visible
100
AcDbLine
 10
8.89405
 20
5.027535
 30
-1.85032
 11
8.893686
 21
5.027536
 31
2.047318
210
0.0
220
1.0
230
0.0
  0
LINE
  5
3F5
330
70
100
AcDbEntity
  8
Visible
100
AcDbLine
 10
8.893686
 20
5.027536
 30
2.047318
 11
8.893616
 21
4.240134
 31
2.047318
210
0.0
220
1.0
230
0.0
  0
ARC
  5
3F6
330
70
100
AcDbEntity
  8
Visible
100
AcDbCircle
 10
8.498814
 20
6.956704
 30
1.69971
 40
0.216535433070866
210
0.0007713149432641
220
0.0000000653427484
230
0.9999997025365829
100
AcDbArc
 50
270.016907
 51
89.992801
  0
CIRCLE
  5
3F7
330
70
100
AcDbEntity
  8
Visible
100
AcDbCircle
 10
-8.498814
 20
6.956704
 30
-1.817821
 40
0.2165354330708662
210
-0.0007713149432652
220
-0.0000000653427497
230
-0.9999997025365827
  0
ARC
  5
3F8
330
70
100
AcDbEntity
  8
Visible
100
AcDbCircle
 10
-8.49881
 20
6.917334
 30
-1.62097
 40
0.314960629921258
210
-0.0007713149432647
220
-0.0000000653427511
230
-0.9999997025365829
100
AcDbArc
 50
28.96013
 51
89.995146
  0
LINE
  5
3F9
330
70
100
AcDbEntity
  8
Visible
100
AcDbLine
 10
8.224481
 20
7.069839
 30
1.614627
 11
8.224455
 21
6.773996
 31
1.614627
210
0.0
220
1.0
230
0.0
  0
ARC
  5
3FA
330
70
100
AcDbEntity
  8
Visible
100
AcDbCircle
 10
8.49881
 20
6.917334
 30
1.817821
 40
0.3149606299212598
210
0.000771314943265
220
0.0000000653427503
230
0.9999997025365827
100
AcDbArc
 50
28.949919
 51
151.03987
  0
LINE
  5
3FB
330
70
100
AcDbEntity
  8
Visible
100
AcDbLine
 10
8.22431
 20
3.452792
 30
1.811477
 11
8.224381
 21
4.240194
 31
1.811477
210
0.0
220
1.0
230
0.0
  0
LINE
  5
3FC
330
70
100
AcDbEntity
  8
Visible
100
AcDbLine
 10
8.224451
 20
5.027595
 30
1.811477
 11
8.224633
 21
7.069839
 31
1.811477
210
0.0
220
1.0
230
0.0
  0
LINE
  5
3FD
330
70
100
AcDbEntity
  8
Visible
100
AcDbLine
 10
8.775491
 20
3.452743
 30
1.811052
 11
8.22431
 21
3.452792
 31
1.811477
210
0.0
220
1.0
230
0.0
  0
LINE
  5
3FE
330
70
100
AcDbEntity
  8
Visible
100
AcDbLine
 10
8.775491
 20
3.452743
 30
1.811052
 11
8.775561
 21
4.240145
 31
1.811052
210
0.0
220
1.0
230
0.0
  0
LINE
  5
3FF
330
70
100
AcDbEntity
  8
Visible
100
AcDbLine
 10
8.775632
 20
5.027546
 30
1.811052
 11
8.775814
 21
7.06979
 31
1.811052
210
0.0
220
1.0
230
0.0
  0
LINE
  5
400
330
70
100
AcDbEntity
  8
Visible
100
AcDbLine
 10
8.224633
 20
7.069839
 30
1.811477
 11
8.224481
 21
7.069839
 31
1.614627
210
0.0
220
1.0
230
0.0
  0
ARC
  5
401
330
70
100
AcDbEntity
  8
Visible
100
AcDbCircle
 10
8.49881
 20
6.917334
 30
1.46349
 40
0.314960628856872
210
0.0007712919159171
220
0.0000000780899908
230
0.9999997025543429
100
AcDbArc
 50
151.020921
 51
151.03987
  0
ARC
  5
402
330
70
100
AcDbEntity
  8
Visible
100
AcDbCircle
 10
-8.49881
 20
6.917334
 30
-1.266639
 40
0.3149606304630514
210
-0.0007713161950937
220
-0.0000000646490059
230
-0.9999997025356172
100
AcDbArc
 50
28.96013
 51
29.036038
  0
LINE
  5
403
330
70
100
AcDbEntity
  8
Visible
100
AcDbLine
 10
8.224359
 20
7.069839
 30
1.457146
 11
8.224208
 21
7.069839
 31
1.260296
210
0.0
220
1.0
230
0.0
  0
LINE
  5
404
330
70
100
AcDbEntity
  8
Visible
100
AcDbLine
 10
8.223885
 20
3.452792
 30
1.260296
 11
8.223955
 21
4.240194
 31
1.260296
210
0.0
220
1.0
230
0.0
  0
LINE
  5
405
330
70
100
AcDbEntity
  8
Visible
100
AcDbLine
 10
8.224026
 20
5.027595
 30
1.260296
 11
8.224208
 21
7.069839
 31
1.260296
210
0.0
220
1.0
230
0.0
  0
LINE
  5
406
330
70
100
AcDbEntity
  8
Visible
100
AcDbLine
 10
8.224333
 20
6.773996
 30
1.457146
 11
8.224359
 21
7.069839
 31
1.457146
210
0.0
220
1.0
230
0.0
  0
LINE
  5
407
330
70
100
AcDbEntity
  8
Visible
100
AcDbLine
 10
8.224455
 20
6.773996
 30
1.614627
 11
8.224333
 21
6.773996
 31
1.457146
210
0.0
220
1.0
230
0.0
  0
LINE
  5
408
330
70
100
AcDbEntity
  8
Visible
100
AcDbLine
 10
8.22431
 20
3.452792
 30
1.811477
 11
8.223885
 21
3.452792
 31
1.260296
210
0.0
220
1.0
230
0.0
  0
LINE
  5
409
330
70
100
AcDbEntity
  8
Visible
100
AcDbLine
 10
8.500031
 20
7.232295
 30
1.614414
 11
8.500183
 21
7.232295
 31
1.811264
210
0.0
220
1.0
230
0.0
  0
LINE
  5
40A
330
70
100
AcDbEntity
  8
Visible
100
AcDbLine
 10
8.235959
 20
7.08895
 30
1.614618
 11
8.235959
 21
7.162222
 31
1.614618
210
0.0
220
1.0
230
0.0
  0
SPLINE
  5
40B
330
70
100
AcDbEntity
  8
Visible
100
AcDbSpline
 70
     0
 71
     3
 72
    14
 73
    10
 74
     0
 42
0.000000001
 43
0.0000000001
 40
0.2072879161788844
 40
0.2072879161788844
 40
0.2072879161788844
 40
0.2072879161788844
 40
0.2901318620391773
 40
0.2901318620391773
 40
0.5802637240783546
 40
0.5802637240783546
 40
0.8595060823891273
 40
0.8595060823891273
 40
1.1387484406999
 40
1.1387484406999
 40
1.1387484406999
 40
1.1387484406999
 10
8.235958597766511
 20
7.162222088378241
 30
1.614617680888841
 10
8.238944835109577
 20
7.166049686867214
 30
1.624605695718855
 10
8.242477088302621
 20
7.170406132882472
 30
1.634354199106383
 10
8.260654369580151
 20
7.191474195072586
 30
1.67696113286729
 10
8.281242168204698
 20
7.211552817968092
 30
1.706696585037207
 10
8.328412972839942
 20
7.245315421390639
 30
1.753794712074522
 10
8.35817160310944
 20
7.261815573980411
 30
1.774802120664389
 10
8.425710138406429
 20
7.284897667108863
 30
1.80358927776615
 10
8.463566765592986
 20
7.291350166144614
 30
1.811292567073905
 10
8.500212733471926
 20
7.291350204855954
 30
1.811264301482879
1001
ACAD_VIEW_EDGE_ID
1071
       12
1071
       -1
1071
        5
1071
        0
  0
SPLINE
  5
40C
330
70
100
AcDbEntity
  8
Visible
100
AcDbSpline
 70
     0
 71
     3
 72
    14
 73
    10
 74
     0
 42
0.000000001
 43
0.0000000001
 40
1.1387484406999
 40
1.1387484406999
 40
1.1387484406999
 40
1.1387484406999
 40
1.417990799010673
 40
1.417990799010673
 40
1.697233157321445
 40
1.697233157321445
 40
1.987365019360623
 40
1.987365019360623
 40
2.070208965220916
 40
2.070208965220916
 40
2.070208965220916
 40
2.070208965220916
 10
8.500212733471926
 20
7.291350204855954
 30
1.811264301482879
 10
8.536858701352684
 20
7.291350243567295
 30
1.811236035891852
 10
8.574703413805764
 20
7.284897824499422
 30
1.8034743569915
 10
8.642197509592733
 20
7.261815874014063
 30
1.774583047174019
 10
8.671923732666982
 20
7.24531578426172
 30
1.753529757013893
 10
8.719021897550192
 20
7.211553280421156
 30
1.706358918889236
 10
8.73956384331359
 20
7.191474700973475
 30
1.676591742723758
 10
8.757675420763916
 20
7.170406677117464
 30
1.633956818815931
 10
8.761192640631634
 20
7.166050238548988
 30
1.624202878061623
 10
8.764163474699671
 20
7.162222646352829
 30
1.614210268451643
1001
ACAD_VIEW_EDGE_ID
1071
       13
1071
       -1
1071
        5
1071
        0
  0
LINE
  5
40D
330
70
100
AcDbEntity
  8
Visible
100
AcDbLine
 10
8.764163
 20
7.162223
 30
1.61421
 11
8.764164
 21
7.089173
 31
1.61421
210
0.0
220
1.0
230
0.0
  0
ARC
  5
40E
330
70
100
AcDbEntity
  8
Visible
100
AcDbCircle
 10
8.498814
 20
6.956704
 30
1.62097
 40
0.3346456692913402
210
0.0007713149432652
220
0.0000000653427485
230
0.9999997025365827
100
AcDbArc
 50
37.889204
 51
89.974065
  0
ARC
  5
40F
330
70
100
AcDbEntity
  8
Visible
100
AcDbCircle
 10
-7.712607
 20
1.536282
 30
7.350396
 40
0.4921259842519676
210
-0.0000010564099313
220
0.99999999999944
230
-0.0000000645279445
100
AcDbArc
 50
0.0
 51
90.044193
  0
ARC
  5
410
330
70
100
AcDbEntity
  8
Visible
100
AcDbCircle
 10
-7.712607
 20
1.536282
 30
7.547247
 40
0.4921259842519686
210
-0.0000010564099313
220
0.99999999999944
230
-0.0000000645279445
100
AcDbArc
 50
0.0
 51
90.044193
  0
LINE
  5
411
330
70
100
AcDbEntity
  8
Visible
100
AcDbLine
 10
7.712978
 20
7.350405
 30
2.028407
 11
9.287781
 21
7.350406
 31
2.027192
210
0.0
220
1.0
230
0.0
  0
LINE
  5
412
330
70
100
AcDbEntity
  8
Visible
100
AcDbLine
 10
7.712978
 20
7.547255
 30
2.028407
 11
9.287781
 21
7.547257
 31
2.027192
210
0.0
220
1.0
230
0.0
  0
ARC
  5
413
330
70
100
AcDbEntity
  8
Visible
100
AcDbCircle
 10
-9.287409
 20
1.535067
 30
7.350396
 40
0.4921259842519678
210
-0.0000010564099293
220
0.99999999999944
230
-0.0000000645279436
100
AcDbArc
 50
90.044193
 51
180.0
  0
ARC
  5
414
330
70
100
AcDbEntity
  8
Visible
100
AcDbCircle
 10
-9.287409
 20
1.535067
 30
7.547247
 40
0.4921259842519682
210
-0.0000010564099293
220
0.99999999999944
230
-0.000000064527945
100
AcDbArc
 50
90.044193
 51
180.0
  0
ARC
  5
415
330
70
100
AcDbEntity
  8
Visible
100
AcDbCircle
 10
-8.500001
 20
6.956705
 30
-1.535674
 40
0.2755905511811024
210
0.0000000000000001
220
0.0
230
-1.0
100
AcDbArc
 50
358.8014
 51
359.999939
  0
LINE
  5
416
330
70
100
AcDbEntity
  8
Visible
100
AcDbLine
 10
8.775591
 20
7.350406
 30
1.535674
 11
8.775591
 21
7.070191
 31
1.535674
210
0.0
220
1.0
230
0.0
  0
LINE
  5
417
330
70
100
AcDbEntity
  8
Visible
100
AcDbLine
 10
8.22441
 20
7.350405
 30
1.535674
 11
8.22441
 21
6.956704
 31
1.535674
210
0.0
220
1.0
230
0.0
  0
LINE
  5
418
330
70
100
AcDbEntity
  8
Visible
100
AcDbLine
 10
7.220473
 20
7.547254
 30
1.536281
 11
7.220473
 21
7.350404
 31
1.536281
210
0.0
220
1.0
230
0.0
  0
LINE
  5
419
330
70
100
AcDbEntity
  8
Visible
100
AcDbLine
 10
9.779527
 20
7.547257
 30
1.535066
 11
9.779527
 21
7.350407
 31
1.535066
210
0.0
220
1.0
230
0.0
  0
LINE
  5
41A
330
70
100
AcDbEntity
  8
Visible
100
AcDbLine
 10
8.421482
 20
6.911244
 30
1.823136
 11
8.421482
 21
7.002165
 31
1.823136
210
0.0
220
1.0
230
0.0
  0
LINE
  5
41B
330
70
100
AcDbEntity
  8
Visible
100
AcDbLine
 10
8.421482
 20
7.002165
 30
1.823136
 11
8.500222
 21
7.047626
 31
1.823075
210
0.0
220
1.0
230
0.0
  0
LINE
  5
41C
330
70
100
AcDbEntity
  8
Visible
100
AcDbLine
 10
8.500222
 20
7.047626
 30
1.823075
 11
8.578962
 21
7.002165
 31
1.823015
210
0.0
220
1.0
230
0.0
  0
LINE
  5
41D
330
70
100
AcDbEntity
  8
Visible
100
AcDbLine
 10
8.578962
 20
7.002165
 30
1.823015
 11
8.578962
 21
6.911244
 31
1.823015
210
0.0
220
1.0
230
0.0
  0
LINE
  5
41E
330
70
100
AcDbEntity
  8
Visible
100
AcDbLine
 10
8.578962
 20
6.911244
 30
1.823015
 11
8.500222
 21
6.865783
 31
1.823075
210
0.0
220
1.0
230
0.0
  0
LINE
  5
41F
330
70
100
AcDbEntity
  8
Visible
100
AcDbLine
 10
8.500222
 20
6.865783
 30
1.823075
 11
8.421482
 21
6.911244
 31
1.823136
210
0.0
220
1.0
230
0.0
  0
ARC
  5
420
330
70
100
AcDbEntity
  8
Visible
100
AcDbCircle
 10
-8.498814
 20
6.956704
 30
-1.69971
 40
0.2066929133858274
210
-0.0007713149432658
220
-0.0000000653427494
230
-0.9999997025365827
100
AcDbArc
 50
269.995146
 51
89.995146
  0
SPLINE
  5
421
330
70
100
AcDbEntity
  8
Visible
100
AcDbSpline
210
-0.4999997946821958
220
0.8660254364796596
230
0.000385600800196
 70
    12
 71
     2
 72
     6
 73
     3
 74
     0
 42
0.000000001
 43
0.0000000001
 40
0.0000812058496726
 40
0.0000812058496726
 40
0.0000812058496726
 40
0.2336872276155822
 40
0.2336872276155822
 40
0.2336872276155822
 10
8.500190610253412
 20
6.865801467304877
 30
1.741175058479711
 41
1.000107478900899
 10
8.539530826255941
 20
6.888520391707912
 30
1.728035826232371
 41
1.154646780247958
 10
8.578899165302573
 20
6.911243874719305
 30
1.741124873278749
 41
1.0
1001
ACAD_VIEW_EDGE_ID
1071
        9
1071
       -1
1071
        6
1071
        0
  0
LINE
  5
422
330
70
100
AcDbEntity
  8
Visible
100
AcDbLine
 10
8.578899
 20
6.911244
 30
1.741125
 11
8.578962
 21
6.911244
 31
1.823015
210
0.0
220
1.0
230
0.0
  0
SPLINE
  5
423
330
70
100
AcDbEntity
  8
Visible
100
AcDbSpline
210
-0.9999997025365969
220
0.0000000653906613
230
0.0007713149251037
 70
    12
 71
     2
 72
     6
 73
     3
 74
     0
 42
0.000000001
 43
0.0000000001
 40
0.0
 40
0.0
 40
0.0
 40
0.2336872276155824
 40
0.2336872276155824
 40
0.2336872276155824
 10
8.578899165302573
 20
6.911243874719305
 30
1.741124873278749
 41
1.0
 10
8.578889046029871
 20
6.956704524979083
 30
1.728001514629795
 41
1.154700538379252
 10
8.578899171243392
 20
7.002165176953892
 30
1.741124867332473
 41
1.0
1001
ACAD_VIEW_EDGE_ID
1071
       18
1071
       -1
1071
        6
1071
        0
  0
LINE
  5
424
330
70
100
AcDbEntity
  8
Visible
100
AcDbLine
 10
8.578899
 20
7.002165
 30
1.741125
 11
8.578962
 21
7.002165
 31
1.823015
210
0.0
220
1.0
230
0.0
  0
SPLINE
  5
425
330
70
100
AcDbEntity
  8
Visible
100
AcDbSpline
210
0.4999999078614691
220
0.8660253710851318
230
-0.0003857141197382
 70
    12
 71
     2
 72
     6
 73
     3
 74
     0
 42
0.000000001
 43
0.0000000001
 40
0.0
 40
0.0
 40
0.0
 40
0.2336060456186052
 40
0.2336060456186052
 40
0.2336060456186052
 10
8.578899171243392
 20
7.002165176953892
 30
1.741124867332473
 41
1.0
 10
8.539530831683805
 20
7.02488866540775
 30
1.728035816158808
 41
1.1546467960384
 10
8.500190612858204
 20
7.047607600017359
 30
1.741175049690355
 41
1.000107447341958
1001
ACAD_VIEW_EDGE_ID
1071
       20
1071
       -1
1071
        6
1071
        0
  0
SPLINE
  5
426
330
70
100
AcDbEntity
  8
Visible
100
AcDbSpline
210
-0.0003952071230479
220
-0.0000000334759571
230
-0.9999999219056615
 70
     8
 71
     3
 72
    26
 73
    22
 74
     0
 42
0.000000001
 43
0.0000000001
 40
6.283100591162678
 40
6.283100591162678
 40
6.283100591162678
 40
6.283100591162678
 40
6.603100520964559
 40
6.603100520964559
 40
6.923100464658946
 40
6.923100464658946
 40
7.243100444532078
 40
7.243100444532078
 40
7.563100468550336
 40
7.563100468550336
 40
7.883100527207088
 40
7.883100527207088
 40
8.203100597285498
 40
8.203100597285498
 40
8.52310065104794
 40
8.52310065104794
 40
8.843100667214782
 40
8.843100667214782
 40
9.163100639387046
 40
9.163100639387046
 40
9.424693244752472
 40
9.424693244752472
 40
9.424693244752472
 40
9.424693244752472
 10
8.500126947979879
 20
7.163397442394973
 30
1.722287971591867
 10
8.522174186995471
 20
7.163399310149806
 30
1.722279258367052
 10
8.544217893062523
 20
7.15984382447603
 30
1.722270546655636
 10
8.586075108500153
 20
7.145976721165482
 30
1.722254004851492
 10
8.605881338256949
 20
7.135667514943634
 30
1.722246177634588
 10
8.641251564240519
 20
7.109337488005579
 30
1.722232199948848
 10
8.656809408688786
 20
7.0933212458126
 30
1.722226051913821
 10
8.682101536827758
 20
7.057201558956828
 30
1.722216057491095
 10
8.691831421156166
 20
7.037104395401184
 30
1.722212212844169
 10
8.704477561885141
 20
6.994862248253611
 30
1.722207216411334
 10
8.707391618268957
 20
6.972724610830759
 30
1.72220606549672
 10
8.706107817330121
 20
6.928648812909401
 30
1.722206574338997
 10
8.701910183013751
 20
6.906718317684271
 30
1.722208234008576
 10
8.686826782106436
 20
6.865283849462505
 30
1.722214196466666
 10
8.675943638994795
 20
6.84578708227819
 30
1.722218498214715
 10
8.648592043604367
 20
6.811200752824186
 30
1.72222930891985
 10
8.632128348708647
 20
6.796117205049784
 30
1.7222358159961
 10
8.595285545437945
 20
6.771890536380705
 30
1.722250377346426
 10
8.574912845011567
 20
6.762751628040659
 30
1.722258429088469
 10
8.536206590240908
 20
6.752385379038164
 30
1.722273726421917
 10
8.51818508076758
 20
6.750013143953465
 30
1.722280848729496
 10
8.500161968391694
 20
6.750011617106714
 30
1.722287971591867
1001
ACAD_VIEW_EDGE_ID
1071
       -1
1071
       -1
1071
        6
1071
        0
  0
LINE
  5
427
330
70
100
AcDbEntity
  8
Visible
100
AcDbLine
 10
8.500162
 20
6.750012
 30
1.722288
 11
8.500139
 21
6.750012
 31
1.693154
210
0.0
220
1.0
230
0.0
  0
LINE
  5
428
330
70
100
AcDbEntity
  8
Visible
100
AcDbLine
 10
8.500127
 20
7.163397
 30
1.722288
 11
8.500104
 21
7.163397
 31
1.693154
210
0.0
220
1.0
230
0.0
  0
LINE
  5
429
330
70
100
AcDbEntity
  8
Visible
100
AcDbLine
 10
15.523804
 20
5.421376
 30
1.181346
 11
15.523804
 21
3.846573
 31
1.181486
210
0.0
220
1.0
230
0.0
  0
LINE
  5
42A
330
70
100
AcDbEntity
  8
Visible
100
AcDbLine
 10
15.523804
 20
3.846573
 30
1.181486
 11
15.524025
 21
3.846363
 31
-1.180718
210
0.0
220
1.0
230
0.0
  0
LINE
  5
42B
330
70
100
AcDbEntity
  8
Visible
100
AcDbLine
 10
15.720875
 20
5.421166
 30
-1.18084
 11
15.720875
 21
3.846363
 31
-1.1807
210
0.0
220
1.0
230
0.0
  0
LINE
  5
42C
330
70
100
AcDbEntity
  8
Visible
100
AcDbLine
 10
15.524025
 20
3.846363
 30
-1.180718
 11
15.720875
 21
3.846363
 31
-1.1807
210
0.0
220
1.0
230
0.0
  0
LINE
  5
42D
330
70
100
AcDbEntity
  8
Visible
100
AcDbLine
 10
15.720875
 20
3.846363
 30
-1.1807
 11
15.720655
 21
3.846573
 31
1.181505
210
0.0
220
1.0
230
0.0
  0
LINE
  5
42E
330
70
100
AcDbEntity
  8
Visible
100
AcDbLine
 10
15.523804
 20
3.846573
 30
1.181486
 11
15.720655
 21
3.846573
 31
1.181505
210
0.0
220
1.0
230
0.0
  0
LINE
  5
42F
330
70
100
AcDbEntity
  8
Visible
100
AcDbLine
 10
15.720655
 20
3.846573
 30
1.181505
 11
15.720655
 21
5.421376
 31
1.181364
210
0.0
220
1.0
230
0.0
  0
LINE
  5
430
330
70
100
AcDbEntity
  8
Visible
100
AcDbLine
 10
15.523804
 20
5.421376
 30
1.181346
 11
15.720655
 21
5.421376
 31
1.181364
210
0.0
220
1.0
230
0.0
  0
LINE
  5
431
330
70
100
AcDbEntity
  8
Visible
100
AcDbLine
 10
15.720655
 20
5.421376
 30
1.181364
 11
15.720875
 21
5.421166
 31
-1.18084
210
0.0
220
1.0
230
0.0
  0
LINE
  5
432
330
70
100
AcDbEntity
  8
Visible
100
AcDbLine
 10
11.862472
 20
5.027546
 30
0.275598
 11
11.862475
 21
5.02755
 31
0.236245
210
0.0
220
1.0
230
0.0
  0
LINE
  5
433
330
70
100
AcDbEntity
  8
Visible
100
AcDbLine
 10
12.413653
 20
5.027546
 30
0.275649
 11
11.901859
 21
5.027546
 31
0.275601
210
0.0
220
1.0
230
0.0
  0
LINE
  5
434
330
70
100
AcDbEntity
  8
Visible
100
AcDbLine
 10
11.862506
 20
5.027546
 30
0.275598
 11
11.862472
 21
5.027546
 31
0.275598
210
0.0
220
1.0
230
0.0
  0
LINE
  5
435
330
70
100
AcDbEntity
  8
Visible
100
AcDbLine
 10
12.413704
 20
5.027595
 30
-0.275532
 11
12.413687
 21
5.027578
 31
-0.087439
210
0.0
220
1.0
230
0.0
  0
LINE
  5
436
330
70
100
AcDbEntity
  8
Visible
100
AcDbLine
 10
12.413653
 20
5.027546
 30
0.275207
 11
12.413653
 21
5.027546
 31
0.275649
210
0.0
220
1.0
230
0.0
  0
LINE
  5
437
330
70
100
AcDbEntity
  8
Visible
100
AcDbLine
 10
12.413687
 20
5.027595
 30
-0.275532
 11
12.413704
 21
5.027595
 31
-0.275532
210
0.0
220
1.0
230
0.0
  0
LINE
  5
438
330
70
100
AcDbEntity
  8
Visible
100
AcDbLine
 10
15.523804
 20
4.240133
 30
0.393979
 11
11.62624
 21
4.240134
 31
0.393616
210
0.0
220
1.0
230
0.0
  0
LINE
  5
439
330
70
100
AcDbEntity
  8
Visible
100
AcDbLine
 10
15.523804
 20
5.027605
 30
-0.393352
 11
12.413687
 21
5.027606
 31
-0.393642
210
0.0
220
1.0
230
0.0
  0
LINE
  5
43A
330
70
100
AcDbEntity
  8
Visible
100
AcDbLine
 10
11.86208
 20
5.027606
 30
-0.393694
 11
11.626314
 21
5.027606
 31
-0.393716
210
0.0
220
1.0
230
0.0
  0
LINE
  5
43B
330
70
100
AcDbEntity
  8
Visible
100
AcDbLine
 10
11.626314
 20
5.027606
 30
-0.393716
 11
11.62624
 21
5.027536
 31
0.393686
210
0.0
220
1.0
230
0.0
  0
LINE
  5
43C
330
70
100
AcDbEntity
  8
Visible
100
AcDbLine
 10
15.523804
 20
5.027535
 30
0.39405
 11
11.62624
 21
5.027536
 31
0.393686
210
0.0
220
1.0
230
0.0
  0
LINE
  5
43D
330
70
100
AcDbEntity
  8
Visible
100
AcDbLine
 10
11.62624
 20
5.027536
 30
0.393686
 11
11.62624
 21
4.240134
 31
0.393616
210
0.0
220
1.0
230
0.0
  0
ARC
  5
43E
330
70
100
AcDbEntity
  8
Visible
100
AcDbCircle
 10
6.956705
 20
0.009363
 30
11.862289
 40
0.2165354330708662
210
0.9999997025365825
220
-0.0000000653427493
230
-0.0007713149435607
100
AcDbArc
 50
314.966953
 51
225.033047
  0
ARC
  5
43F
330
70
100
AcDbEntity
  8
Visible
100
AcDbCircle
 10
6.917335
 20
0.009359
 30
12.05914
 40
0.3149606299212626
210
0.9999997025365825
220
-0.0000000653427559
230
-0.0007713149435716
100
AcDbArc
 50
38.960282
 51
61.050081
  0
LINE
  5
440
330
70
100
AcDbEntity
  8
Visible
100
AcDbLine
 10
12.059356
 20
6.773947
 30
0.275635
 11
12.059356
 21
7.06979
 31
0.275662
210
0.0
220
1.0
230
0.0
  0
ARC
  5
441
330
70
100
AcDbEntity
  8
Visible
100
AcDbCircle
 10
-6.917335
 20
0.009359
 30
-11.862289
 40
0.3149606299212597
210
-0.9999997025365825
220
0.0000000653427493
230
0.0007713149435625
100
AcDbArc
 50
118.949919
 51
232.380934
  0
LINE
  5
442
330
70
100
AcDbEntity
  8
Visible
100
AcDbLine
 10
11.86208
 20
3.452792
 30
-0.27569
 11
11.86208
 21
4.240134
 31
-0.275619
210
0.0
220
1.0
230
0.0
  0
LINE
  5
443
330
70
100
AcDbEntity
  8
Visible
100
AcDbLine
 10
11.86208
 20
5.027595
 30
-0.275549
 11
11.862081
 21
6.803858
 31
-0.275391
210
0.0
220
1.0
230
0.0
  0
LINE
  5
444
330
70
100
AcDbEntity
  8
Visible
100
AcDbLine
 10
11.862505
 20
3.452743
 30
0.275491
 11
11.86208
 21
3.452792
 31
-0.27569
210
0.0
220
1.0
230
0.0
  0
LINE
  5
445
330
70
100
AcDbEntity
  8
Visible
100
AcDbLine
 10
11.862505
 20
3.452743
 30
0.275491
 11
11.862505
 21
4.240134
 31
0.275561
210
0.0
220
1.0
230
0.0
  0
LINE
  5
446
330
70
100
AcDbEntity
  8
Visible
100
AcDbLine
 10
11.862506
 20
5.027546
 30
0.275632
 11
11.862506
 21
7.06979
 31
0.275814
210
0.0
220
1.0
230
0.0
  0
LINE
  5
447
330
70
100
AcDbEntity
  8
Visible
100
AcDbLine
 10
12.059356
 20
7.06979
 30
0.275662
 11
11.862506
 21
7.06979
 31
0.275814
210
0.0
220
1.0
230
0.0
  0
ARC
  5
448
330
70
100
AcDbEntity
  8
Visible
100
AcDbCircle
 10
-6.917335
 20
0.009359
 30
-12.21662
 40
0.3149606299214224
210
-0.9999997025365823
220
0.0000000653429032
230
0.0007713149438259
100
AcDbArc
 50
118.949919
 51
123.014134
  0
LINE
  5
449
330
70
100
AcDbEntity
  8
Visible
100
AcDbLine
 10
12.413687
 20
7.06979
 30
0.275388
 11
12.216836
 21
7.06979
 31
0.27554
210
0.0
220
1.0
230
0.0
  0
ARC
  5
44A
330
70
100
AcDbEntity
  8
Visible
100
AcDbCircle
 10
6.917335
 20
0.009359
 30
12.41347
 40
0.3149606299212594
210
0.9999997025365827
220
-0.0000000653427518
230
-0.000771314943564
100
AcDbArc
 50
360.0
 51
61.050081
  0
LINE
  5
44B
330
70
100
AcDbEntity
  8
Visible
100
AcDbLine
 10
12.413686
 20
3.452743
 30
0.275066
 11
12.413686
 21
4.240134
 31
0.275136
210
0.0
220
1.0
230
0.0
  0
LINE
  5
44C
330
70
100
AcDbEntity
  8
Visible
100
AcDbLine
 10
12.413687
 20
5.027546
 30
0.275207
 11
12.413687
 21
7.06979
 31
0.275388
210
0.0
220
1.0
230
0.0
  0
LINE
  5
44D
330
70
100
AcDbEntity
  8
Visible
100
AcDbLine
 10
12.216836
 20
7.06979
 30
0.27554
 11
12.216836
 21
6.773947
 31
0.275514
210
0.0
220
1.0
230
0.0
  0
LINE
  5
44E
330
70
100
AcDbEntity
  8
Visible
100
AcDbLine
 10
12.216836
 20
6.773947
 30
0.275514
 11
12.059356
 21
6.773947
 31
0.275635
210
0.0
220
1.0
230
0.0
  0
LINE
  5
44F
330
70
100
AcDbEntity
  8
Visible
100
AcDbLine
 10
12.413686
 20
3.452743
 30
0.275066
 11
11.862505
 21
3.452743
 31
0.275491
210
0.0
220
1.0
230
0.0
  0
LINE
  5
450
330
70
100
AcDbEntity
  8
Visible
100
AcDbLine
 10
11.938249
 20
7.232295
 30
0.000151
 11
11.862293
 21
7.232295
 31
0.00021
210
0.0
220
1.0
230
0.0
  0
LINE
  5
451
330
70
100
AcDbEntity
  8
Visible
100
AcDbLine
 10
12.413474
 20
7.232295
 30
-0.000216
 11
12.337811
 21
7.232295
 31
-0.000157
210
0.0
220
1.0
230
0.0
  0
ARC
  5
452
330
70
100
AcDbEntity
  8
Visible
100
AcDbCircle
 10
6.956705
 20
0.009363
 30
12.21662
 40
0.2641025170275336
210
0.9999997025365827
220
-0.0000000653427476
230
-0.0007713149435688
100
AcDbArc
 50
89.999939
 51
133.78834
  0
ARC
  5
453
330
70
100
AcDbEntity
  8
Visible
100
AcDbCircle
 10
-12.137883
 20
0.000008
 30
7.350406
 40
0.2755905511811023
210
0.0000000645279462
220
0.99999999999944
230
-0.000001056409931
100
AcDbArc
 50
0.0
 51
180.0
  0
LINE
  5
454
330
70
100
AcDbEntity
  8
Visible
100
AcDbLine
 10
12.216828
 20
6.956705
 30
0.264042
 11
12.216828
 21
7.162223
 31
0.264042
210
0.0
220
1.0
230
0.0
  0
SPLINE
  5
455
330
70
100
AcDbEntity
  8
Visible
100
AcDbSpline
 70
     0
 71
     3
 72
    14
 73
    10
 74
     0
 42
0.000000001
 43
0.0000000001
 40
2.484784797578684
 40
2.484784797578684
 40
2.484784797578684
 40
2.484784797578684
 40
2.567628743438977
 40
2.567628743438977
 40
2.857760605478155
 40
2.857760605478155
 40
3.137002963788927
 40
3.137002963788927
 40
3.415705435874746
 40
3.415705435874746
 40
3.415705435874746
 40
3.415705435874746
 10
12.21682759193754
 20
7.162222615498571
 30
0.2640420077859744
 10
12.2268156072605
 20
7.16605020638914
 30
0.2610557623575005
 10
12.23656411121192
 20
7.170406643683272
 30
0.2575234999585518
 10
12.27917104769221
 20
7.191474661969342
 30
0.2393461741685314
 10
12.30890650245237
 20
7.211553237528958
 30
0.2187583331215137
 10
12.35600463384799
 20
7.245315735209725
 30
0.171587457152782
 10
12.37701204456789
 20
7.261815822213707
 30
0.141828792020533
 10
12.40577137614855
 20
7.284875455651593
 30
0.0743554973887513
 10
12.41347268275058
 20
7.291325217800197
 30
0.0365799356586649
 10
12.41347430644782
 20
7.291350076152308
 30
0.0000001663647708
1001
ACAD_VIEW_EDGE_ID
1071
        8
1071
       -1
1071
        5
1071
        0
  0
SPLINE
  5
456
330
70
100
AcDbEntity
  8
Visible
100
AcDbSpline
 70
     0
 71
     3
 72
    10
 73
     6
 74
     0
 42
0.000000001
 43
0.0000000001
 40
0.6001568735476325
 40
0.6001568735476325
 40
0.6001568735476325
 40
0.6001568735476325
 40
0.8595060823891273
 40
0.8595060823891273
 40
1.1387484406999
 40
1.1387484406999
 40
1.1387484406999
 40
1.1387484406999
 10
11.93795840335951
 20
7.232293157558644
 30
-0.1896771889441879
 10
11.91680332191936
 20
7.247641165617071
 30
-0.1673266793604853
 10
11.89773007699841
 20
7.262637734426863
 30
-0.1394226834654546
 10
11.86996831450779
 20
7.2848976465448
 30
-0.0742898615881131
 10
11.86226502520003
 20
7.291350145580551
 30
-0.0364332344015566
 10
11.86229329079106
 20
7.291350184291892
 30
0.0002127334773832
1001
ACAD_VIEW_EDGE_ID
1071
       12
1071
       -1
1071
        5
1071
        0
  0
SPLINE
  5
457
330
70
100
AcDbEntity
  8
Visible
100
AcDbSpline
 70
     0
 71
     3
 72
    14
 73
    10
 74
     0
 42
0.000000001
 43
0.0000000001
 40
1.1387484406999
 40
1.1387484406999
 40
1.1387484406999
 40
1.1387484406999
 40
1.417990799010673
 40
1.417990799010673
 40
1.697233157321445
 40
1.697233157321445
 40
1.987365019360623
 40
1.987365019360623
 40
2.070208965220916
 40
2.070208965220916
 40
2.070208965220916
 40
2.070208965220916
 10
11.86229329079106
 20
7.291350184291892
 30
0.0002127334773832
 10
11.86232155638208
 20
7.291350223003233
 30
0.0368587013581419
 10
11.87008323528243
 20
7.28489780393536
 30
0.0747034138112213
 10
11.89897454509992
 20
7.26181585345
 30
0.1421975095981907
 10
11.92002783526004
 20
7.245315763697657
 30
0.1719237326724396
 10
11.9671986733847
 20
7.211553259857094
 30
0.219021897555649
 10
11.99696584955018
 20
7.191474680409412
 30
0.239563843319047
 10
12.039600773458
 20
7.170406656553401
 30
0.2576754207693739
 10
12.04935471421231
 20
7.166050217984926
 30
0.2611926406370912
 10
12.05934732382229
 20
7.162222625788767
 30
0.2641634747051285
1001
ACAD_VIEW_EDGE_ID
1071
       13
1071
       -1
1071
        5
1071
        0
  0
LINE
  5
458
330
70
100
AcDbEntity
  8
Visible
100
AcDbLine
 10
12.059347
 20
7.162223
 30
0.264163
 11
12.059347
 21
7.088939
 31
0.264164
210
0.0
220
1.0
230
0.0
  0
ARC
  5
459
330
70
100
AcDbEntity
  8
Visible
100
AcDbCircle
 10
-12.137276
 20
-0.787393
 30
7.350406
 40
0.4921259842519688
210
0.0000000645279436
220
0.9999999999994399
230
-0.0000010564099293
100
AcDbArc
 50
180.044193
 51
235.858813
  0
ARC
  5
45A
330
70
100
AcDbEntity
  8
Visible
100
AcDbCircle
 10
-12.137276
 20
-0.787393
 30
7.350406
 40
0.4921259842519697
210
0.0000000645279383
220
0.99999999999944
230
-0.0000010564099349
100
AcDbArc
 50
303.970494
 51
0.044193
  0
LINE
  5
45B
330
70
100
AcDbEntity
  8
Visible
100
AcDbLine
 10
11.645151
 20
7.350404
 30
-0.787022
 11
11.646365
 21
7.350406
 31
0.787781
210
0.0
220
1.0
230
0.0
  0
LINE
  5
45C
330
70
100
AcDbEntity
  8
Visible
100
AcDbLine
 10
11.645151
 20
7.547255
 30
-0.787022
 11
11.646365
 21
7.547257
 31
0.787781
210
0.0
220
1.0
230
0.0
  0
ARC
  5
45D
330
70
100
AcDbEntity
  8
Visible
100
AcDbCircle
 10
-12.138491
 20
0.787409
 30
7.350406
 40
0.4921259842519678
210
0.000000064527945
220
0.9999999999994399
230
-0.0000010564099307
100
AcDbArc
 50
0.044193
 51
180.044193
  0
ARC
  5
45E
330
70
100
AcDbEntity
  8
Visible
100
AcDbCircle
 10
-12.138491
 20
0.787409
 30
7.547256
 40
0.4921259842519682
210
0.000000064527945
220
0.9999999999994399
230
-0.0000010564099295
100
AcDbArc
 50
0.044193
 51
180.0
  0
LINE
  5
45F
330
70
100
AcDbEntity
  8
Visible
100
AcDbLine
 10
12.630617
 20
7.350406
 30
0.787022
 11
12.629402
 21
7.350404
 31
-0.787781
210
0.0
220
1.0
230
0.0
  0
LINE
  5
460
330
70
100
AcDbEntity
  8
Visible
100
AcDbLine
 10
12.413474
 20
7.350405
 30
0.0
 11
12.413474
 21
7.29135
 31
0.0
210
0.0
220
1.0
230
0.0
  0
LINE
  5
461
330
70
100
AcDbEntity
  8
Visible
100
AcDbLine
 10
11.862293
 20
7.350405
 30
0.0
 11
11.862293
 21
7.29135
 31
0.0
210
0.0
220
1.0
230
0.0
  0
LINE
  5
462
330
70
100
AcDbEntity
  8
Visible
100
AcDbLine
 10
11.64515
 20
7.547255
 30
-0.787401
 11
11.64515
 21
7.350404
 31
-0.787401
210
0.0
220
1.0
230
0.0
  0
LINE
  5
463
330
70
100
AcDbEntity
  8
Visible
100
AcDbLine
 10
12.630617
 20
7.547256
 30
0.787401
 11
12.630617
 21
7.350406
 31
0.787401
210
0.0
220
1.0
230
0.0
  0
LINE
  5
464
330
70
100
AcDbEntity
  8
Visible
100
AcDbLine
 10
11.850422
 20
6.911244
 30
-0.078518
 11
11.850422
 21
7.002165
 31
-0.078518
210
0.0
220
1.0
230
0.0
  0
LINE
  5
465
330
70
100
AcDbEntity
  8
Visible
100
AcDbLine
 10
11.850422
 20
7.002165
 30
-0.078518
 11
11.850482
 21
7.047626
 31
0.000222
210
0.0
220
1.0
230
0.0
  0
LINE
  5
466
330
70
100
AcDbEntity
  8
Visible
100
AcDbLine
 10
11.850482
 20
7.047626
 30
0.000222
 11
11.850543
 21
7.002165
 31
0.078962
210
0.0
220
1.0
230
0.0
  0
LINE
  5
467
330
70
100
AcDbEntity
  8
Visible
100
AcDbLine
 10
11.850543
 20
7.002165
 30
0.078962
 11
11.850543
 21
6.911244
 31
0.078962
210
0.0
220
1.0
230
0.0
  0
LINE
  5
468
330
70
100
AcDbEntity
  8
Visible
100
AcDbLine
 10
11.850543
 20
6.911244
 30
0.078962
 11
11.850482
 21
6.865783
 31
0.000222
210
0.0
220
1.0
230
0.0
  0
LINE
  5
469
330
70
100
AcDbEntity
  8
Visible
100
AcDbLine
 10
11.850482
 20
6.865783
 30
0.000222
 11
11.850422
 21
6.911244
 31
-0.078518
210
0.0
220
1.0
230
0.0
  0
LINE
  5
46A
330
70
100
AcDbEntity
  8
Visible
100
AcDbLine
 10
11.850543
 20
6.911244
 30
-0.078518
 11
11.850422
 21
6.911244
 31
-0.078518
210
0.0
220
1.0
230
0.0
  0
LINE
  5
46B
330
70
100
AcDbEntity
  8
Visible
100
AcDbLine
 10
11.850543
 20
7.002165
 30
-0.078518
 11
11.850422
 21
7.002165
 31
-0.078518
210
0.0
220
1.0
230
0.0
  0
SPLINE
  5
46C
330
70
100
AcDbEntity
  8
Visible
100
AcDbSpline
 70
     0
 71
     3
 72
    60
 73
    56
 74
     0
 42
0.000000001
 43
0.0000000001
 40
0.2751428856090257
 40
0.2751428856090257
 40
0.2751428856090257
 40
0.2751428856090257
 40
0.3276813935816298
 40
0.3276813935816298
 40
0.3680504768546737
 40
0.3680504768546737
 40
0.3871975042504573
 40
0.3871975042504573
 40
0.3924968596013225
 40
0.3924968596013225
 40
0.3951840121950252
 40
0.3951840121950252
 40
0.3993375157593597
 40
0.3993375157593597
 40
0.4036396524003753
 40
0.4036396524003753
 40
0.4124863253414349
 40
0.4124863253414349
 40
0.4389759886609468
 40
0.4389759886609468
 40
0.5191891420239975
 40
0.5191891420239975
 40
0.6111249375824625
 40
0.6111249375824625
 40
0.6972714526079839
 40
0.6972714526079839
 40
0.7832036620181489
 40
0.7832036620181489
 40
0.8690565813909147
 40
0.8690565813909147
 40
0.9548969681941708
 40
0.9548969681941708
 40
1.040769103347644
 40
1.040769103347644
 40
1.126770141034165
 40
1.126770141034165
 40
1.213259830236668
 40
1.213259830236668
 40
1.21891912917393
 40
1.21891912917393
 40
1.222581832708884
 40
1.222581832708884
 40
1.225668059020838
 40
1.225668059020838
 40
1.22983252958882
 40
1.22983252958882
 40
1.23395175616436
 40
1.23395175616436
 40
1.240864075759068
 40
1.240864075759068
 40
1.25738263640239
 40
1.25738263640239
 40
1.304664094950098
 40
1.304664094950098
 40
1.345193877356111
 40
1.345193877356111
 40
1.345193877356111
 40
1.345193877356111
 10
11.86241718654492
 20
6.803238920208444
 30
-0.000005175723345
 10
11.85914438303371
 20
6.809353196142122
 30
-0.0000304139139189
 10
11.85649559451303
 20
6.815819943392279
 30
-0.0000635216238152
 10
11.85306453159137
 20
6.827519160009011
 30
-0.0001882858723548
 10
11.85197215091284
 20
6.832739687786505
 30
-0.0002276190534758
 10
11.85098045182167
 20
6.84047711176907
 30
-0.0006186684713612
 10
11.85075278572367
 20
6.843028927470818
 30
-0.0006994600698818
 10
11.85058844466584
 20
6.846110304280645
 30
-0.0015772817787365
 10
11.85056016402632
 20
6.846774762542435
 30
-0.0018359092719038
 10
11.8505301750647
 20
6.847644356976443
 30
-0.0024202173462982
 10
11.85052208698107
 20
6.847916097163238
 30
-0.0026528312610026
 10
11.85050597175359
 20
6.848519686421063
 30
-0.0033171568720718
 10
11.85050006083293
 20
6.848808872262621
 30
-0.0037944489940855
 10
11.85049151250314
 20
6.849273283830861
 30
-0.0048022203809524
 10
11.85048886810728
 20
6.849453285983974
 30
-0.0053411263052112
 10
11.85048249426654
 20
6.849924461133953
 30
-0.0070011051775509
 10
11.85048048394492
 20
6.850142139042676
 30
-0.0081448754590383
 10
11.85047330853558
 20
6.850973919966644
 30
-0.0127069774425763
 10
11.85047078672505
 20
6.851517291872424
 30
-0.0161428699921089
 10
11.85045901122066
 20
6.854405945337017
 30
-0.0298446725118993
 10
11.85045142560739
 20
6.857948519248695
 30
-0.0399773542412731
 10
11.85043592741749
 20
6.86854969255468
 30
-0.0599273153711693
 10
11.85042834038177
 20
6.876142725228474
 30
-0.0697494360574638
 10
11.85041614575493
 20
6.893378780372403
 30
-0.0855321166800423
 10
11.85041123140035
 20
6.903070709975273
 30
-0.0918978777717712
 10
11.85040411350746
 20
6.923684807769882
 30
-0.1011189768869372
 10
11.85040181481417
 20
6.934860352233235
 30
-0.1040980382913403
 10
11.85040007326279
 20
6.957290955068557
 30
-0.106356155793037
 10
11.85040060606661
 20
6.968825053472041
 30
-0.1056668069995794
 10
11.85040439823569
 20
6.990815331592783
 30
-0.100756051373537
 10
11.85040770426349
 20
7.001545173641725
 30
-0.0964740967992839
 10
11.85041664600066
 20
7.020877980690061
 30
-0.0848963593216468
 10
11.85042239286485
 20
7.029720060589377
 30
-0.0774556060641771
 10
11.85043560262056
 20
7.044452050357698
 30
-0.0603757805602072
 10
11.8504432152913
 20
7.050515377279783
 30
-0.0505223426171142
 10
11.85045955007808
 20
7.059216174938242
 30
-0.0296247223723185
 10
11.85045522745531
 20
7.061003913438119
 30
-0.0182399425611948
 10
11.85048466331136
 20
7.063643559304152
 30
-0.006438540365707
 10
11.85048687914604
 20
7.063826958110089
 30
-0.0057156260154443
 10
11.85049340012483
 20
7.06423943735461
 30
-0.0045639195395779
 10
11.85049671948945
 20
7.064432044613573
 30
-0.0041186113812728
 10
11.85050628649151
 20
7.064883184775716
 30
-0.0033564950481377
 10
11.85051211463178
 20
7.065131093661095
 30
-0.0030277557434601
 10
11.85053126465573
 20
7.065808348006618
 30
-0.0023596399369126
 10
11.8505469862248
 20
7.066279677548447
 30
-0.0020527413689706
 10
11.85058787618254
 20
7.067264097684397
 30
-0.0015933613176458
 10
11.85061311726895
 20
7.067783437938714
 30
-0.0014278484904935
 10
11.85069260383898
 20
7.069185047347992
 30
-0.0010742446702352
 10
11.85075530687936
 20
7.070084478955053
 30
-0.000940504756727
 10
11.85100913844326
 20
7.073127933249526
 30
-0.0005826216765854
 10
11.85125877094105
 20
7.075285596842418
 30
-0.000486224418637
 10
11.85248902537205
 20
7.083561486668724
 30
-0.0001726543050609
 10
11.85397678863228
 20
7.089641923894145
 30
-0.0001393003931298
 10
11.85773805135068
 20
7.100534253145759
 30
-0.0000516379768669
 10
11.85989232828979
 20
7.105451570138582
 30
-0.0000255221621046
 10
11.86241784871526
 20
7.11016976475119
 30
-0.0000060466409195
1001
ACAD_VIEW_EDGE_ID
1071
       -1
1071
       -1
1071
        6
1071
        0
  0
LINE
  5
46D
330
70
100
AcDbEntity
  8
Visible
100
AcDbLine
 10
3.353414
 20
7.10562
 30
-1.797819
 11
3.353489
 21
6.142367
 31
-2.476404
210
-0.0000000000000001
220
0.8175471248425399
230
0.5758617009853117
  0
LINE
  5
46E
330
70
100
AcDbEntity
  8
Visible
100
AcDbLine
 10
1.682928
 20
6.143658
 30
-0.432494
 11
3.353414
 21
7.10562
 31
-1.797819
210
-0.0000000000000001
220
0.8175471248425399
230
0.5758617009853117
  0
LINE
  5
46F
330
70
100
AcDbEntity
  8
Visible
100
AcDbLine
 10
1.683027
 20
4.85624
 30
-1.339444
 11
1.682928
 21
6.143658
 31
-0.432494
210
-0.0000000000000001
220
0.8175471248425399
230
0.5758617009853117
  0
LINE
  5
470
330
70
100
AcDbEntity
  8
Visible
100
AcDbLine
 10
2.519274
 20
5.337798
 30
-2.022926
 11
1.683027
 21
4.85624
 31
-1.339444
210
-0.0000000000000001
220
0.8175471248425399
230
0.5758617009853117
  0
LINE
  5
471
330
70
100
AcDbEntity
  8
Visible
100
AcDbLine
 10
1.543746
 20
6.223823
 30
-0.546302
 11
1.543846
 21
4.936404
 31
-1.453252
210
-0.0000000000000001
220
0.8175471248425399
230
0.5758617009853117
  0
LINE
  5
472
330
70
100
AcDbEntity
  8
Visible
100
AcDbLine
 10
1.683027
 20
4.85624
 30
-1.339444
 11
1.543846
 21
4.936404
 31
-1.453252
210
-0.0000000000000001
220
0.8175471248425399
230
0.5758617009853117
  0
LINE
  5
473
330
70
100
AcDbEntity
  8
Visible
100
AcDbLine
 10
1.543746
 20
6.223823
 30
-0.546302
 11
1.682928
 21
6.143658
 31
-0.432494
210
-0.0000000000000001
220
0.8175471248425399
230
0.5758617009853117
  0
LINE
  5
474
330
70
100
AcDbEntity
  8
Visible
100
AcDbLine
 10
3.353414
 20
7.10562
 30
-1.797819
 11
3.214233
 21
7.185784
 31
-1.911628
210
-0.0000000000000001
220
0.8175471248425399
230
0.5758617009853117
  0
LINE
  5
475
330
70
100
AcDbEntity
  8
Visible
100
AcDbLine
 10
3.214233
 20
7.185784
 30
-1.911628
 11
1.543746
 21
6.223823
 31
-0.546302
210
-0.0000000000000001
220
0.8175471248425399
230
0.5758617009853117
  0
LINE
  5
476
330
70
100
AcDbEntity
  8
Visible
100
AcDbLine
 10
5.301907
 20
4.92395
 30
0.615587
 11
5.274078
 21
4.90793
 31
0.638337
210
-0.0000000000000001
220
0.8175471248425399
230
0.5758617009853117
  0
LINE
  5
477
330
70
100
AcDbEntity
  8
Visible
100
AcDbLine
 10
4.912151
 20
4.699586
 30
0.9342
 11
4.912127
 21
4.699572
 31
0.93422
210
-0.0000000000000001
220
0.8175471248425399
230
0.5758617009853117
  0
LINE
  5
478
330
70
100
AcDbEntity
  8
Visible
100
AcDbLine
 10
5.301883
 20
4.923964
 30
0.615568
 11
5.301907
 21
4.92395
 31
0.615587
210
-0.0000000000000001
220
0.8175471248425399
230
0.5758617009853117
  0
LINE
  5
479
330
70
100
AcDbEntity
  8
Visible
100
AcDbLine
 10
4.912127
 20
4.699572
 30
0.93422
 11
4.884447
 21
4.715515
 31
0.911586
210
-0.0000000000000001
220
0.8175471248425399
230
0.5758617009853117
  0
LINE
  5
47A
330
70
100
AcDbEntity
  8
Visible
100
AcDbLine
 10
5.552399
 20
4.232067
 30
0.230485
 11
4.99557
 21
3.911528
 31
0.685675
210
-0.0000000000000001
220
0.8175471248425399
230
0.5758617009853117
  0
LINE
  5
47B
330
70
100
AcDbEntity
  8
Visible
100
AcDbLine
 10
2.239781
 20
5.498777
 30
-1.567734
 11
4.99557
 21
3.911528
 31
0.685675
210
-0.0000000000000001
220
0.8175471248425399
230
0.5758617009853117
  0
LINE
  5
47C
330
70
100
AcDbEntity
  8
Visible
100
AcDbLine
 10
4.99557
 20
3.911528
 30
0.685675
 11
4.99562
 21
4.555295
 31
1.139068
210
-0.0000000000000001
220
0.8175471248425399
230
0.5758617009853117
  0
LINE
  5
47D
330
70
100
AcDbEntity
  8
Visible
100
AcDbLine
 10
2.239831
 20
6.142544
 30
-1.11434
 11
4.99562
 21
4.555295
 31
1.139068
210
-0.0000000000000001
220
0.8175471248425399
230
0.5758617009853117
  0
LINE
  5
47E
330
70
100
AcDbEntity
  8
Visible
100
AcDbLine
 10
4.99562
 20
4.555295
 30
1.139068
 11
5.552449
 21
4.875834
 31
0.683879
210
-0.0000000000000001
220
0.8175471248425399
230
0.5758617009853117
  0
LINE
  5
47F
330
70
100
AcDbEntity
  8
Visible
100
AcDbLine
 10
2.79666
 20
6.463083
 30
-1.569529
 11
4.522461
 21
5.469075
 31
-0.158342
210
-0.0000000000000001
220
0.8175471248425399
230
0.5758617009853117
  0
LINE
  5
480
330
70
100
AcDbEntity
  8
Visible
100
AcDbLine
 10
5.301914
 20
5.020134
 30
0.479017
 11
5.552449
 21
4.875834
 31
0.683879
210
-0.0000000000000001
220
0.8175471248425399
230
0.5758617009853117
  0
LINE
  5
481
330
70
100
AcDbEntity
  8
Visible
100
AcDbLine
 10
5.552449
 20
4.875834
 30
0.683879
 11
5.552399
 21
4.232067
 31
0.230485
210
-0.0000000000000001
220
0.8175471248425399
230
0.5758617009853117
  0
ARC
  5
482
330
70
100
AcDbEntity
  8
Visible
100
AcDbCircle
 10
-8.084415
 20
0.821339
 30
-2.103999
 40
0.2165354330708663
210
-0.7076519728748557
220
0.4068814631069074
230
-0.5776470897237403
100
AcDbArc
 50
169.920523
 51
100.345105
  0
LINE
  5
483
330
70
100
AcDbEntity
  8
Visible
100
AcDbLine
 10
4.773282
 20
6.341659
 30
1.920947
 11
4.773272
 21
6.207329
 31
1.826341
210
-0.0000000000000001
220
0.8175471248425399
230
0.5758617009853117
  0
ARC
  5
484
330
70
100
AcDbEntity
  8
Visible
100
AcDbCircle
 10
8.05651
 20
0.793567
 30
2.103999
 40
0.3149606299212513
210
0.7076519728748535
220
-0.4068814631069104
230
0.5776470897237411
100
AcDbArc
 50
343.817044
 51
358.467557
  0
ARC
  5
485
330
70
100
AcDbEntity
  8
Visible
100
AcDbCircle
 10
8.05651
 20
0.793567
 30
2.103999
 40
0.3149606299212523
210
0.707651972874829
220
-0.4068814631068976
230
0.5776470897237801
100
AcDbArc
 50
91.266815
 51
105.906996
  0
LINE
  5
486
330
70
100
AcDbEntity
  8
Visible
100
AcDbLine
 10
4.912365
 20
3.411873
 30
0.027668
 11
4.912407
 21
3.959428
 31
0.413302
210
-0.0000000000000001
220
0.8175471248425399
230
0.5758617009853117
  0
LINE
  5
487
330
70
100
AcDbEntity
  8
Visible
100
AcDbLine
 10
4.912464
 20
4.699406
 30
0.934456
 11
4.912592
 21
6.369111
 31
2.1104
210
-0.0000000000000001
220
0.8175471248425399
230
0.5758617009853117
  0
LINE
  5
488
330
70
100
AcDbEntity
  8
Visible
100
AcDbLine
 10
5.301808
 20
3.636445
 30
-0.29124
 11
4.912365
 21
3.411873
 31
0.027668
210
-0.0000000000000001
220
0.8175471248425399
230
0.5758617009853117
  0
LINE
  5
489
330
70
100
AcDbEntity
  8
Visible
100
AcDbLine
 10
5.301808
 20
3.636445
 30
-0.29124
 11
5.301843
 21
4.087834
 31
0.026666
210
-0.0000000000000001
220
0.8175471248425399
230
0.5758617009853117
  0
LINE
  5
48A
330
70
100
AcDbEntity
  8
Visible
100
AcDbLine
 10
5.301907
 20
4.923978
 30
0.615548
 11
5.302035
 21
6.593682
 31
1.791492
210
-0.0000000000000001
220
0.8175471248425399
230
0.5758617009853117
  0
LINE
  5
48B
330
70
100
AcDbEntity
  8
Visible
100
AcDbLine
 10
4.912592
 20
6.369111
 30
2.1104
 11
4.866665
 21
6.395517
 31
2.072911
210
-0.0000000000000001
220
0.8175471248425399
230
0.5758617009853117
  0
LINE
  5
48C
330
70
100
AcDbEntity
  8
Visible
100
AcDbLine
 10
4.52232
 20
3.636138
 30
-0.29072
 11
4.522362
 21
4.184081
 31
0.095187
210
-0.0000000000000001
220
0.8175471248425399
230
0.5758617009853117
  0
LINE
  5
48D
330
70
100
AcDbEntity
  8
Visible
100
AcDbLine
 10
4.522419
 20
4.923671
 30
0.616068
 11
4.52252
 21
6.23538
 31
1.539881
210
-0.0000000000000001
220
0.8175471248425399
230
0.5758617009853117
  0
LINE
  5
48E
330
70
100
AcDbEntity
  8
Visible
100
AcDbLine
 10
4.661831
 20
6.271405
 30
1.735373
 11
4.661831
 21
6.280047
 31
1.74146
210
-0.0000000000000001
220
0.8175471248425399
230
0.5758617009853117
  0
ARC
  5
48F
330
70
100
AcDbEntity
  8
Visible
100
AcDbCircle
 10
8.15418
 20
0.890768
 30
1.749668
 40
0.3937007874015743
210
0.7076519728748636
220
-0.40688146310689
230
0.5776470897237429
100
AcDbArc
 50
180.435016
 51
207.443635
  0
LINE
  5
490
330
70
100
AcDbEntity
  8
Visible
100
AcDbLine
 10
4.773272
 20
6.207329
 30
1.826341
 11
4.661831
 21
6.271405
 31
1.735373
210
-0.0000000000000001
220
0.8175471248425399
230
0.5758617009853117
  0
LINE
  5
491
330
70
100
AcDbEntity
  8
Visible
100
AcDbLine
 10
4.912365
 20
3.411873
 30
0.027668
 11
4.52232
 21
3.636138
 31
-0.29072
210
-0.0000000000000001
220
0.8175471248425399
230
0.5758617009853117
  0
ARC
  5
492
330
70
100
AcDbEntity
  8
Visible
100
AcDbCircle
 10
-4.355943
 20
-1.774908
 30
6.702908
 40
0.492125984251968
210
-0.0000007926227731
220
0.8175467209519894
230
0.5758622743851366
100
AcDbArc
 50
360.0
 51
135.044161
  0
LINE
  5
493
330
70
100
AcDbEntity
  8
Visible Narrow
100
AcDbLine
 10
4.704191
 20
6.462744
 30
2.806516
 11
4.704191
 21
6.30181
 31
2.693157
210
-0.0000000000000001
220
0.8175471248425399
230
0.5758617009853117
  0
ARC
  5
494
330
70
100
AcDbEntity
  8
Visible
100
AcDbCircle
 10
-4.355943
 20
-1.774908
 30
6.899758
 40
0.4921259842519683
210
-0.0000007926227733
220
0.817546720951989
230
0.5758622743851369
100
AcDbArc
 50
315.044161
 51
135.044161
  0
LINE
  5
495
330
70
100
AcDbEntity
  8
Visible
100
AcDbLine
 10
4.704191
 20
6.30181
 30
2.693157
 11
5.816885
 21
6.943559
 31
1.782073
210
-0.0000000000000001
220
0.8175471248425399
230
0.5758617009853117
  0
LINE
  5
496
330
70
100
AcDbEntity
  8
Visible Narrow
100
AcDbLine
 10
5.816885
 20
7.104493
 30
1.895432
 11
5.816885
 21
6.943559
 31
1.782073
210
-0.0000000000000001
220
0.8175471248425399
230
0.5758617009853117
  0
LINE
  5
497
330
70
100
AcDbEntity
  8
Visible
100
AcDbLine
 10
4.704191
 20
6.462744
 30
2.806516
 11
5.816885
 21
7.104493
 31
1.895432
210
-0.0000000000000001
220
0.8175471248425399
230
0.5758617009853117
  0
ARC
  5
498
330
70
100
AcDbEntity
  8
Visible
100
AcDbCircle
 10
-5.468638
 20
-2.88932
 30
6.702908
 40
0.4921259842519666
210
-0.0000007926227717
220
0.8175467209519885
230
0.5758622743851373
100
AcDbArc
 50
135.044161
 51
180.0
  0
ARC
  5
499
330
70
100
AcDbEntity
  8
Visible
100
AcDbCircle
 10
-5.468638
 20
-2.88932
 30
6.899758
 40
0.4921259842519682
210
-0.0000007926227733
220
0.817546720951989
230
0.5758622743851369
100
AcDbArc
 50
135.044161
 51
315.044161
  0
LINE
  5
49A
330
70
100
AcDbEntity
  8
Visible
100
AcDbLine
 10
5.120377
 20
7.504967
 30
1.326882
 11
4.007683
 21
6.863218
 31
2.237965
210
-0.0000000000000001
220
0.8175471248425399
230
0.5758617009853117
  0
ARC
  5
49B
330
70
100
AcDbEntity
  8
Visible
100
AcDbCircle
 10
-4.912284
 20
6.501052
 30
-1.726623
 40
0.2755905511811025
210
0.0000000000000005
220
-0.0000000000000006
230
-1.0
100
AcDbArc
 50
300.2916
 51
315.606125
  0
LINE
  5
49C
330
70
100
AcDbEntity
  8
Visible
100
AcDbLine
 10
3.863811
 20
6.662981
 30
2.522241
 11
3.863811
 21
6.502046
 31
2.408882
210
-0.0000000000000001
220
0.8175471248425399
230
0.5758617009853117
  0
LINE
  5
49D
330
70
100
AcDbEntity
  8
Visible
100
AcDbLine
 10
5.960757
 20
7.304731
 30
1.611157
 11
5.960758
 21
7.143796
 31
1.497798
210
-0.0000000000000001
220
0.8175471248425399
230
0.5758617009853117
  0
CIRCLE
  5
49E
330
70
100
AcDbEntity
  8
Visible Narrow
100
AcDbCircle
 10
-8.084415
 20
0.821339
 30
-2.11581
 40
0.1059055118110237
210
-0.7076519728748563
220
0.4068814631069076
230
-0.5776470897237397
  0
LINE
  5
49F
330
70
100
AcDbEntity
  8
Visible
100
AcDbLine
 10
5.06003
 20
6.314861
 30
1.912014
 11
5.06003
 21
6.389193
 31
1.964372
210
-0.0000000000000001
220
0.8175471248425399
230
0.5758617009853117
  0
LINE
  5
4A0
330
70
100
AcDbEntity
  8
Visible
100
AcDbLine
 10
5.06003
 20
6.389193
 30
1.964372
 11
5.115665
 21
6.458447
 31
1.944997
210
-0.0000000000000001
220
0.8175471248425399
230
0.5758617009853117
  0
LINE
  5
4A1
330
70
100
AcDbEntity
  8
Visible
100
AcDbLine
 10
5.115665
 20
6.458447
 30
1.944997
 11
5.1713
 21
6.453368
 31
1.873264
210
-0.0000000000000001
220
0.8175471248425399
230
0.5758617009853117
  0
LINE
  5
4A2
330
70
100
AcDbEntity
  8
Visible
100
AcDbLine
 10
5.1713
 20
6.453368
 30
1.873264
 11
5.1713
 21
6.379035
 31
1.820906
210
-0.0000000000000001
220
0.8175471248425399
230
0.5758617009853117
  0
LINE
  5
4A3
330
70
100
AcDbEntity
  8
Visible
100
AcDbLine
 10
5.1713
 20
6.379035
 30
1.820906
 11
5.115665
 21
6.309782
 31
1.840281
210
-0.0000000000000001
220
0.8175471248425399
230
0.5758617009853117
  0
LINE
  5
4A4
330
70
100
AcDbEntity
  8
Visible
100
AcDbLine
 10
5.115665
 20
6.309782
 30
1.840281
 11
5.06003
 21
6.314861
 31
1.912014
210
-0.0000000000000001
220
0.8175471248425399
230
0.5758617009853117
  0
SPLINE
  5
4A5
330
70
100
AcDbEntity
  8
Visible
100
AcDbSpline
210
-0.3532805843813048
220
0.5042618172978388
230
0.787980233454295
 70
    12
 71
     2
 72
     6
 73
     3
 74
     0
 42
0.000000001
 43
0.0000000001
 40
0.0126349474794618
 40
0.0126349474794618
 40
0.0126349474794618
 40
0.2336872276155822
 40
0.2336872276155822
 40
0.2336872276155822
 10
5.060030038890428
 20
6.347947400943667
 30
1.790914141474786
 41
1.015824146980948
 10
5.077995964654174
 20
6.384448880323361
 30
1.775610090609916
 41
1.146336225115705
 10
5.113350061399497
 20
6.412354678407609
 30
1.773602537083206
 41
1.0
1001
ACAD_VIEW_EDGE_ID
1071
        9
1071
       -1
1071
        6
1071
        0
  0
LINE
  5
4A6
330
70
100
AcDbEntity
  8
Visible
100
AcDbLine
 10
5.06003
 20
6.34177
 30
1.794867
 11
5.115665
 21
6.309782
 31
1.840281
210
-0.0000000000000001
220
0.8175471248425399
230
0.5758617009853117
  0
LINE
  5
4A7
330
70
100
AcDbEntity
  8
Visible
100
AcDbLine
 10
5.11335
 20
6.412355
 30
1.773603
 11
5.1713
 21
6.379035
 31
1.820906
210
-0.0000000000000001
220
0.8175471248425399
230
0.5758617009853117
  0
SPLINE
  5
4A8
330
70
100
AcDbEntity
  8
Visible
100
AcDbSpline
210
-0.706561169405383
220
-0.4075096151404241
230
0.5785388729001717
 70
    12
 71
     2
 72
     6
 73
     3
 74
     0
 42
0.000000001
 43
0.0000000001
 40
0.0
 40
0.0
 40
0.0
 40
0.1068547008604652
 40
0.1068547008604652
 40
0.1068547008604652
 10
5.113350061399497
 20
6.412354678407609
 30
1.773602537083206
 41
1.0
 10
5.10877064947078
 20
6.433314807832175
 30
1.782773605573311
 41
1.070737626185803
 10
5.108407074496309
 20
6.449412242010112
 30
1.793668242982676
 41
1.076784957032937
1001
ACAD_VIEW_EDGE_ID
1071
       18
1071
       -1
1071
        6
1071
        0
  0
SPLINE
  5
4A9
330
70
100
AcDbEntity
  8
Visible
100
AcDbSpline
 70
     0
 71
     3
 72
    26
 73
    22
 74
     0
 42
0.000000001
 43
0.0000000001
 40
0.9710276379767373
 40
0.9710276379767373
 40
0.9710276379767373
 40
0.9710276379767373
 40
0.9799716727906552
 40
0.9799716727906552
 40
1.19230660000025
 40
1.19230660000025
 40
1.453449012484602
 40
1.453449012484602
 40
1.798883198422275
 40
1.798883198422275
 40
2.207143221696765
 40
2.207143221696765
 40
2.617264185740774
 40
2.617264185740774
 40
3.028728619848761
 40
3.028728619848761
 40
3.425481552443727
 40
3.425481552443727
 40
3.714856352465893
 40
3.714856352465893
 40
3.796595825957043
 40
3.796595825957043
 40
3.796595825957043
 40
3.796595825957043
 10
5.181154234325614
 20
6.576899530256014
 30
1.818267135036876
 10
5.181604772831516
 20
6.576397005578655
 30
1.818013938815056
 10
5.182050872104692
 20
6.575892114764428
 30
1.817760957950667
 10
5.192977195512749
 20
6.563345415917865
 30
1.811507689555583
 10
5.200857219233395
 20
6.550116777268158
 30
1.805634933372857
 10
5.213464081563753
 20
6.520705601927147
 30
1.793117612292917
 10
5.217172905769867
 20
6.504539083120107
 30
1.786607496615033
 10
5.221088276998553
 20
6.468367955513713
 30
1.772910808615051
 10
5.219833573550996
 20
6.448678996632224
 30
1.766191265360248
 10
5.212406674986478
 20
6.407374675017308
 30
1.754746850778246
 10
5.205306492765767
 20
6.386006795548382
 30
1.750619434324107
 10
5.186362368082765
 20
6.345414474932113
 30
1.747171481454643
 10
5.174478029412849
 20
6.326224107640882
 30
1.747874841346856
 10
5.146286131684856
 20
6.291099345226939
 30
1.754038759929244
 10
5.13000937103413
 20
6.275144138847281
 30
1.759512192460533
 10
5.092676369620559
 20
6.248716081175189
 30
1.774063337674306
 10
5.071722253330218
 20
6.237848190108707
 30
1.782997296249959
 10
5.028667413519425
 20
6.227551611776107
 30
1.800356303956505
 10
5.008174915625087
 20
6.225984208234876
 30
1.808258195536836
 10
4.980816565923188
 20
6.230641682669556
 30
1.818717849298991
 10
4.974749787792344
 20
6.232080436842807
 30
1.821041691551727
 10
4.968737941059654
 20
6.233956346138256
 30
1.823377838078158
1001
ACAD_VIEW_EDGE_ID
1071
       -1
1071
       -1
1071
        6
1071
        0
  0
ENDSEC
  0
SECTION
  2
OBJECTS
  0
DICTIONARY
  5
C
330
0
100
AcDbDictionary
281
     1
  3
ACAD_COLOR
350
63
  3
ACAD_DETAILVIEWSTYLE
350
6A
  3
ACAD_GROUP
350
D
  3
ACAD_IMAGE_DICT
350
197
  3
ACAD_IMAGE_VARS
350
199
  3
ACAD_LAYOUT
350
62
  3
ACAD_MATERIAL
350
10
  3
ACAD_MLEADERSTYLE
350
66
  3
ACAD_MLINESTYLE
350
5F
  3
ACAD_PLOTSETTINGS
350
61
  3
ACAD_PLOTSTYLENAME
350
E
  3
ACAD_SCALELIST
350
42
  3
ACAD_SECTIONVIEWSTYLE
350
68
  3
ACAD_TABLESTYLE
350
64
  3
ACAD_VISUALSTYLE
350
29
  3
ACDB_RECOMPOSE_DATA
350
50F
  3
AcDbVariableDictionary
350
506
  0
DICTIONARY
  5
B1
330
70
100
AcDbDictionary
280
     1
281
     1
  3
ACAD_SORTENTS
360
18D
  0
DICTIONARY
  5
191
330
190
100
AcDbDictionary
280
     1
281
     1
  3
ACAD_SORTENTS
360
3E2
  0
IMAGEDEF_REACTOR
  5
198
330
195
100
AcDbRasterImageDefReactor
 90
        2
330
195
  0
DICTIONARY
  5
63
102
{ACAD_REACTORS
330
C
102
}
330
C
100
AcDbDictionary
281
     1
  0
DICTIONARY
  5
6A
102
{ACAD_REACTORS
330
C
102
}
330
C
100
AcDbDictionary
281
     1
  3
Imperial24
350
6B
  0
DICTIONARY
  5
D
102
{ACAD_REACTORS
330
C
102
}
330
C
100
AcDbDictionary
281
     1
  0
DICTIONARY
  5
197
102
{ACAD_REACTORS
330
C
102
}
330
C
100
AcDbDictionary
281
     1
  3
morse_logo-16 (1)_01-2018(B)_1_1
350
196
  0
RASTERVARIABLES
  5
199
102
{ACAD_REACTORS
330
C
102
}
330
C
100
AcDbRasterVariables
 90
        0
 70
     0
 71
     1
 72
     5
  0
DICTIONARY
  5
62
102
{ACAD_REACTORS
330
C
102
}
330
C
100
AcDbDictionary
281
     1
  3
Model
350
73
  3
Sheet1
350
6F
  3
Sheet2
350
77
  0
DICTIONARY
  5
10
102
{ACAD_REACTORS
330
C
102
}
330
C
100
AcDbDictionary
281
     1
  3
ByBlock
350
19
  3
ByLayer
350
11
  3
Global
350
21
  0
DICTIONARY
  5
66
102
{ACAD_REACTORS
330
C
102
}
330
C
100
AcDbDictionary
281
     1
  3
Standard
350
67
  0
DICTIONARY
  5
5F
102
{ACAD_REACTORS
330
C
102
}
330
C
100
AcDbDictionary
281
     1
  3
Standard
350
60
  0
DICTIONARY
  5
61
102
{ACAD_REACTORS
330
C
102
}
330
C
100
AcDbDictionary
281
     1
  0
ACDBDICTIONARYWDFLT
  5
E
102
{ACAD_REACTORS
330
C
102
}
330
C
100
AcDbDictionary
281
     1
  3
Normal
350
F
100
AcDbDictionaryWithDefault
340
F
  0
DICTIONARY
  5
42
102
{ACAD_REACTORS
330
C
102
}
330
C
100
AcDbDictionary
281
     1
  3
*A1
350
A1
  3
*A10
350
AA
  3
*A11
350
AB
  3
*A12
350
AC
  3
*A13
350
AD
  3
*A14
350
AE
  3
*A15
350
AF
  3
*A16
350
B0
  3
*A2
350
A2
  3
*A3
350
A3
  3
*A4
350
A4
  3
*A5
350
A5
  3
*A6
350
A6
  3
*A7
350
A7
  3
*A8
350
A8
  3
*A9
350
A9
  3
A0
350
43
  3
A1
350
44
  3
A2
350
45
  3
A3
350
46
  3
A4
350
47
  3
A5
350
48
  3
A6
350
49
  3
A7
350
4A
  3
A8
350
4B
  3
A9
350
4C
  3
B0
350
4D
  3
B1
350
4E
  3
B2
350
4F
  3
B3
350
50
  3
B4
350
51
  3
B5
350
52
  3
B6
350
53
  0
DICTIONARY
  5
68
102
{ACAD_REACTORS
330
C
102
}
330
C
100
AcDbDictionary
281
     1
  3
Imperial24
350
69
  0
DICTIONARY
  5
64
102
{ACAD_REACTORS
330
C
102
}
330
C
100
AcDbDictionary
281
     1
  3
Standard
350
65
  0
DICTIONARY
  5
29
102
{ACAD_REACTORS
330
C
102
}
330
C
100
AcDbDictionary
281
     1
  3
2dWireframe
350
2F
  3
Basic
350
2E
  3
Brighten
350
35
  3
ColorChange
350
39
  3
Conceptual
350
32
  3
Dim
350
34
  3
EdgeColorOff
350
41
  3
Facepattern
350
38
  3
Flat
350
2A
  3
FlatWithEdges
350
2B
  3
Gouraud
350
2C
  3
GouraudWithEdges
350
2D
  3
Hidden
350
31
  3
JitterOff
350
3F
  3
Linepattern
350
37
  3
OverhangOff
350
40
  3
Realistic
350
33
  3
Shaded
350
3E
  3
Shaded with edges
350
3D
  3
Shades of Gray
350
3A
  3
Sketchy
350
3B
  3
Thicken
350
36
  3
Wireframe
350
30
  3
X-Ray
350
3C
  0
XRECORD
  5
50F
102
{ACAD_REACTORS
330
C
102
}
330
C
100
AcDbXrecord
280
     1
 90
        1
330
65
330
19D
330
1A7
330
1A8
330
1A9
330
1AC
  0
DICTIONARY
  5
506
102
{ACAD_REACTORS
330
C
102
}
330
C
100
AcDbDictionary
281
     1
  3
ANNOALLVISIBLE
350
50B
  3
CANNOSCALE
350
50C
  3
CMLEADERSTYLE
350
508
  3
CTABLESTYLE
350
507
  3
CVIEWDETAILSTYLE
350
509
  3
CVIEWSECTIONSTYLE
350
50A
  0
SORTENTSTABLE
  5
18D
102
{ACAD_REACTORS
330
B1
102
}
330
B1
100
AcDbSortentsTable
330
70
  0
SORTENTSTABLE
  5
3E2
102
{ACAD_REACTORS
330
191
102
}
330
191
100
AcDbSortentsTable
330
190
  0
ACDBDETAILVIEWSTYLE
  5
6B
102
{ACAD_XDICTIONARY
360
512
102
}
102
{ACAD_REACTORS
330
6A
102
}
330
6A
100
AcDbModelDocViewStyle
 70
     0
  3
Imperial24
290
     0
100
AcDbDetailViewStyle
 70
     0
 71
     0
 90
        3
 71
     1
340
55
 62
   256
 40
0.24
340
0
 62
   256
 40
0.24
300

 40
0.36
280
     3
 71
     2
340
5D
 90
       25
 62
   256
 71
     3
340
55
 62
   256
 40
0.24
 90
        1
 40
0.75
 90
        1
300
%<\AcVar ViewType \f "%tc1">% %<\AcVar ViewDetailId>%\PSCALE %<\AcVar ViewScale \f "%sn">%
 71
     4
340
5D
 90
       25
 62
   256
340
5D
 90
       25
 62
   256
280
     0
  0
IMAGEDEF
  5
196
102
{ACAD_REACTORS
330
197
330
198
330
4AA
102
}
330
197
100
AcDbRasterImageDef
 90
        0
  1
morse_logo-16 (1)_01-2018(B)_1_1.jpg
 10
948.0
 20
333.0
 11
0.264583
 21
0.264583
280
     1
281
     5
  0
LAYOUT
  5
73
102
{ACAD_REACTORS
330
62
102
}
330
62
100
AcDbPlotSettings
  1

  2
AutoCAD PDF (High Quality Print).pc3
  4
ANSI_full_bleed_B_(17.00_x_11.00_Inches)
  6

 40
0.0
 41
0.0
 42
0.0
 43
0.0
 44
431.799988
 45
279.399994
 46
0.0
 47
0.0
 48
0.0
 49
0.0
140
0.0
141
0.0
142
1.0
143
1.119424
 70
 11952
 72
     0
 73
     0
 74
     0
  7

 75
     0
147
0.893317
 76
     0
 77
     2
 78
   300
148
-55.399345
149
5.198862
100
AcDbLayout
  1
Model
 70
     1
 71
     0
 10
0.0
 20
0.0
 11
12.0
 21
9.0
 12
0.0
 22
0.0
 32
0.0
 14
0.0
 24
0.0
 34
0.0
 15
0.0
 25
0.0
 35
0.0
146
0.0
 13
0.0
 23
0.0
 33
0.0
 16
1.0
 26
0.0
 36
0.0
 17
0.0
 27
1.0
 37
0.0
 76
     0
330
70
1001
ACAD_PSEXT
1000
AutoCAD PDF (High Quality Print).pc3
1000
DWG To PDF
1000
File
1000

1070
     0
  0
LAYOUT
  5
6F
102
{ACAD_REACTORS
330
62
102
}
330
62
100
AcDbPlotSettings
  1

  2
None
  4

  6

 40
0.0
 41
0.0
 42
0.0
 43
0.0
 44
0.0
 45
0.0
 46
0.0
 47
0.0
 48
0.0
 49
0.0
140
0.0
141
0.0
142
1.0
143
1.0
 70
   688
 72
     0
 73
     0
 74
     5
  7

 75
    16
147
1.0
 76
     0
 77
     2
 78
   300
148
0.0
149
0.0
100
AcDbLayout
  1
Sheet1
 70
     1
 71
     1
 10
0.0
 20
0.0
 11
12.0
 21
9.0
 12
0.0
 22
0.0
 32
0.0
 14
0.0
 24
0.0
 34
0.0
 15
0.0
 25
0.0
 35
0.0
146
0.0
 13
0.0
 23
0.0
 33
0.0
 16
1.0
 26
0.0
 36
0.0
 17
0.0
 27
1.0
 37
0.0
 76
     0
330
6C
  0
LAYOUT
  5
77
102
{ACAD_REACTORS
330
62
102
}
330
62
100
AcDbPlotSettings
  1

  2
None
  4

  6

 40
0.0
 41
0.0
 42
0.0
 43
0.0
 44
0.0
 45
0.0
 46
0.0
 47
0.0
 48
0.0
 49
0.0
140
0.0
141
0.0
142
1.0
143
1.0
 70
   688
 72
     0
 73
     0
 74
     5
  7

 75
    16
147
1.0
 76
     0
 77
     2
 78
   300
148
0.0
149
0.0
100
AcDbLayout
  1
Sheet2
 70
     1
 71
     2
 10
0.0
 20
0.0
 11
12.0
 21
9.0
 12
0.0
 22
0.0
 32
0.0
 14
0.0
 24
0.0
 34
0.0
 15
0.0
 25
0.0
 35
0.0
146
0.0
 13
0.0
 23
0.0
 33
0.0
 16
1.0
 26
0.0
 36
0.0
 17
0.0
 27
1.0
 37
0.0
 76
     0
330
74
  0
MATERIAL
  5
19
102
{ACAD_XDICTIONARY
360
1A
102
}
102
{ACAD_REACTORS
330
10
102
}
330
10
100
AcDbMaterial
  1
ByBlock
 72
     0
 43
0.020833
 43
0.0
 43
0.0
 43
0.0
 43
0.0
 43
0.020833
 43
0.0
 43
0.0
 43
0.0
 43
0.0
 43
1.0
 43
0.0
 43
0.0
 43
0.0
 43
0.0
 43
1.0
 77
     0
 47
0.020833
 47
0.0
 47
0.0
 47
0.0
 47
0.0
 47
0.020833
 47
0.0
 47
0.0
 47
0.0
 47
0.0
 47
1.0
 47
0.0
 47
0.0
 47
0.0
 47
0.0
 47
1.0
171
     0
 49
0.020833
 49
0.0
 49
0.0
 49
0.0
 49
0.0
 49
0.020833
 49
0.0
 49
0.0
 49
0.0
 49
0.0
 49
1.0
 49
0.0
 49
0.0
 49
0.0
 49
0.0
 49
1.0
175
     0
142
0.020833
142
0.0
142
0.0
142
0.0
142
0.0
142
0.020833
142
0.0
142
0.0
142
0.0
142
0.0
142
1.0
142
0.0
142
0.0
142
0.0
142
0.0
142
1.0
179
     0
144
0.020833
144
0.0
144
0.0
144
0.0
144
0.0
144
0.020833
144
0.0
144
0.0
144
0.0
144
0.0
144
1.0
144
0.0
144
0.0
144
0.0
144
0.0
144
1.0
147
0.020833
147
0.0
147
0.0
147
0.0
147
0.0
147
0.020833
147
0.0
147
0.0
147
0.0
147
0.0
147
1.0
147
0.0
147
0.0
147
0.0
147
0.0
147
1.0
  0
MATERIAL
  5
11
102
{ACAD_XDICTIONARY
360
12
102
}
102
{ACAD_REACTORS
330
10
102
}
330
10
100
AcDbMaterial
  1
ByLayer
 72
     0
 43
0.020833
 43
0.0
 43
0.0
 43
0.0
 43
0.0
 43
0.020833
 43
0.0
 43
0.0
 43
0.0
 43
0.0
 43
1.0
 43
0.0
 43
0.0
 43
0.0
 43
0.0
 43
1.0
 77
     0
 47
0.020833
 47
0.0
 47
0.0
 47
0.0
 47
0.0
 47
0.020833
 47
0.0
 47
0.0
 47
0.0
 47
0.0
 47
1.0
 47
0.0
 47
0.0
 47
0.0
 47
0.0
 47
1.0
171
     0
 49
0.020833
 49
0.0
 49
0.0
 49
0.0
 49
0.0
 49
0.020833
 49
0.0
 49
0.0
 49
0.0
 49
0.0
 49
1.0
 49
0.0
 49
0.0
 49
0.0
 49
0.0
 49
1.0
175
     0
142
0.020833
142
0.0
142
0.0
142
0.0
142
0.0
142
0.020833
142
0.0
142
0.0
142
0.0
142
0.0
142
1.0
142
0.0
142
0.0
142
0.0
142
0.0
142
1.0
179
     0
144
0.020833
144
0.0
144
0.0
144
0.0
144
0.0
144
0.020833
144
0.0
144
0.0
144
0.0
144
0.0
144
1.0
144
0.0
144
0.0
144
0.0
144
0.0
144
1.0
147
0.020833
147
0.0
147
0.0
147
0.0
147
0.0
147
0.020833
147
0.0
147
0.0
147
0.0
147
0.0
147
1.0
147
0.0
147
0.0
147
0.0
147
0.0
147
1.0
  0
MATERIAL
  5
21
102
{ACAD_XDICTIONARY
360
22
102
}
102
{ACAD_REACTORS
330
10
102
}
330
10
100
AcDbMaterial
  1
Global
 72
     0
 43
0.020833
 43
0.0
 43
0.0
 43
0.0
 43
0.0
 43
0.020833
 43
0.0
 43
0.0
 43
0.0
 43
0.0
 43
1.0
 43
0.0
 43
0.0
 43
0.0
 43
0.0
 43
1.0
 77
     0
 47
0.020833
 47
0.0
 47
0.0
 47
0.0
 47
0.0
 47
0.020833
 47
0.0
 47
0.0
 47
0.0
 47
0.0
 47
1.0
 47
0.0
 47
0.0
 47
0.0
 47
0.0
 47
1.0
171
     0
 49
0.020833
 49
0.0
 49
0.0
 49
0.0
 49
0.0
 49
0.020833
 49
0.0
 49
0.0
 49
0.0
 49
0.0
 49
1.0
 49
0.0
 49
0.0
 49
0.0
 49
0.0
 49
1.0
175
     0
142
0.020833
142
0.0
142
0.0
142
0.0
142
0.0
142
0.020833
142
0.0
142
0.0
142
0.0
142
0.0
142
1.0
142
0.0
142
0.0
142
0.0
142
0.0
142
1.0
179
     0
144
0.020833
144
0.0
144
0.0
144
0.0
144
0.0
144
0.020833
144
0.0
144
0.0
144
0.0
144
0.0
144
1.0
144
0.0
144
0.0
144
0.0
144
0.0
144
1.0
147
0.020833
147
0.0
147
0.0
147
0.0
147
0.0
147
0.020833
147
0.0
147
0.0
147
0.0
147
0.0
147
1.0
147
0.0
147
0.0
147
0.0
147
0.0
147
1.0
  0
MLEADERSTYLE
  5
67
102
{ACAD_REACTORS
330
66
102
}
330
66
100
AcDbMLeaderStyle
179
     2
170
     2
171
     1
172
     0
 90
        2
 40
0.0
 41
0.0
173
     1
 91
-1056964608
340
5B
 92
       -2
290
     1
 42
0.09
291
     1
 43
0.36
  3
Standard
 44
0.18
300

342
55
174
     1
178
     6
175
     1
176
     0
 93
-1056964608
 45
0.18
292
     0
297
     0
 46
0.18
 94
-1056964608
 47
1.0
 49
1.0
140
1.0
293
     1
141
0.0
294
     1
177
     0
142
1.0
295
     0
296
     0
143
0.125
271
     0
272
     9
273
     9
298
     1
  0
MLINESTYLE
  5
60
102
{ACAD_REACTORS
330
5F
102
}
330
5F
100
AcDbMlineStyle
  2
STANDARD
 70
     0
  3

 62
   256
 51
90.0
 52
90.0
 71
     0
  0
ACDBPLACEHOLDER
  5
F
102
{ACAD_REACTORS
330
E
102
}
330
E
  0
SCALE
  5
A1
102
{ACAD_REACTORS
330
42
102
}
330
42
100
AcDbScale
 70
     0
300
1:2
140
1.0
141
2.0
290
     0
  0
SCALE
  5
AA
102
{ACAD_REACTORS
330
42
102
}
330
42
100
AcDbScale
 70
     0
300
1:50
140
1.0
141
50.0
290
     0
  0
SCALE
  5
AB
102
{ACAD_REACTORS
330
42
102
}
330
42
100
AcDbScale
 70
     0
300
1:100
140
1.0
141
100.0
290
     0
  0
SCALE
  5
AC
102
{ACAD_REACTORS
330
42
102
}
330
42
100
AcDbScale
 70
     0
300
2:1
140
2.0
141
1.0
290
     0
  0
SCALE
  5
AD
102
{ACAD_REACTORS
330
42
102
}
330
42
100
AcDbScale
 70
     0
300
4:1
140
4.0
141
1.0
290
     0
  0
SCALE
  5
AE
102
{ACAD_REACTORS
330
42
102
}
330
42
100
AcDbScale
 70
     0
300
8:1
140
8.0
141
1.0
290
     0
  0
SCALE
  5
AF
102
{ACAD_REACTORS
330
42
102
}
330
42
100
AcDbScale
 70
     0
300
10:1
140
10.0
141
1.0
290
     0
  0
SCALE
  5
B0
102
{ACAD_REACTORS
330
42
102
}
330
42
100
AcDbScale
 70
     0
300
100:1
140
100.0
141
1.0
290
     0
  0
SCALE
  5
A2
102
{ACAD_REACTORS
330
42
102
}
330
42
100
AcDbScale
 70
     0
300
1:4
140
1.0
141
4.0
290
     0
  0
SCALE
  5
A3
102
{ACAD_REACTORS
330
42
102
}
330
42
100
AcDbScale
 70
     0
300
1:5
140
1.0
141
5.0
290
     0
  0
SCALE
  5
A4
102
{ACAD_REACTORS
330
42
102
}
330
42
100
AcDbScale
 70
     0
300
1:8
140
1.0
141
8.0
290
     0
  0
SCALE
  5
A5
102
{ACAD_REACTORS
330
42
102
}
330
42
100
AcDbScale
 70
     0
300
1:10
140
1.0
141
10.0
290
     0
  0
SCALE
  5
A6
102
{ACAD_REACTORS
330
42
102
}
330
42
100
AcDbScale
 70
     0
300
1:16
140
1.0
141
16.0
290
     0
  0
SCALE
  5
A7
102
{ACAD_REACTORS
330
42
102
}
330
42
100
AcDbScale
 70
     0
300
1:20
140
1.0
141
20.0
290
     0
  0
SCALE
  5
A8
102
{ACAD_REACTORS
330
42
102
}
330
42
100
AcDbScale
 70
     0
300
1:30
140
1.0
141
30.0
290
     0
  0
SCALE
  5
A9
102
{ACAD_REACTORS
330
42
102
}
330
42
100
AcDbScale
 70
     0
300
1:40
140
1.0
141
40.0
290
     0
  0
SCALE
  5
43
102
{ACAD_REACTORS
330
42
102
}
330
42
100
AcDbScale
 70
     0
300
1:1
140
1.0
141
1.0
290
     1
  0
SCALE
  5
44
102
{ACAD_REACTORS
330
42
102
}
330
42
100
AcDbScale
 70
     0
300
1/128" = 1'-0"
140
0.007813
141
12.0
290
     0
  0
SCALE
  5
45
102
{ACAD_REACTORS
330
42
102
}
330
42
100
AcDbScale
 70
     0
300
1/64" = 1'-0"
140
0.015625
141
12.0
290
     0
  0
SCALE
  5
46
102
{ACAD_REACTORS
330
42
102
}
330
42
100
AcDbScale
 70
     0
300
1/32" = 1'-0"
140
0.03125
141
12.0
290
     0
  0
SCALE
  5
47
102
{ACAD_REACTORS
330
42
102
}
330
42
100
AcDbScale
 70
     0
300
1/16" = 1'-0"
140
0.0625
141
12.0
290
     0
  0
SCALE
  5
48
102
{ACAD_REACTORS
330
42
102
}
330
42
100
AcDbScale
 70
     0
300
3/32" = 1'-0"
140
0.09375
141
12.0
290
     0
  0
SCALE
  5
49
102
{ACAD_REACTORS
330
42
102
}
330
42
100
AcDbScale
 70
     0
300
1/8" = 1'-0"
140
0.125
141
12.0
290
     0
  0
SCALE
  5
4A
102
{ACAD_REACTORS
330
42
102
}
330
42
100
AcDbScale
 70
     0
300
3/16" = 1'-0"
140
0.1875
141
12.0
290
     0
  0
SCALE
  5
4B
102
{ACAD_REACTORS
330
42
102
}
330
42
100
AcDbScale
 70
     0
300
1/4" = 1'-0"
140
0.25
141
12.0
290
     0
  0
SCALE
  5
4C
102
{ACAD_REACTORS
330
42
102
}
330
42
100
AcDbScale
 70
     0
300
3/8" = 1'-0"
140
0.375
141
12.0
290
     0
  0
SCALE
  5
4D
102
{ACAD_REACTORS
330
42
102
}
330
42
100
AcDbScale
 70
     0
300
1/2" = 1'-0"
140
0.5
141
12.0
290
     0
  0
SCALE
  5
4E
102
{ACAD_REACTORS
330
42
102
}
330
42
100
AcDbScale
 70
     0
300
3/4" = 1'-0"
140
0.75
141
12.0
290
     0
  0
SCALE
  5
4F
102
{ACAD_REACTORS
330
42
102
}
330
42
100
AcDbScale
 70
     0
300
1" = 1'-0"
140
1.0
141
12.0
290
     0
  0
SCALE
  5
50
102
{ACAD_REACTORS
330
42
102
}
330
42
100
AcDbScale
 70
     0
300
1-1/2" = 1'-0"
140
1.5
141
12.0
290
     0
  0
SCALE
  5
51
102
{ACAD_REACTORS
330
42
102
}
330
42
100
AcDbScale
 70
     0
300
3" = 1'-0"
140
3.0
141
12.0
290
     0
  0
SCALE
  5
52
102
{ACAD_REACTORS
330
42
102
}
330
42
100
AcDbScale
 70
     0
300
6" = 1'-0"
140
6.0
141
12.0
290
     0
  0
SCALE
  5
53
102
{ACAD_REACTORS
330
42
102
}
330
42
100
AcDbScale
 70
     0
300
1'-0" = 1'-0"
140
12.0
141
12.0
290
     0
  0
ACDBSECTIONVIEWSTYLE
  5
69
102
{ACAD_XDICTIONARY
360
510
102
}
102
{ACAD_REACTORS
330
68
102
}
330
68
100
AcDbModelDocViewStyle
 70
     0
  3
Imperial24
290
     0
100
AcDbSectionViewStyle
 70
     0
 71
     0
 90
       78
 71
     1
340
55
 62
   256
 40
0.24
340
0
340
0
 62
   256
 40
0.24
300
I, O, Q, S, X, Z
 40
0.48
 90
        3
 40
0.18
 90
        1
 71
     2
340
5D
 90
       25
 62
   256
340
5D
 90
       50
 62
   256
 40
0.24
 40
0.0
 40
0.24
 71
     3
340
55
 62
   256
 40
0.24
 90
        1
 40
0.75
 90
        1
300
%<\AcVar ViewType \f "%tc1">% %<\AcVar ViewSectionStartId>%-%<\AcVar ViewSectionEndId>%\PSCALE %<\AcVar ViewScale \f "%sn">%
 71
     4
 62
   256
 62
   257
300
ANSI31
 40
1.0
 90
        0
290
     0
290
     0
 90
        6
 40
0.0
 40
1.570796
 40
0.261799
 40
1.308997
 40
-0.261799
 40
1.832596
  0
TABLESTYLE
  5
65
102
{ACAD_XDICTIONARY
360
50D
102
}
102
{ACAD_REACTORS
330
64
102
}
330
64
100
AcDbTableStyle
280
     0
  3
Standard
 70
     0
 71
     0
 40
0.06
 41
0.06
280
     0
281
     0
  7
Standard
140
0.18
170
     2
 62
     0
 63
     7
283
     0
 90
      512
 91
        0
  1

274
    -2
284
     1
 64
     0
275
    -2
285
     1
 65
     0
276
    -2
286
     1
 66
     0
277
    -2
287
     1
 67
     0
278
    -2
288
     1
 68
     0
279
    -2
289
     1
 69
     0
  7
Standard
140
0.25
170
     5
 62
     0
 63
     7
283
     0
 90
      512
 91
        0
  1

274
    -2
284
     1
 64
     0
275
    -2
285
     1
 65
     0
276
    -2
286
     1
 66
     0
277
    -2
287
     1
 67
     0
278
    -2
288
     1
 68
     0
279
    -2
289
     1
 69
     0
  7
Standard
140
0.18
170
     5
 62
     0
 63
     7
283
     0
 90
      512
 91
        0
  1

274
    -2
284
     1
 64
     0
275
    -2
285
     1
 65
     0
276
    -2
286
     1
 66
     0
277
    -2
287
     1
 67
     0
278
    -2
288
     1
 68
     0
279
    -2
289
     1
 69
     0
  0
VISUALSTYLE
  5
2F
102
{ACAD_REACTORS
330
29
102
}
330
29
100
AcDbVisualStyle
  2
2dWireframe
 70
     4
177
     3
291
     0
 70
    58
 90
        0
176
     1
 90
        2
176
     1
 90
        0
176
     1
 90
        0
176
     1
 40
0.6
176
     1
 40
30.0
176
     1
 62
     7
420
 16777215
176
     1
 90
        1
176
     1
 90
        4
176
     1
 62
     7
176
     1
 62
   257
176
     1
 90
        1
176
     1
 90
        1
176
     1
 40
1.0
176
     1
 90
        0
176
     1
 62
   257
176
     1
 40
1.0
176
     1
 90
        1
176
     1
 90
        6
176
     1
 90
        2
176
     1
 62
     7
176
     1
 90
        5
176
     1
 90
        0
176
     1
 90
        0
176
     1
290
     0
176
     1
 90
        1
176
     1
 40
0.0
176
     1
 90
        0
176
     1
290
     1
176
     1
290
     1
176
     1
290
     0
176
     1
290
     0
176
     1
290
     0
176
     1
290
     0
176
     1
290
     0
176
     1
290
     0
176
     1
290
     0
176
     1
 90
       50
176
     1
 40
0.0
176
     1
 40
1.0
176
     1
 90
        0
176
     1
 62
    18
420
        0
176
     1
 90
       50
176
     1
 90
        3
176
     1
 62
     5
420
      255
176
     1
290
     0
176
     1
 90
       50
176
     1
 90
       50
176
     1
 90
       50
176
     1
290
     0
176
     1
 90
       50
176
     1
 62
   256
176
     0
 40
1.0
176
     0
 90
        2
176
     1
  1
strokes_ogs.tif
176
     1
290
     0
176
     1
 40
1.0
176
     1
 40
1.0
176
     1
1001
ACAD
1000
AcDbSavedByObjectVersion
1070
     0
  0
VISUALSTYLE
  5
2E
102
{ACAD_REACTORS
330
29
102
}
330
29
100
AcDbVisualStyle
  2
Basic
 70
     7
177
     3
291
     1
 70
    58
 90
        1
176
     1
 90
        0
176
     1
 90
        1
176
     1
 90
        0
176
     1
 40
0.6
176
     1
 40
30.0
176
     1
 62
     7
420
 16777215
176
     1
 90
        0
176
     1
 90
        4
176
     1
 62
     7
176
     1
 62
   257
176
     1
 90
        1
176
     1
 90
        1
176
     1
 40
1.0
176
     1
 90
        8
176
     1
 62
     7
176
     1
 40
1.0
176
     1
 90
        1
176
     1
 90
        6
176
     1
 90
        2
176
     1
 62
     7
176
     1
 90
        5
176
     1
 90
        0
176
     1
 90
        0
176
     1
290
     0
176
     1
 90
        1
176
     1
 40
0.0
176
     1
 90
        0
176
     1
290
     0
176
     1
290
     1
176
     1
290
     1
176
     1
290
     0
176
     1
290
     0
176
     1
290
     0
176
     1
290
     0
176
     1
290
     0
176
     1
290
     0
176
     1
 90
       50
176
     1
 40
0.0
176
     1
 40
1.0
176
     1
 90
        0
176
     1
 62
    18
420
        0
176
     1
 90
       50
176
     1
 90
        3
176
     1
 62
     5
420
      255
176
     1
290
     0
176
     1
 90
       50
176
     1
 90
       50
176
     1
 90
       50
176
     1
290
     0
176
     1
 90
       50
176
     1
 62
   256
176
     0
 40
1.0
176
     0
 90
        2
176
     1
  1
strokes_ogs.tif
176
     1
290
     0
176
     1
 40
1.0
176
     1
 40
1.0
176
     1
1001
ACAD
1000
AcDbSavedByObjectVersion
1070
     0
  0
VISUALSTYLE
  5
35
102
{ACAD_REACTORS
330
29
102
}
330
29
100
AcDbVisualStyle
  2
Brighten
 70
    12
177
     3
291
     1
 70
    58
 90
        2
176
     1
 90
        2
176
     1
 90
        0
176
     1
 90
        0
176
     1
 40
0.6
176
     1
 40
30.0
176
     1
 62
     7
420
 16777215
176
     1
 90
        1
176
     1
 90
        4
176
     1
 62
     7
176
     1
 62
   257
176
     1
 90
        1
176
     1
 90
        1
176
     1
 40
1.0
176
     1
 90
        8
176
     1
 62
     7
176
     1
 40
1.0
176
     1
 90
        1
176
     1
 90
        6
176
     1
 90
        2
176
     1
 62
     7
176
     1
 90
        5
176
     1
 90
        0
176
     1
 90
        0
176
     1
290
     0
176
     1
 90
        1
176
     1
 40
50.0
176
     1
 90
        0
176
     1
290
     0
176
     1
290
     1
176
     1
290
     1
176
     1
290
     0
176
     1
290
     0
176
     1
290
     0
176
     1
290
     0
176
     1
290
     0
176
     1
290
     0
176
     1
 90
       50
176
     1
 40
0.0
176
     1
 40
1.0
176
     1
 90
        0
176
     1
 62
    18
420
        0
176
     1
 90
       50
176
     1
 90
        3
176
     1
 62
     5
420
      255
176
     1
290
     0
176
     1
 90
       50
176
     1
 90
       50
176
     1
 90
       50
176
     1
290
     0
176
     1
 90
       50
176
     1
 62
   256
176
     0
 40
1.0
176
     0
 90
        2
176
     1
  1
strokes_ogs.tif
176
     1
290
     0
176
     1
 40
1.0
176
     1
 40
1.0
176
     1
1001
ACAD
1000
AcDbSavedByObjectVersion
1070
     0
  0
VISUALSTYLE
  5
39
102
{ACAD_REACTORS
330
29
102
}
330
29
100
AcDbVisualStyle
  2
ColorChange
 70
    16
177
     3
291
     1
 70
    58
 90
        2
176
     1
 90
        2
176
     1
 90
        3
176
     1
 90
        0
176
     1
 40
0.6
176
     1
 40
30.0
176
     1
 62
     8
420
  8421504
176
     1
 90
        1
176
     1
 90
        4
176
     1
 62
     7
176
     1
 62
   257
176
     1
 90
        1
176
     1
 90
        1
176
     1
 40
1.0
176
     1
 90
        8
176
     1
 62
     8
420
  8421504
176
     1
 40
1.0
176
     1
 90
        1
176
     1
 90
        6
176
     1
 90
        2
176
     1
 62
     7
176
     1
 90
        5
176
     1
 90
        0
176
     1
 90
        0
176
     1
290
     0
176
     1
 90
        1
176
     1
 40
0.0
176
     1
 90
        0
176
     1
290
     0
176
     1
290
     1
176
     1
290
     1
176
     1
290
     0
176
     1
290
     0
176
     1
290
     0
176
     1
290
     0
176
     1
290
     0
176
     1
290
     0
176
     1
 90
       50
176
     1
 40
0.0
176
     1
 40
1.0
176
     1
 90
        0
176
     1
 62
    18
420
        0
176
     1
 90
       50
176
     1
 90
        3
176
     1
 62
     5
420
      255
176
     1
290
     0
176
     1
 90
       50
176
     1
 90
       50
176
     1
 90
       50
176
     1
290
     0
176
     1
 90
       50
176
     1
 62
   256
176
     0
 40
1.0
176
     0
 90
        2
176
     1
  1
strokes_ogs.tif
176
     1
290
     0
176
     1
 40
1.0
176
     1
 40
1.0
176
     1
1001
ACAD
1000
AcDbSavedByObjectVersion
1070
     0
  0
VISUALSTYLE
  5
32
102
{ACAD_REACTORS
330
29
102
}
330
29
100
AcDbVisualStyle
  2
Conceptual
 70
     9
177
     3
291
     0
 70
    58
 90
        3
176
     1
 90
        2
176
     1
 90
        0
176
     1
 90
        0
176
     1
 40
0.6
176
     1
 40
30.0
176
     1
 62
     7
420
 16777215
176
     1
 90
        2
176
     1
 90
        2
176
     1
 62
     7
176
     1
 62
   257
176
     1
 90
        1
176
     1
 90
        1
176
     1
 40
179.0
176
     1
 90
        8
176
     1
 62
     7
176
     1
 40
1.0
176
     1
 90
        1
176
     1
 90
        6
176
     1
 90
        2
176
     1
 62
     7
176
     1
 90
        3
176
     1
 90
        0
176
     1
 90
        0
176
     1
290
     0
176
     1
 90
        1
176
     1
 40
0.0
176
     1
 90
        0
176
     1
290
     0
176
     1
290
     1
176
     1
290
     1
176
     1
290
     0
176
     1
290
     0
176
     1
290
     0
176
     1
290
     0
176
     1
290
     0
176
     1
290
     0
176
     1
 90
       50
176
     1
 40
0.0
176
     1
 40
1.0
176
     1
 90
        0
176
     1
 62
    18
420
        0
176
     1
 90
       50
176
     1
 90
        3
176
     1
 62
     5
420
      255
176
     1
290
     0
176
     1
 90
       50
176
     1
 90
       50
176
     1
 90
       50
176
     1
290
     0
176
     1
 90
       50
176
     1
 62
   256
176
     0
 40
1.0
176
     0
 90
        2
176
     1
  1
strokes_ogs.tif
176
     1
290
     0
176
     1
 40
1.0
176
     1
 40
1.0
176
     1
1001
ACAD
1000
AcDbSavedByObjectVersion
1070
     0
  0
VISUALSTYLE
  5
34
102
{ACAD_REACTORS
330
29
102
}
330
29
100
AcDbVisualStyle
  2
Dim
 70
    11
177
     3
291
     1
 70
    58
 90
        2
176
     1
 90
        2
176
     1
 90
        0
176
     1
 90
        0
176
     1
 40
0.6
176
     1
 40
30.0
176
     1
 62
     7
420
 16777215
176
     1
 90
        1
176
     1
 90
        4
176
     1
 62
     7
176
     1
 62
   257
176
     1
 90
        1
176
     1
 90
        1
176
     1
 40
1.0
176
     1
 90
        8
176
     1
 62
     7
176
     1
 40
1.0
176
     1
 90
        1
176
     1
 90
        6
176
     1
 90
        2
176
     1
 62
     7
176
     1
 90
        5
176
     1
 90
        0
176
     1
 90
        0
176
     1
290
     0
176
     1
 90
        1
176
     1
 40
-50.0
176
     1
 90
        0
176
     1
290
     0
176
     1
290
     1
176
     1
290
     1
176
     1
290
     0
176
     1
290
     0
176
     1
290
     0
176
     1
290
     0
176
     1
290
     0
176
     1
290
     0
176
     1
 90
       50
176
     1
 40
0.0
176
     1
 40
1.0
176
     1
 90
        0
176
     1
 62
    18
420
        0
176
     1
 90
       50
176
     1
 90
        3
176
     1
 62
     5
420
      255
176
     1
290
     0
176
     1
 90
       50
176
     1
 90
       50
176
     1
 90
       50
176
     1
290
     0
176
     1
 90
       50
176
     1
 62
   256
176
     0
 40
1.0
176
     0
 90
        2
176
     1
  1
strokes_ogs.tif
176
     1
290
     0
176
     1
 40
1.0
176
     1
 40
1.0
176
     1
1001
ACAD
1000
AcDbSavedByObjectVersion
1070
     0
  0
VISUALSTYLE
  5
41
102
{ACAD_REACTORS
330
29
102
}
330
29
100
AcDbVisualStyle
  2
EdgeColorOff
 70
    22
177
     3
291
     1
 70
    58
 90
        2
176
     0
 90
        2
176
     0
 90
        0
176
     0
 90
        0
176
     0
 40
0.6
176
     0
 40
30.0
176
     0
 62
     7
420
 16777215
176
     0
 90
        1
176
     0
 90
        4
176
     0
 62
     7
176
     0
 62
   257
176
     0
 90
        1
176
     0
 90
        1
176
     0
 40
1.0
176
     0
 90
        8
176
     2
 62
     7
176
     0
 40
1.0
176
     0
 90
        1
176
     0
 90
        6
176
     0
 90
        2
176
     0
 62
     7
176
     0
 90
        5
176
     0
 90
        0
176
     0
 90
        0
176
     0
290
     0
176
     0
 90
        1
176
     0
 40
0.0
176
     0
 90
        0
176
     0
290
     0
176
     0
290
     1
176
     0
290
     1
176
     0
290
     0
176
     0
290
     0
176
     0
290
     0
176
     0
290
     0
176
     0
290
     0
176
     0
290
     0
176
     0
 90
       50
176
     0
 40
0.0
176
     0
 40
1.0
176
     0
 90
        0
176
     0
 62
    18
420
        0
176
     0
 90
       50
176
     0
 90
        3
176
     0
 62
     5
420
      255
176
     0
290
     0
176
     0
 90
       50
176
     0
 90
       50
176
     0
 90
       50
176
     0
290
     0
176
     0
 90
       50
176
     0
 62
   256
176
     0
 40
1.0
176
     0
 90
        2
176
     0
  1
strokes_ogs.tif
176
     0
290
     0
176
     0
 40
1.0
176
     0
 40
1.0
176
     0
1001
ACAD
1000
AcDbSavedByObjectVersion
1070
     0
  0
VISUALSTYLE
  5
38
102
{ACAD_REACTORS
330
29
102
}
330
29
100
AcDbVisualStyle
  2
Facepattern
 70
    15
177
     3
291
     1
 70
    58
 90
        2
176
     1
 90
        2
176
     1
 90
        0
176
     1
 90
        0
176
     1
 40
0.6
176
     1
 40
30.0
176
     1
 62
     7
420
 16777215
176
     1
 90
        1
176
     1
 90
        4
176
     1
 62
     7
176
     1
 62
   257
176
     1
 90
        1
176
     1
 90
        1
176
     1
 40
1.0
176
     1
 90
        8
176
     1
 62
     7
176
     1
 40
1.0
176
     1
 90
        1
176
     1
 90
        6
176
     1
 90
        2
176
     1
 62
     7
176
     1
 90
        5
176
     1
 90
        0
176
     1
 90
        0
176
     1
290
     0
176
     1
 90
        1
176
     1
 40
0.0
176
     1
 90
        0
176
     1
290
     0
176
     1
290
     1
176
     1
290
     1
176
     1
290
     0
176
     1
290
     0
176
     1
290
     0
176
     1
290
     0
176
     1
290
     0
176
     1
290
     0
176
     1
 90
       50
176
     1
 40
0.0
176
     1
 40
1.0
176
     1
 90
        0
176
     1
 62
    18
420
        0
176
     1
 90
       50
176
     1
 90
        3
176
     1
 62
     5
420
      255
176
     1
290
     0
176
     1
 90
       50
176
     1
 90
       50
176
     1
 90
       50
176
     1
290
     0
176
     1
 90
       50
176
     1
 62
   256
176
     0
 40
1.0
176
     0
 90
        2
176
     1
  1
strokes_ogs.tif
176
     1
290
     0
176
     1
 40
1.0
176
     1
 40
1.0
176
     1
1001
ACAD
1000
AcDbSavedByObjectVersion
1070
     0
  0
VISUALSTYLE
  5
2A
102
{ACAD_REACTORS
330
29
102
}
330
29
100
AcDbVisualStyle
  2
Flat
 70
     0
177
     3
291
     1
 70
    58
 90
        2
176
     1
 90
        1
176
     1
 90
        1
176
     1
 90
        2
176
     1
 40
0.6
176
     1
 40
30.0
176
     1
 62
     7
420
 16777215
176
     1
 90
        0
176
     1
 90
        0
176
     1
 62
     7
176
     1
 62
   257
176
     1
 90
        1
176
     1
 90
        1
176
     1
 40
1.0
176
     1
 90
        8
176
     1
 62
     7
176
     1
 40
1.0
176
     1
 90
        1
176
     1
 90
        6
176
     1
 90
        2
176
     1
 62
     7
176
     1
 90
        5
176
     1
 90
        0
176
     1
 90
        0
176
     1
290
     0
176
     1
 90
       13
176
     1
 40
0.0
176
     1
 90
        0
176
     1
290
     0
176
     1
290
     1
176
     1
290
     1
176
     1
290
     0
176
     1
290
     0
176
     1
290
     0
176
     1
290
     0
176
     1
290
     0
176
     1
290
     0
176
     1
 90
       50
176
     1
 40
0.0
176
     1
 40
1.0
176
     1
 90
        0
176
     1
 62
    18
420
        0
176
     1
 90
       50
176
     1
 90
        3
176
     1
 62
     5
420
      255
176
     1
290
     0
176
     1
 90
       50
176
     1
 90
       50
176
     1
 90
       50
176
     1
290
     0
176
     1
 90
       50
176
     1
 62
   256
176
     0
 40
1.0
176
     0
 90
        2
176
     1
  1
strokes_ogs.tif
176
     1
290
     0
176
     1
 40
1.0
176
     1
 40
1.0
176
     1
1001
ACAD
1000
AcDbSavedByObjectVersion
1070
     0
  0
VISUALSTYLE
  5
2B
102
{ACAD_REACTORS
330
29
102
}
330
29
100
AcDbVisualStyle
  2
FlatWithEdges
 70
     1
177
     3
291
     1
 70
    58
 90
        2
176
     1
 90
        1
176
     1
 90
        1
176
     1
 90
        2
176
     1
 40
0.6
176
     1
 40
30.0
176
     1
 62
     7
420
 16777215
176
     1
 90
        1
176
     1
 90
        0
176
     1
 62
     7
176
     1
 62
   257
176
     1
 90
        1
176
     1
 90
        1
176
     1
 40
1.0
176
     1
 90
        0
176
     1
 62
   257
176
     1
 40
1.0
176
     1
 90
        1
176
     1
 90
        6
176
     1
 90
        2
176
     1
 62
     7
176
     1
 90
        5
176
     1
 90
        0
176
     1
 90
        0
176
     1
290
     0
176
     1
 90
       13
176
     1
 40
0.0
176
     1
 90
        0
176
     1
290
     0
176
     1
290
     1
176
     1
290
     1
176
     1
290
     0
176
     1
290
     0
176
     1
290
     0
176
     1
290
     0
176
     1
290
     0
176
     1
290
     0
176
     1
 90
       50
176
     1
 40
0.0
176
     1
 40
1.0
176
     1
 90
        0
176
     1
 62
    18
420
        0
176
     1
 90
       50
176
     1
 90
        3
176
     1
 62
     5
420
      255
176
     1
290
     0
176
     1
 90
       50
176
     1
 90
       50
176
     1
 90
       50
176
     1
290
     0
176
     1
 90
       50
176
     1
 62
   256
176
     0
 40
1.0
176
     0
 90
        2
176
     1
  1
strokes_ogs.tif
176
     1
290
     0
176
     1
 40
1.0
176
     1
 40
1.0
176
     1
1001
ACAD
1000
AcDbSavedByObjectVersion
1070
     0
  0
VISUALSTYLE
  5
2C
102
{ACAD_REACTORS
330
29
102
}
330
29
100
AcDbVisualStyle
  2
Gouraud
 70
     2
177
     3
291
     1
 70
    58
 90
        2
176
     1
 90
        2
176
     1
 90
        1
176
     1
 90
        2
176
     1
 40
0.6
176
     1
 40
30.0
176
     1
 62
     7
420
 16777215
176
     1
 90
        0
176
     1
 90
        0
176
     1
 62
     7
176
     1
 62
   257
176
     1
 90
        1
176
     1
 90
        1
176
     1
 40
1.0
176
     1
 90
        0
176
     1
 62
     7
176
     1
 40
1.0
176
     1
 90
        1
176
     1
 90
        6
176
     1
 90
        2
176
     1
 62
     7
176
     1
 90
        5
176
     1
 90
        0
176
     1
 90
        0
176
     1
290
     0
176
     1
 90
       13
176
     1
 40
0.0
176
     1
 90
        0
176
     1
290
     0
176
     1
290
     1
176
     1
290
     1
176
     1
290
     0
176
     1
290
     0
176
     1
290
     0
176
     1
290
     0
176
     1
290
     0
176
     1
290
     0
176
     1
 90
       50
176
     1
 40
0.0
176
     1
 40
1.0
176
     1
 90
        0
176
     1
 62
    18
420
        0
176
     1
 90
       50
176
     1
 90
        3
176
     1
 62
     5
420
      255
176
     1
290
     0
176
     1
 90
       50
176
     1
 90
       50
176
     1
 90
       50
176
     1
290
     0
176
     1
 90
       50
176
     1
 62
   256
176
     0
 40
1.0
176
     0
 90
        2
176
     1
  1
strokes_ogs.tif
176
     1
290
     0
176
     1
 40
1.0
176
     1
 40
1.0
176
     1
1001
ACAD
1000
AcDbSavedByObjectVersion
1070
     0
  0
VISUALSTYLE
  5
2D
102
{ACAD_REACTORS
330
29
102
}
330
29
100
AcDbVisualStyle
  2
GouraudWithEdges
 70
     3
177
     3
291
     1
 70
    58
 90
        2
176
     1
 90
        2
176
     1
 90
        1
176
     1
 90
        2
176
     1
 40
0.6
176
     1
 40
30.0
176
     1
 62
     7
420
 16777215
176
     1
 90
        1
176
     1
 90
        0
176
     1
 62
     7
176
     1
 62
   257
176
     1
 90
        1
176
     1
 90
        1
176
     1
 40
1.0
176
     1
 90
        0
176
     1
 62
   257
176
     1
 40
1.0
176
     1
 90
        1
176
     1
 90
        6
176
     1
 90
        2
176
     1
 62
     7
176
     1
 90
        5
176
     1
 90
        0
176
     1
 90
        0
176
     1
290
     0
176
     1
 90
       13
176
     1
 40
0.0
176
     1
 90
        0
176
     1
290
     0
176
     1
290
     1
176
     1
290
     1
176
     1
290
     0
176
     1
290
     0
176
     1
290
     0
176
     1
290
     0
176
     1
290
     0
176
     1
290
     0
176
     1
 90
       50
176
     1
 40
0.0
176
     1
 40
1.0
176
     1
 90
        0
176
     1
 62
    18
420
        0
176
     1
 90
       50
176
     1
 90
        3
176
     1
 62
     5
420
      255
176
     1
290
     0
176
     1
 90
       50
176
     1
 90
       50
176
     1
 90
       50
176
     1
290
     0
176
     1
 90
       50
176
     1
 62
   256
176
     0
 40
1.0
176
     0
 90
        2
176
     1
  1
strokes_ogs.tif
176
     1
290
     0
176
     1
 40
1.0
176
     1
 40
1.0
176
     1
1001
ACAD
1000
AcDbSavedByObjectVersion
1070
     0
  0
VISUALSTYLE
  5
31
102
{ACAD_REACTORS
330
29
102
}
330
29
100
AcDbVisualStyle
  2
Hidden
 70
     6
177
     3
291
     0
 70
    58
 90
        1
176
     1
 90
        2
176
     1
 90
        2
176
     1
 90
        0
176
     1
 40
0.6
176
     1
 40
30.0
176
     1
 62
     7
420
 16777215
176
     1
 90
        2
176
     1
 90
        2
176
     1
 62
     7
176
     1
 62
   257
176
     1
 90
        2
176
     1
 90
        1
176
     1
 40
40.0
176
     1
 90
        0
176
     1
 62
   257
176
     1
 40
1.0
176
     1
 90
        1
176
     1
 90
        6
176
     1
 90
        2
176
     1
 62
     7
176
     1
 90
        3
176
     1
 90
        0
176
     1
 90
        0
176
     1
290
     0
176
     1
 90
        1
176
     1
 40
0.0
176
     1
 90
        0
176
     1
290
     0
176
     1
290
     1
176
     1
290
     1
176
     1
290
     0
176
     1
290
     0
176
     1
290
     0
176
     1
290
     0
176
     1
290
     0
176
     1
290
     0
176
     1
 90
       50
176
     1
 40
0.0
176
     1
 40
1.0
176
     1
 90
        0
176
     1
 62
    18
420
        0
176
     1
 90
       50
176
     1
 90
        3
176
     1
 62
     5
420
      255
176
     1
290
     0
176
     1
 90
       50
176
     1
 90
       50
176
     1
 90
       50
176
     1
290
     0
176
     1
 90
       50
176
     1
 62
   256
176
     0
 40
1.0
176
     0
 90
        2
176
     1
  1
strokes_ogs.tif
176
     1
290
     0
176
     1
 40
1.0
176
     1
 40
1.0
176
     1
1001
ACAD
1000
AcDbSavedByObjectVersion
1070
     0
  0
VISUALSTYLE
  5
3F
102
{ACAD_REACTORS
330
29
102
}
330
29
100
AcDbVisualStyle
  2
JitterOff
 70
    20
177
     3
291
     1
 70
    58
 90
        2
176
     0
 90
        2
176
     0
 90
        0
176
     0
 90
        0
176
     0
 40
0.6
176
     0
 40
30.0
176
     0
 62
     7
420
 16777215
176
     0
 90
        1
176
     0
 90
        4
176
     0
 62
     7
176
     0
 62
   257
176
     0
 90
        1
176
     0
 90
        1
176
     0
 40
1.0
176
     0
 90
       10
176
     2
 62
     7
176
     0
 40
1.0
176
     0
 90
        1
176
     0
 90
        6
176
     0
 90
        2
176
     0
 62
     7
176
     0
 90
        5
176
     0
 90
        0
176
     0
 90
        0
176
     0
290
     0
176
     0
 90
        1
176
     0
 40
0.0
176
     0
 90
        0
176
     0
290
     0
176
     0
290
     1
176
     0
290
     1
176
     0
290
     0
176
     0
290
     0
176
     0
290
     0
176
     0
290
     0
176
     0
290
     0
176
     0
290
     0
176
     0
 90
       50
176
     0
 40
0.0
176
     0
 40
1.0
176
     0
 90
        0
176
     0
 62
    18
420
        0
176
     0
 90
       50
176
     0
 90
        3
176
     0
 62
     5
420
      255
176
     0
290
     0
176
     0
 90
       50
176
     0
 90
       50
176
     0
 90
       50
176
     0
290
     0
176
     0
 90
       50
176
     0
 62
   256
176
     0
 40
1.0
176
     0
 90
        2
176
     0
  1
strokes_ogs.tif
176
     0
290
     0
176
     0
 40
1.0
176
     0
 40
1.0
176
     0
1001
ACAD
1000
AcDbSavedByObjectVersion
1070
     0
  0
VISUALSTYLE
  5
37
102
{ACAD_REACTORS
330
29
102
}
330
29
100
AcDbVisualStyle
  2
Linepattern
 70
    14
177
     3
291
     1
 70
    58
 90
        2
176
     1
 90
        2
176
     1
 90
        0
176
     1
 90
        0
176
     1
 40
0.6
176
     1
 40
30.0
176
     1
 62
     7
420
 16777215
176
     1
 90
        1
176
     1
 90
        4
176
     1
 62
     7
176
     1
 62
   257
176
     1
 90
        7
176
     1
 90
        7
176
     1
 40
1.0
176
     1
 90
        8
176
     1
 62
     7
176
     1
 40
1.0
176
     1
 90
        1
176
     1
 90
        6
176
     1
 90
        2
176
     1
 62
     7
176
     1
 90
        5
176
     1
 90
        0
176
     1
 90
        0
176
     1
290
     0
176
     1
 90
        1
176
     1
 40
0.0
176
     1
 90
        0
176
     1
290
     0
176
     1
290
     1
176
     1
290
     1
176
     1
290
     0
176
     1
290
     0
176
     1
290
     0
176
     1
290
     0
176
     1
290
     0
176
     1
290
     0
176
     1
 90
       50
176
     1
 40
0.0
176
     1
 40
1.0
176
     1
 90
        0
176
     1
 62
    18
420
        0
176
     1
 90
       50
176
     1
 90
        3
176
     1
 62
     5
420
      255
176
     1
290
     0
176
     1
 90
       50
176
     1
 90
       50
176
     1
 90
       50
176
     1
290
     0
176
     1
 90
       50
176
     1
 62
   256
176
     0
 40
1.0
176
     0
 90
        2
176
     1
  1
strokes_ogs.tif
176
     1
290
     0
176
     1
 40
1.0
176
     1
 40
1.0
176
     1
1001
ACAD
1000
AcDbSavedByObjectVersion
1070
     0
  0
VISUALSTYLE
  5
40
102
{ACAD_REACTORS
330
29
102
}
330
29
100
AcDbVisualStyle
  2
OverhangOff
 70
    21
177
     3
291
     1
 70
    58
 90
        2
176
     0
 90
        2
176
     0
 90
        0
176
     0
 90
        0
176
     0
 40
0.6
176
     0
 40
30.0
176
     0
 62
     7
420
 16777215
176
     0
 90
        1
176
     0
 90
        4
176
     0
 62
     7
176
     0
 62
   257
176
     0
 90
        1
176
     0
 90
        1
176
     0
 40
1.0
176
     0
 90
        9
176
     2
 62
     7
176
     0
 40
1.0
176
     0
 90
        1
176
     0
 90
        6
176
     0
 90
        2
176
     0
 62
     7
176
     0
 90
        5
176
     0
 90
        0
176
     0
 90
        0
176
     0
290
     0
176
     0
 90
        1
176
     0
 40
0.0
176
     0
 90
        0
176
     0
290
     0
176
     0
290
     1
176
     0
290
     1
176
     0
290
     0
176
     0
290
     0
176
     0
290
     0
176
     0
290
     0
176
     0
290
     0
176
     0
290
     0
176
     0
 90
       50
176
     0
 40
0.0
176
     0
 40
1.0
176
     0
 90
        0
176
     0
 62
    18
420
        0
176
     0
 90
       50
176
     0
 90
        3
176
     0
 62
     5
420
      255
176
     0
290
     0
176
     0
 90
       50
176
     0
 90
       50
176
     0
 90
       50
176
     0
290
     0
176
     0
 90
       50
176
     0
 62
   256
176
     0
 40
1.0
176
     0
 90
        2
176
     0
  1
strokes_ogs.tif
176
     0
290
     0
176
     0
 40
1.0
176
     0
 40
1.0
176
     0
1001
ACAD
1000
AcDbSavedByObjectVersion
1070
     0
  0
VISUALSTYLE
  5
33
102
{ACAD_REACTORS
330
29
102
}
330
29
100
AcDbVisualStyle
  2
Realistic
 70
     8
177
     3
291
     0
 70
    58
 90
        2
176
     1
 90
        3
176
     1
 90
        0
176
     1
 90
        2
176
     1
 40
0.6
176
     1
 40
30.0
176
     1
 62
     7
420
 16777215
176
     1
 90
        0
176
     1
 90
        0
176
     1
 62
     7
176
     1
 62
   257
176
     1
 90
        1
176
     1
 90
        1
176
     1
 40
1.0
176
     1
 90
        8
176
     1
 62
   257
176
     1
 40
1.0
176
     1
 90
        1
176
     1
 90
        6
176
     1
 90
        2
176
     1
 62
     7
176
     1
 90
        3
176
     1
 90
        0
176
     1
 90
        0
176
     1
290
     0
176
     1
 90
       13
176
     1
 40
0.0
176
     1
 90
        0
176
     1
290
     0
176
     1
290
     1
176
     1
290
     1
176
     1
290
     0
176
     1
290
     0
176
     1
290
     0
176
     1
290
     0
176
     1
290
     0
176
     1
290
     0
176
     1
 90
       50
176
     1
 40
0.0
176
     1
 40
1.0
176
     1
 90
        0
176
     1
 62
    18
420
        0
176
     1
 90
       50
176
     1
 90
        3
176
     1
 62
     5
420
      255
176
     1
290
     0
176
     1
 90
       50
176
     1
 90
       50
176
     1
 90
       50
176
     1
290
     0
176
     1
 90
       50
176
     1
 62
   256
176
     0
 40
1.0
176
     0
 90
        2
176
     1
  1
strokes_ogs.tif
176
     1
290
     0
176
     1
 40
1.0
176
     1
 40
1.0
176
     1
1001
ACAD
1000
AcDbSavedByObjectVersion
1070
     0
  0
VISUALSTYLE
  5
3E
102
{ACAD_REACTORS
330
29
102
}
330
29
100
AcDbVisualStyle
  2
Shaded
 70
    27
177
     3
291
     0
 70
    58
 90
        2
176
     1
 90
        2
176
     1
 90
        1
176
     1
 90
        2
176
     1
 40
0.6
176
     1
 40
30.0
176
     1
 62
     7
420
 16777215
176
     1
 90
        0
176
     1
 90
        4
176
     1
 62
     7
176
     1
 62
   257
176
     1
 90
        1
176
     1
 90
        1
176
     1
 40
1.0
176
     1
 90
        8
176
     1
 62
   257
176
     1
 40
1.0
176
     1
 90
        1
176
     1
 90
        6
176
     1
 90
        2
176
     1
 62
     8
420
  7895160
176
     1
 90
        3
176
     1
 90
        0
176
     1
 90
        0
176
     1
290
     0
176
     1
 90
        5
176
     1
 40
0.0
176
     1
 90
        0
176
     1
290
     0
176
     1
290
     1
176
     1
290
     1
176
     1
290
     0
176
     1
290
     0
176
     1
290
     0
176
     1
290
     0
176
     1
290
     0
176
     1
290
     0
176
     1
 90
       50
176
     1
 40
0.0
176
     1
 40
1.0
176
     1
 90
        0
176
     1
 62
    18
420
        0
176
     1
 90
       50
176
     1
 90
        3
176
     1
 62
     5
420
      255
176
     1
290
     0
176
     1
 90
       50
176
     1
 90
       50
176
     1
 90
       50
176
     1
290
     0
176
     1
 90
       50
176
     1
 62
   256
176
     0
 40
1.0
176
     0
 90
        2
176
     1
  1
strokes_ogs.tif
176
     1
290
     0
176
     1
 40
1.0
176
     1
 40
1.0
176
     1
1001
ACAD
1000
AcDbSavedByObjectVersion
1070
     0
  0
VISUALSTYLE
  5
3D
102
{ACAD_REACTORS
330
29
102
}
330
29
100
AcDbVisualStyle
  2
Shaded with edges
 70
    26
177
     3
291
     0
 70
    58
 90
        2
176
     1
 90
        2
176
     1
 90
        1
176
     1
 90
        2
176
     1
 40
0.6
176
     1
 40
30.0
176
     1
 62
     7
420
 16777215
176
     1
 90
        1
176
     1
 90
        2
176
     1
 62
     7
176
     1
 62
   257
176
     1
 90
        2
176
     1
 90
        1
176
     1
 40
1.0
176
     1
 90
        8
176
     1
 62
   257
176
     1
 40
1.0
176
     1
 90
        1
176
     1
 90
        6
176
     1
 90
        2
176
     1
 62
     7
176
     1
 90
        3
176
     1
 90
        0
176
     1
 90
        0
176
     1
290
     0
176
     1
 90
        5
176
     1
 40
0.0
176
     1
 90
        0
176
     1
290
     0
176
     1
290
     1
176
     1
290
     1
176
     1
290
     0
176
     1
290
     0
176
     1
290
     0
176
     1
290
     0
176
     1
290
     0
176
     1
290
     0
176
     1
 90
       50
176
     1
 40
0.0
176
     1
 40
1.0
176
     1
 90
        0
176
     1
 62
    18
420
        0
176
     1
 90
       50
176
     1
 90
        3
176
     1
 62
     5
420
      255
176
     1
290
     0
176
     1
 90
       50
176
     1
 90
       50
176
     1
 90
       50
176
     1
290
     0
176
     1
 90
       50
176
     1
 62
   256
176
     0
 40
1.0
176
     0
 90
        2
176
     1
  1
strokes_ogs.tif
176
     1
290
     0
176
     1
 40
1.0
176
     1
 40
1.0
176
     1
1001
ACAD
1000
AcDbSavedByObjectVersion
1070
     0
  0
VISUALSTYLE
  5
3A
102
{ACAD_REACTORS
330
29
102
}
330
29
100
AcDbVisualStyle
  2
Shades of Gray
 70
    23
177
     3
291
     0
 70
    58
 90
        2
176
     1
 90
        2
176
     1
 90
        3
176
     1
 90
        0
176
     1
 40
0.6
176
     1
 40
30.0
176
     1
 62
     7
420
 16777215
176
     1
 90
        2
176
     1
 90
        2
176
     1
 62
     7
176
     1
 62
     7
176
     1
 90
        1
176
     1
 90
        1
176
     1
 40
40.0
176
     1
 90
        8
176
     1
 62
     7
176
     1
 40
1.0
176
     1
 90
        1
176
     1
 90
        6
176
     1
 90
        2
176
     1
 62
     7
176
     1
 90
        3
176
     1
 90
        0
176
     1
 90
        0
176
     1
290
     0
176
     1
 90
        1
176
     1
 40
0.0
176
     1
 90
        0
176
     1
290
     0
176
     1
290
     1
176
     1
290
     1
176
     1
290
     0
176
     1
290
     0
176
     1
290
     0
176
     1
290
     0
176
     1
290
     0
176
     1
290
     0
176
     1
 90
       50
176
     1
 40
0.0
176
     1
 40
1.0
176
     1
 90
        0
176
     1
 62
    18
420
        0
176
     1
 90
       50
176
     1
 90
        3
176
     1
 62
     5
420
      255
176
     1
290
     0
176
     1
 90
       50
176
     1
 90
       50
176
     1
 90
       50
176
     1
290
     0
176
     1
 90
       50
176
     1
 62
   256
176
     0
 40
1.0
176
     0
 90
        2
176
     1
  1
strokes_ogs.tif
176
     1
290
     0
176
     1
 40
1.0
176
     1
 40
1.0
176
     1
1001
ACAD
1000
AcDbSavedByObjectVersion
1070
     0
  0
VISUALSTYLE
  5
3B
102
{ACAD_REACTORS
330
29
102
}
330
29
100
AcDbVisualStyle
  2
Sketchy
 70
    24
177
     3
291
     0
 70
    58
 90
        1
176
     1
 90
        2
176
     1
 90
        2
176
     1
 90
        0
176
     1
 40
0.6
176
     1
 40
30.0
176
     1
 62
     7
420
 16777215
176
     1
 90
        2
176
     1
 90
        2
176
     1
 62
     7
176
     1
 62
     7
176
     1
 90
        1
176
     1
 90
        1
176
     1
 40
40.0
176
     1
 90
       11
176
     1
 62
     7
176
     1
 40
1.0
176
     1
 90
        1
176
     1
 90
        6
176
     1
 90
        2
176
     1
 62
     7
176
     1
 90
        6
176
     1
 90
        0
176
     1
 90
        0
176
     1
290
     0
176
     1
 90
        1
176
     1
 40
0.0
176
     1
 90
        0
176
     1
290
     0
176
     1
290
     1
176
     1
290
     1
176
     1
290
     0
176
     1
290
     0
176
     1
290
     0
176
     1
290
     0
176
     1
290
     0
176
     1
290
     0
176
     1
 90
       50
176
     1
 40
0.0
176
     1
 40
1.0
176
     1
 90
        0
176
     1
 62
    18
420
        0
176
     1
 90
       50
176
     1
 90
        3
176
     1
 62
     5
420
      255
176
     1
290
     0
176
     1
 90
       50
176
     1
 90
       50
176
     1
 90
       50
176
     1
290
     0
176
     1
 90
       50
176
     1
 62
   256
176
     0
 40
1.0
176
     0
 90
        2
176
     1
  1
strokes_ogs.tif
176
     1
290
     0
176
     1
 40
1.0
176
     1
 40
1.0
176
     1
1001
ACAD
1000
AcDbSavedByObjectVersion
1070
     0
  0
VISUALSTYLE
  5
36
102
{ACAD_REACTORS
330
29
102
}
330
29
100
AcDbVisualStyle
  2
Thicken
 70
    13
177
     3
291
     1
 70
    58
 90
        2
176
     1
 90
        2
176
     1
 90
        0
176
     1
 90
        0
176
     1
 40
0.6
176
     1
 40
30.0
176
     1
 62
     7
420
 16777215
176
     1
 90
        1
176
     1
 90
        4
176
     1
 62
     7
176
     1
 62
   257
176
     1
 90
        1
176
     1
 90
        1
176
     1
 40
1.0
176
     1
 90
       12
176
     1
 62
     7
176
     1
 40
1.0
176
     1
 90
        1
176
     1
 90
        6
176
     1
 90
        2
176
     1
 62
     7
176
     1
 90
        5
176
     1
 90
        0
176
     1
 90
        0
176
     1
290
     0
176
     1
 90
        1
176
     1
 40
0.0
176
     1
 90
        0
176
     1
290
     0
176
     1
290
     1
176
     1
290
     1
176
     1
290
     0
176
     1
290
     0
176
     1
290
     0
176
     1
290
     0
176
     1
290
     0
176
     1
290
     0
176
     1
 90
       50
176
     1
 40
0.0
176
     1
 40
1.0
176
     1
 90
        0
176
     1
 62
    18
420
        0
176
     1
 90
       50
176
     1
 90
        3
176
     1
 62
     5
420
      255
176
     1
290
     0
176
     1
 90
       50
176
     1
 90
       50
176
     1
 90
       50
176
     1
290
     0
176
     1
 90
       50
176
     1
 62
   256
176
     0
 40
1.0
176
     0
 90
        2
176
     1
  1
strokes_ogs.tif
176
     1
290
     0
176
     1
 40
1.0
176
     1
 40
1.0
176
     1
1001
ACAD
1000
AcDbSavedByObjectVersion
1070
     0
  0
VISUALSTYLE
  5
30
102
{ACAD_REACTORS
330
29
102
}
330
29
100
AcDbVisualStyle
  2
Wireframe
 70
     5
177
     3
291
     0
 70
    58
 90
        0
176
     1
 90
        2
176
     1
 90
        0
176
     1
 90
        0
176
     1
 40
0.6
176
     1
 40
30.0
176
     1
 62
     7
420
 16777215
176
     1
 90
        1
176
     1
 90
        4
176
     1
 62
     7
176
     1
 62
   257
176
     1
 90
        1
176
     1
 90
        1
176
     1
 40
1.0
176
     1
 90
        0
176
     1
 62
   257
176
     1
 40
1.0
176
     1
 90
        1
176
     1
 90
        6
176
     1
 90
        2
176
     1
 62
     7
176
     1
 90
        3
176
     1
 90
        0
176
     1
 90
        0
176
     1
290
     0
176
     1
 90
        1
176
     1
 40
0.0
176
     1
 90
        0
176
     1
290
     0
176
     1
290
     1
176
     1
290
     1
176
     1
290
     0
176
     1
290
     0
176
     1
290
     0
176
     1
290
     0
176
     1
290
     0
176
     1
290
     0
176
     1
 90
       50
176
     1
 40
0.0
176
     1
 40
1.0
176
     1
 90
        0
176
     1
 62
    18
420
        0
176
     1
 90
       50
176
     1
 90
        3
176
     1
 62
     5
420
      255
176
     1
290
     0
176
     1
 90
       50
176
     1
 90
       50
176
     1
 90
       50
176
     1
290
     0
176
     1
 90
       50
176
     1
 62
   256
176
     0
 40
1.0
176
     0
 90
        2
176
     1
  1
strokes_ogs.tif
176
     1
290
     0
176
     1
 40
1.0
176
     1
 40
1.0
176
     1
1001
ACAD
1000
AcDbSavedByObjectVersion
1070
     0
  0
VISUALSTYLE
  5
3C
102
{ACAD_REACTORS
330
29
102
}
330
29
100
AcDbVisualStyle
  2
X-Ray
 70
    25
177
     3
291
     0
 70
    58
 90
        2
176
     1
 90
        2
176
     1
 90
        1
176
     1
 90
        1
176
     1
 40
0.5
176
     1
 40
30.0
176
     1
 62
     7
420
 16777215
176
     1
 90
        1
176
     1
 90
        0
176
     1
 62
     7
176
     1
 62
   257
176
     1
 90
        1
176
     1
 90
        1
176
     1
 40
1.0
176
     1
 90
        8
176
     1
 62
     7
176
     1
 40
1.0
176
     1
 90
        1
176
     1
 90
        6
176
     1
 90
        2
176
     1
 62
     7
176
     1
 90
        3
176
     1
 90
        0
176
     1
 90
        0
176
     1
290
     0
176
     1
 90
       13
176
     1
 40
0.0
176
     1
 90
        0
176
     1
290
     0
176
     1
290
     1
176
     1
290
     1
176
     1
290
     0
176
     1
290
     0
176
     1
290
     0
176
     1
290
     0
176
     1
290
     0
176
     1
290
     0
176
     1
 90
       50
176
     1
 40
0.0
176
     1
 40
1.0
176
     1
 90
        0
176
     1
 62
    18
420
        0
176
     1
 90
       50
176
     1
 90
        3
176
     1
 62
     5
420
      255
176
     1
290
     0
176
     1
 90
       50
176
     1
 90
       50
176
     1
 90
       50
176
     1
290
     0
176
     1
 90
       50
176
     1
 62
   256
176
     0
 40
1.0
176
     0
 90
        2
176
     1
  1
strokes_ogs.tif
176
     1
290
     0
176
     1
 40
1.0
176
     1
 40
1.0
176
     1
1001
ACAD
1000
AcDbSavedByObjectVersion
1070
     0
  0
DICTIONARYVAR
  5
50B
102
{ACAD_REACTORS
330
506
102
}
330
506
100
DictionaryVariables
280
     0
  1
0
  0
DICTIONARYVAR
  5
50C
102
{ACAD_REACTORS
330
506
102
}
330
506
100
DictionaryVariables
280
     0
  1
1:1
  0
DICTIONARYVAR
  5
508
102
{ACAD_REACTORS
330
506
102
}
330
506
100
DictionaryVariables
280
     0
  1
STANDARD
  0
DICTIONARYVAR
  5
507
102
{ACAD_REACTORS
330
506
102
}
330
506
100
DictionaryVariables
280
     0
  1
STANDARD
  0
DICTIONARYVAR
  5
509
102
{ACAD_REACTORS
330
506
102
}
330
506
100
DictionaryVariables
280
     0
  1
Imperial24
  0
DICTIONARYVAR
  5
50A
102
{ACAD_REACTORS
330
506
102
}
330
506
100
DictionaryVariables
280
     0
  1
Imperial24
  0
DICTIONARY
  5
512
330
6B
100
AcDbDictionary
280
     1
281
     1
  3
ACAD_XREC_ROUNDTRIP
360
513
  0
DICTIONARY
  5
1A
330
19
100
AcDbDictionary
280
     1
281
     1
  3
BUMPTILE
360
1C
  3
DIFFUSETILE
360
1B
  3
OPACITYTILE
360
1F
  3
REFLECTIONTILE
360
1E
  3
REFRACTIONTILE
360
20
  3
SPECULARTILE
360
1D
  0
DICTIONARY
  5
12
330
11
100
AcDbDictionary
280
     1
281
     1
  3
BUMPTILE
360
14
  3
DIFFUSETILE
360
13
  3
OPACITYTILE
360
17
  3
REFLECTIONTILE
360
16
  3
REFRACTIONTILE
360
18
  3
SPECULARTILE
360
15
  0
DICTIONARY
  5
22
330
21
100
AcDbDictionary
280
     1
281
     1
  3
BUMPTILE
360
24
  3
DIFFUSETILE
360
23
  3
OPACITYTILE
360
27
  3
REFLECTIONTILE
360
26
  3
REFRACTIONTILE
360
28
  3
SPECULARTILE
360
25
  0
DICTIONARY
  5
510
330
69
100
AcDbDictionary
280
     1
281
     1
  3
ACAD_XREC_ROUNDTRIP
360
511
  0
DICTIONARY
  5
50D
330
65
100
AcDbDictionary
280
     1
281
     1
  3
ACAD_ROUNDTRIP_2008_TABLESTYLE_CELLSTYLEMAP
360
50E
  0
XRECORD
  5
513
102
{ACAD_REACTORS
330
512
102
}
330
512
100
AcDbXrecord
280
     1
102
DISPLAYNAME
  1
Imperial24
102
FLAGS
 90
        0
  0
XRECORD
  5
1C
102
{ACAD_REACTORS
330
1A
102
}
330
1A
100
AcDbXrecord
280
     1
270
     1
271
     1
  0
XRECORD
  5
1B
102
{ACAD_REACTORS
330
1A
102
}
330
1A
100
AcDbXrecord
280
     1
270
     1
271
     1
  0
XRECORD
  5
1F
102
{ACAD_REACTORS
330
1A
102
}
330
1A
100
AcDbXrecord
280
     1
270
     1
271
     1
  0
XRECORD
  5
1E
102
{ACAD_REACTORS
330
1A
102
}
330
1A
100
AcDbXrecord
280
     1
270
     1
271
     1
  0
XRECORD
  5
20
102
{ACAD_REACTORS
330
1A
102
}
330
1A
100
AcDbXrecord
280
     1
270
     1
271
     1
  0
XRECORD
  5
1D
102
{ACAD_REACTORS
330
1A
102
}
330
1A
100
AcDbXrecord
280
     1
270
     1
271
     1
  0
XRECORD
  5
14
102
{ACAD_REACTORS
330
12
102
}
330
12
100
AcDbXrecord
280
     1
270
     1
271
     1
  0
XRECORD
  5
13
102
{ACAD_REACTORS
330
12
102
}
330
12
100
AcDbXrecord
280
     1
270
     1
271
     1
  0
XRECORD
  5
17
102
{ACAD_REACTORS
330
12
102
}
330
12
100
AcDbXrecord
280
     1
270
     1
271
     1
  0
XRECORD
  5
16
102
{ACAD_REACTORS
330
12
102
}
330
12
100
AcDbXrecord
280
     1
270
     1
271
     1
  0
XRECORD
  5
18
102
{ACAD_REACTORS
330
12
102
}
330
12
100
AcDbXrecord
280
     1
270
     1
271
     1
  0
XRECORD
  5
15
102
{ACAD_REACTORS
330
12
102
}
330
12
100
AcDbXrecord
280
     1
270
     1
271
     1
  0
XRECORD
  5
24
102
{ACAD_REACTORS
330
22
102
}
330
22
100
AcDbXrecord
280
     1
270
     1
271
     1
  0
XRECORD
  5
23
102
{ACAD_REACTORS
330
22
102
}
330
22
100
AcDbXrecord
280
     1
270
     1
271
     1
  0
XRECORD
  5
27
102
{ACAD_REACTORS
330
22
102
}
330
22
100
AcDbXrecord
280
     1
270
     1
271
     1
  0
XRECORD
  5
26
102
{ACAD_REACTORS
330
22
102
}
330
22
100
AcDbXrecord
280
     1
270
     1
271
     1
  0
XRECORD
  5
28
102
{ACAD_REACTORS
330
22
102
}
330
22
100
AcDbXrecord
280
     1
270
     1
271
     1
  0
XRECORD
  5
25
102
{ACAD_REACTORS
330
22
102
}
330
22
100
AcDbXrecord
280
     1
270
     1
271
     1
  0
XRECORD
  5
511
102
{ACAD_REACTORS
330
510
102
}
330
510
100
AcDbXrecord
280
     1
102
DISPLAYNAME
  1
Imperial24
102
FLAGS
 90
        0
  0
CELLSTYLEMAP
  5
50E
102
{ACAD_REACTORS
330
50D
102
}
330
50D
100
AcDbCellStyleMap
 90
        3
300
CELLSTYLE
  1
TABLEFORMAT_BEGIN
 90
        5
170
     1
 91
        0
 92
    32768
 62
   257
 93
        1
300
CONTENTFORMAT
  1
CONTENTFORMAT_BEGIN
 90
        0
 91
        0
 92
      512
 93
        0
300

 40
0.0
140
1.0
 94
        5
 62
     0
340
55
144
0.25
309
CONTENTFORMAT_END
171
     0
 94
        0
309
TABLEFORMAT_END
  1
CELLSTYLE_BEGIN
 90
        1
 91
        1
300
_TITLE
309
CELLSTYLE_END
300
CELLSTYLE
  1
TABLEFORMAT_BEGIN
 90
        5
170
     1
 91
        0
 92
        0
 62
   257
 93
        1
300
CONTENTFORMAT
  1
CONTENTFORMAT_BEGIN
 90
        0
 91
        0
 92
      512
 93
        0
300

 40
0.0
140
1.0
 94
        5
 62
     0
340
55
144
0.18
309
CONTENTFORMAT_END
171
     0
 94
        0
309
TABLEFORMAT_END
  1
CELLSTYLE_BEGIN
 90
        2
 91
        1
300
_HEADER
309
CELLSTYLE_END
300
CELLSTYLE
  1
TABLEFORMAT_BEGIN
 90
        5
170
     1
 91
        0
 92
        0
 62
   257
 93
        1
300
CONTENTFORMAT
  1
CONTENTFORMAT_BEGIN
 90
        0
 91
        0
 92
      512
 93
        0
300

 40
0.0
140
1.0
 94
        2
 62
     0
340
55
144
0.18
309
CONTENTFORMAT_END
171
     0
 94
        0
309
TABLEFORMAT_END
  1
CELLSTYLE_BEGIN
 90
        3
 91
        2
300
_DATA
309
CELLSTYLE_END
  0
ENDSEC
  0
EOF
